#TITLE:Fantastic Love (DJ White Star Machine Mashup);
#SUBTITLE:;
#ARTIST:DJ White Star Machine;
#TITLETRANSLIT:;
#SUBTITLETRANSLIT:;
#ARTISTTRANSLIT:;
#CREDIT:;
#BANNER:;
#BACKGROUND:;
#LYRICSPATH:;
#CDTITLE:;
#MUSIC:[ROUND 2] - Fantastic Love (DJ White Star Machine Mashup).mp3;
#OFFSET:-0.240;
#SAMPLESTART:50.060;
#SAMPLELENGTH:12.000;
#SELECTABLE:YES;
#BPMS:0.000=130.010,109.000=86.673,111.000=130.010,116.000=86.673,118.000=130.010;
#STOPS:40.000=1.385
,131.000=1.385
,208.000=1.385
;
#BGCHANGES:;

//---------------dance-single - ----------------
#NOTES:
     dance-single:
     :
     Hard:
     7:
     0.407,0.464,0.197,0.099,0.042:
0000
0000
0000
0000
,
0000
0000
0000
0000
,
0000
0000
0000
0000
,
0000
0000
0000
0000
,
1000
0100
0010
0001
,
0010
0100
1000
0001
,
1000
0010
0100
0001
,
0010
0100
0010
0001
,
1000
0000
0001
0100
0001
0000
0100
0000
,
0010
0000
0100
0010
0100
0000
0010
0000
,
0000
0000
0101
0000
0100
0000
0010
1000
,
0100
1000
0001
0000
0100
0000
0010
1000
,
0001
0010
0100
0000
0100
0000
0100
0000
,
0100
0100
2000
0000
3100
0010
0001
0001
,
0100
0100
0020
0000
0130
0000
0100
0001
,
1000
0100
0002
0000
0103
0000
0100
0010
,
0001
1000
0100
0000
0100
0000
0100
0000
,
0100
0100
0010
0000
0000
0001
0010
0010
,
0100
0100
1100
0000
1000
0001
0100
0001
,
0000
0000
1001
0000
0001
1000
0010
1000
,
0000
0000
0110
0000
0100
0001
0010
0001
,
0000
1000
1000
1000
,
1000
1000
1001
0000
0100
0010
1000
0010
,
0000
0000
1001
0000
0100
0010
0001
0010
,
0000
0000
0110
0000
0010
1000
0010
0100
,
0000
0000
0000
0000
0001
0100
0001
0100
0001
0000
0000
0000
0200
0000
0000
0000
,
0310
0000
0000
0010
0000
0000
1000
0000
0001
0010
0000
0000
,
0100
0020
0000
0031
,
0100
0000
0000
1000
0000
0010
0100
0000
0000
0001
0000
0000
,
2000
0000
3010
0010
,
0100
0000
0001
0100
0000
0000
0100
0000
0000
0010
0000
0000
,
0110
1001
0110
1001
,
0001
0000
1000
0010
0000
0000
0100
0000
0000
0001
0000
0000
,
0001
0000
1000
0100
0000
0100
1000
0000
,
0010
0000
0100
0001
0000
0001
0100
0000
,
0010
0000
0100
0001
0000
0001
0100
0000
,
0010
0000
0010
1000
0000
1000
0010
0000
,
0200
0000
0000
0300
,
0010
0100
0001
1000
,
2000
0000
0001
0001
0000
0000
3100
0000
,
0002
0000
1000
1000
0000
0000
0103
0000
,
0001
0000
0100
0010
1000
0001
0010
0000
,
0100
0000
0010
0001
1000
0010
1000
0000
,
0100
0000
0010
0001
0010
0100
1000
0000
,
0100
0000
0100
0010
0001
1000
0010
0000
,
0200
0000
0001
0001
0000
0000
0310
0000
,
0010
0100
0001
1000
0001
1000
0010
1000
,
0200
0000
0010
0010
0000
0000
1300
0001
,
0100
0010
0010
1000
0010
0010
0100
0001
,
0100
0100
0100
0100
,
0100
0100
0100
0100
,
0100
0100
0100
0100
,
0000
0000
1001
0000
0101
0000
0001
0100
,
0110
0000
1001
0000
0110
0000
0010
0100
,
1001
0101
0101
1100
,
1100
0000
1001
0000
1001
0000
0010
0100
,
1001
0000
0001
0100
0010
0100
0001
0010
,
0100
0000
0010
0000
0000
0000
0010
0000
0000
0010
0000
0010
0100
0000
1000
0000
,
0001
0100
0010
1000
0100
0010
0100
1000
,
0010
0000
0100
0000
0000
0000
0100
0000
0000
0100
0010
0000
0020
0000
0000
0000
,
1030
0000
1000
0100
0001
0100
0100
0010
,
0001
0010
0010
0001
0100
0010
1000
0000
,
0101
0000
0001
1000
0100
0100
1000
0010
,
0100
0100
0010
1000
1000
0001
0010
0000
,
1001
0000
0001
0010
0100
0010
0001
1000
,
0010
0000
1000
0000
0000
0000
1000
0000
0000
1000
0000
1000
1000
0000
0100
0000
,
0010
0001
0010
0100
0010
0001
1000
0010
,
0100
0020
0000
0000
0000
0000
0000
0030
;

//---------------dance-single - ----------------
#NOTES:
     dance-single:
     :
     Medium:
     5:
     0.297,0.361,0.220,0.076,0.000:
0000
0000
0000
0000
,
0000
0000
0000
0000
,
0000
0000
0000
0000
,
0000
0000
0000
0000
,
1000
0001
0100
0001
,
1000
0100
1000
0001
,
0100
0001
1000
0010
,
0100
0001
0010
0100
,
2000
0000
0000
3000
,
0002
0000
0000
0003
,
0000
0000
1001
0000
1001
0000
0001
1000
,
0010
0000
0100
0000
0001
0000
0100
0001
,
0010
0100
1000
0100
,
1000
0100
1000
0000
0100
0000
0010
0001
,
0010
0001
0010
0000
0100
0000
0100
0010
,
0001
0000
1000
0000
0010
0000
0100
0010
,
1000
0001
1000
0001
,
1000
0001
0100
0000
0000
0001
0010
0100
,
0010
0001
1000
0000
1000
0001
0010
0001
,
0000
0000
1001
0000
1000
0100
1000
0100
,
0000
0000
1001
0000
0010
0100
0010
0100
,
0000
0110
1001
0110
,
1001
1001
0001
0000
1000
0001
1000
0001
,
0000
0000
0100
0000
0010
0100
0010
0100
,
0000
0000
0001
0000
0001
0100
0010
1000
,
0000
0000
1000
1000
1000
0000
0100
0000
,
1100
1000
0010
0100
,
0001
0020
0000
0130
,
0100
0010
0001
0001
,
2000
0000
3010
0100
,
0001
1000
1000
0000
,
0101
0001
0101
0100
,
0010
0100
0100
0010
,
1000
0100
1000
0010
,
0100
0100
0001
0000
,
1000
0001
0010
0001
,
1000
1000
0100
0000
,
1000
0000
0000
0000
,
0001
0100
0001
0001
,
1000
0000
0000
0000
,
0100
1000
0010
0100
,
0001
0000
1000
0000
,
0100
1000
0010
0000
,
0100
0000
0001
0000
,
1000
1000
0100
0000
,
0220
0000
0000
0330
,
0010
0001
1000
0010
,
2002
0000
0000
3003
,
0001
0100
0001
0010
,
0200
0000
0000
0000
,
0000
0000
0000
0000
,
0000
0000
0000
0000
,
0300
1001
1001
0110
,
0110
0000
1001
0000
0001
0100
0001
0000
,
0000
0001
1010
0001
,
1100
0001
1010
0010
,
0100
0001
1000
0010
,
0100
0000
0001
0100
0001
0100
0001
0000
,
0100
0010
0010
0010
,
1000
0000
0010
1000
0010
1000
0010
0000
,
1000
1000
0011
1000
,
0101
1000
0011
1000
,
0000
0010
1001
0100
,
1001
0010
1001
0100
,
1001
0001
1000
0010
,
0100
0000
0001
0000
0010
0100
0010
0000
,
0100
0000
1000
0000
0010
0000
0100
0001
,
0010
0200
0000
0000
0000
0000
0000
0300
;

//---------------dance-single - ----------------
#NOTES:
     dance-single:
     :
     Easy:
     3:
     0.205,0.283,0.061,0.091,0.000: // measure 1
0000
0000
0000
0000
,  // measure 2
0000
0000
0000
0000
,  // measure 3
0000
0000
0000
0000
,  // measure 4
0000
0000
0000
0000
,  // measure 5
1000
0000
1000
0000
,  // measure 6
0001
0000
0001
0000
,  // measure 7
0100
0000
0001
0000
,  // measure 8
1000
0000
0100
0100
,  // measure 9
0020
0000
0000
0030
,  // measure 10
0200
0000
0000
0300
,  // measure 11
0000
1001
0000
0001
,  // measure 12
1000
0010
0000
1000
,  // measure 13
0100
0010
0010
0010
,  // measure 14
0010
0100
0000
1000
,  // measure 15
1000
1001
0001
0100
,  // measure 16
0000
0001
1000
0100
,  // measure 17
0000
1000
1000
1000
,  // measure 18
1000
0110
0000
0100
,  // measure 19
0100
0001
1000
0100
,  // measure 20
0000
1000
0010
0100
,  // measure 21
0000
0010
0100
0001
,  // measure 22
0000
1000
0001
1000
,  // measure 23
0001
1000
0001
0000
1000
0000
1000
0000
,  // measure 24
0000
0010
0100
0100
,  // measure 25
0000
0001
0010
0010
,  // measure 26
0000
0200
0300
1000
,  // measure 27
0000
1000
0001
0100
,  // measure 28
0100
0000
0000
1001
,  // measure 29
0001
1000
0010
0010
,  // measure 30
0000
0000
0110
0100
,  // measure 31
0001
1000
1000
0000
,  // measure 32
0110
0110
0110
0010
,  // measure 33
1000
0100
0100
0000
,  // measure 34
0010
0000
0000
0000
,  // measure 35
0001
0000
0000
0000
,  // measure 36
0100
0000
0000
0000
,  // measure 37
0001
0000
0000
0000
,  // measure 38
2000
0000
0000
3000
,  // measure 39
0100
0000
1000
0000
,  // measure 40
0020
0000
0000
0030
,  // measure 41
0100
0000
0001
0000
,  // measure 42
1000
0100
0100
0000
,  // measure 43
1000
0001
0001
0000
,  // measure 44
0100
0010
0010
0000
,  // measure 45
0100
0001
0001
0000
,  // measure 46
2000
0000
0000
3000
,  // measure 47
0100
0010
0001
0010
,  // measure 48
0200
0000
0000
0300
,  // measure 49
0010
0001
1000
0010
,  // measure 50
0200
0000
0000
0000
,  // measure 51
0000
0000
0000
0000
,  // measure 52
0000
0000
0000
0000
,  // measure 53
0300
0001
0100
1000
,  // measure 54
0100
0010
0100
0001
,  // measure 55
0000
0001
0010
1000
,  // measure 56
0010
0100
1000
0010
,  // measure 57
0100
0001
1000
0001
,  // measure 58
0100
0020
0000
0030
,  // measure 59
0100
0001
1000
0100
,  // measure 60
1000
0020
0000
0030
,  // measure 61
0100
0001
1000
0100
,  // measure 62
1000
0010
0100
0100
,  // measure 63
0000
0010
0100
0001
,  // measure 64
1000
0100
1000
0010
,  // measure 65
0100
0001
0010
0100
,  // measure 66
1000
0200
0000
0300
,  // measure 67
1000
0001
0100
0001
,  // measure 68
0010
0000
0200
0000
0000
0000
0000
0300
;
