#VERSION:0.81;
#TITLE:lieselotte;
#SUBTITLE:;
#ARTIST:wa.;
#TITLETRANSLIT:;
#SUBTITLETRANSLIT:;
#ARTISTTRANSLIT:;
#GENRE:;
#ORIGIN:;
#CREDIT:;
#BANNER:lieselotte banner.png;
#BACKGROUND:lieselotte bg.png;
#PREVIEWVID:;
#JACKET:lieselotte jacket.png;
#CDIMAGE:;
#DISCIMAGE:;
#LYRICSPATH:;
#CDTITLE:;
#MUSIC:[ROUND 11] - lieselotte.ogg;
#OFFSET:1.320;
#SAMPLESTART:42.680;
#SAMPLELENGTH:12.000;
#SELECTABLE:YES;
#BPMS:0.000=180.000,
132.000=45.000,
140.000=90.000,
156.000=180.000;
#STOPS:;
#DELAYS:;
#WARPS:;
#TIMESIGNATURES:0.000=4=4;
#TICKCOUNTS:0.000=4;
#COMBOS:0.000=1;
#SPEEDS:0.000=1.000=0.000=0;
#SCROLLS:0.000=1.000;
#FAKES:;
#LABELS:0.000=Song Start;
#BGCHANGES:;
#KEYSOUNDS:;
#ATTACKS:
;

//---------------dance-single - ----------------
#NOTEDATA:;
#CHARTNAME:;
#STEPSTYPE:dance-single;
#DESCRIPTION:;
#CHARTSTYLE:;
#DIFFICULTY:Hard;
#METER:9;
#RADARVALUES:0.691,1.000,0.233,0.058,0.517,545.000,28.000,7.000,0.000,0.000,0.000,0.000,0.000,0.691,1.000,0.233,0.058,0.517,545.000,28.000,7.000,0.000,0.000,0.000,0.000,0.000;
#CREDIT:;
#NOTES:
// measure 0
0000
0000
0000
0000
,  // measure 1
0000
0000
0000
0000
,  // measure 2
0000
0000
0000
0000
,  // measure 3
0000
0000
0000
0000
,  // measure 4
0000
0000
0000
0000
,  // measure 5
0000
0000
0000
0000
,  // measure 6
0000
0000
0000
0000
,  // measure 7
0000
0000
0000
0000
,  // measure 8
0000
0000
0000
0000
,  // measure 9
0001
0000
0100
0000
1000
0000
0001
0010
,  // measure 10
1000
0000
0100
0000
0001
0000
1000
0010
,  // measure 11
0001
0000
1000
0000
0010
0000
0001
0010
,  // measure 12
1000
0000
0001
0000
0100
0000
1000
0100
,  // measure 13
0001
0101
0100
1100
,  // measure 14
1000
1010
0010
0011
,  // measure 15
0001
0000
0000
0000
1001
0000
0000
0000
1000
0000
0000
0000
1001
0000
0000
1000
,  // measure 16
0001
0010
0100
1000
0100
0010
0001
0000
,  // measure 17
1000
0000
0010
1000
0010
0000
0100
0000
0001
0000
0010
0000
0100
0000
1000
0000
,  // measure 18
0001
0100
1000
0100
0001
0010
1000
0010
,  // measure 19
0001
0000
0100
0001
0100
0000
0010
0000
1000
0000
0100
0000
0010
0000
0001
0000
,  // measure 20
1000
0010
0001
0010
1000
0100
0001
0100
,  // measure 21
1000
0010
1000
0010
0100
0001
0100
0001
,  // measure 22
1000
0100
1000
0100
0010
0001
0010
0001
,  // measure 23
1000
0010
0001
0010
1000
1000
0001
1000
,  // measure 24
0001
0100
1000
0100
0001
0001
1000
0001
,  // measure 25
1000
0000
1000
0100
0000
0100
0001
0000
,  // measure 26
0001
0010
0000
0010
1000
0000
1010
0000
,  // measure 27
0101
0000
0001
0100
0000
0100
1000
0000
,  // measure 28
1000
0010
0000
0010
0001
0000
0011
0000
,  // measure 29
1100
0000
1000
0100
0000
0100
0001
0000
,  // measure 30
0001
1000
0000
1000
0010
0000
0011
0000
,  // measure 31
0101
0000
0001
0100
0000
0100
1000
0000
,  // measure 32
1000
0001
0000
0001
0010
0000
1010
0000
,  // measure 33
0001
0010
0100
1000
0001
0001
1000
1000
0001
0100
1000
0100
0001
0001
1000
1000
0001
0100
1000
0001
0010
0010
1000
1000
0001
0001
0010
0100
1000
1000
0010
0100
,  // measure 34
0001
0000
0000
0000
0000
0000
0010
0000
0000
0000
0000
0000
0100
0000
0000
0000
0000
0000
1000
0000
0000
0000
0000
0000
0001
0000
0000
0000
0000
0000
0001
0000
0000
0000
0000
0000
1000
0000
0000
0000
0000
0000
1000
0000
0000
0000
0000
0000
0001
0000
0000
0000
0000
0000
0010
0000
0000
0000
0000
0000
1000
0000
0000
0000
0000
0000
0010
0000
0000
0000
0000
0000
0001
0000
0000
0000
0000
0000
0001
0000
0000
0000
0000
0000
1000
0000
0000
0000
0000
0000
1000
0000
0000
0000
0000
0000
0001
0000
0000
0000
0000
0000
0010
0000
0000
0000
0000
0000
1000
0000
0000
0000
0000
0000
0001
0000
0000
0000
0000
0000
0100
0000
0000
0000
0000
0000
0100
0000
0000
0000
0000
0000
1000
0000
0000
0000
0000
0000
1000
0000
0000
0000
0000
0000
0001
0000
0000
0000
0010
0000
0000
0000
0100
0000
0000
0000
1000
0000
0000
0000
0010
0000
0000
0000
0100
0000
0000
0000
0001
0000
0000
0000
0010
0000
0000
0000
0100
0000
0000
0000
1000
0000
0000
0000
0010
0000
0000
0000
0100
0000
0000
0000
,  // measure 35
0001
0000
0000
0001
0100
0000
0000
0100
1000
0000
0000
1000
0100
0000
0000
0100
0001
0000
0000
0001
1000
0000
0000
1000
0010
0000
0000
0010
0001
0000
0000
0001
,  // measure 36
0010
0000
0000
0010
1000
0000
0000
1000
0100
0000
0000
0100
0001
0000
0000
0001
1000
0000
0000
1000
0010
0000
0000
0010
0001
0000
0000
0001
1000
0000
0000
0000
,  // measure 37
1100
0000
0000
1000
0100
0000
0000
0100
0010
0000
0000
0010
0001
0000
0000
0000
0011
0000
0000
0001
0010
0000
0000
0010
0100
0000
0000
0100
1000
0000
0000
0000
,  // measure 38
1100
0000
0000
1000
0001
0000
0000
0000
0101
0000
0000
0001
1000
0000
0000
0000
1010
0000
0000
0000
0101
0000
0000
0000
0001
0000
0010
0000
0100
1000
0100
1000
,  // measure 39
0100
0000
0000
1000
0100
0000
0010
0000
0001
0000
0000
1000
0010
0000
0001
0000
,  // measure 40
0010
0000
0000
1000
0100
0000
0001
0000
0100
0000
0000
1000
0010
0000
0100
0000
,  // measure 41
0001
0000
0000
0001
0010
0000
0100
0000
1000
0000
0000
0001
0100
0000
1000
0000
,  // measure 42
0100
0000
0000
0001
0010
0000
1000
0000
0010
0000
0000
0001
0100
0000
0010
0000
,  // measure 43
1000
0100
0001
0100
0010
0001
0100
0010
,  // measure 44
1000
0100
0010
0001
0100
1000
0100
0001
,  // measure 45
0010
1000
0001
0100
1000
0010
0001
1000
,  // measure 46
0100
0001
0010
0100
1000
0001
0100
0010
,  // measure 47
1000
0000
0000
1000
0010
0000
0100
0000
0001
0000
0000
0001
0010
0000
0100
0000
,  // measure 48
1000
0000
0000
1000
0100
0000
0010
0000
0001
0000
0000
0001
0100
0000
0010
0000
,  // measure 49
1000
1010
0000
1100
0000
0110
0000
0011
,  // measure 50
0000
0101
0000
0110
1010
0000
1001
0000
,  // measure 51
1000
0010
0100
0100
0001
0100
0010
0010
,  // measure 52
1000
0100
0010
0010
0001
0010
0100
0100
,  // measure 53
1000
0001
1000
0001
0100
0010
0100
0010
,  // measure 54
1000
0010
1000
0000
0001
0100
0001
0000
1000
0010
0100
0001
1000
0100
0010
0001
,  // measure 55
1000
0000
0001
0100
0000
1000
0000
0010
,  // measure 56
0001
0100
1000
0100
0001
1000
0100
0010
,  // measure 57
0001
0000
1000
0100
0000
0001
0000
0010
,  // measure 58
1000
0100
0001
0100
1000
0001
0010
0100
,  // measure 59
1000
0000
0001
0100
0000
1000
0000
0001
,  // measure 60
0100
1000
0010
0100
0001
1000
0100
0010
,  // measure 61
0001
0000
1000
0100
0000
0001
0000
1000
,  // measure 62
0100
0001
0010
0100
1000
0001
0100
0010
,  // measure 63
1000
0000
0100
0000
0001
0100
1000
0000
0001
0000
0100
1000
0100
0000
0001
0000
,  // measure 64
1000
0010
0100
0000
0001
0000
0010
0100
1000
0000
0001
0000
1000
0000
0000
0000
,  // measure 65
0001
0000
0100
0000
1000
0100
0001
0000
1000
0000
0100
0001
0100
0000
1000
0000
,  // measure 66
0001
0010
0100
0000
1000
0000
0010
0100
0001
0000
1000
0000
0001
0000
0000
0000
,  // measure 67
1000
0000
0010
0000
0001
0010
1000
0000
0001
0000
0010
1000
0010
0000
0001
0000
,  // measure 68
1000
0010
0100
0000
0001
0000
0010
0100
1000
0000
0001
0000
1000
0000
0000
0000
,  // measure 69
0001
0100
0001
0000
1000
0010
1000
0000
0001
0010
0001
0000
1000
0100
1000
0000
,  // measure 70
0001
0010
0100
1000
0001
0100
0010
1000
0001
0010
0100
1000
0001
0100
0010
1000
,  // measure 71
0002
0000
0003
0200
0000
0300
2000
0000
,  // measure 72
3000
0020
0000
0030
0002
0000
2003
0000
,  // measure 73
0002
0000
0000
0000
,  // measure 74
0000
0000
3003
0000
,  // measure 75
1001
0000
0000
0000
;

//---------------dance-single - ----------------
#NOTEDATA:;
#CHARTNAME:;
#STEPSTYPE:dance-single;
#DESCRIPTION:;
#CHARTSTYLE:;
#DIFFICULTY:Medium;
#METER:6;
#RADARVALUES:0.402,0.750,0.200,0.000,0.067,314.000,24.000,0.000,0.000,0.000,0.000,0.000,0.000,0.402,0.750,0.200,0.000,0.067,314.000,24.000,0.000,0.000,0.000,0.000,0.000,0.000;
#CREDIT:;
#NOTES:
0000
0000
0000
0000
,
0000
0000
0000
0000
,
0000
0000
0000
0000
,
0000
0000
0000
0000
,
0000
0000
0000
0000
,
0000
0000
0000
0000
,
0000
0000
0000
0000
,
0000
0000
0000
0000
,
0000
0000
0000
0000
,
0001
0010
0100
1000
,
0100
0010
0001
0100
,
0010
1000
0010
0100
,
0001
0010
0100
1000
,
0001
1001
1000
1001
,
0001
0011
0010
0110
,
0100
1100
1000
1010
,
0010
1000
0010
1000
,
0001
0010
0100
1000
,
0001
0100
0001
0000
0100
0010
0100
0000
,
0010
1000
0001
0010
,
0100
0010
0100
0000
1000
0010
1000
0000
,
0010
0100
0001
0010
,
0100
1000
0001
0100
,
0010
1000
0001
0010
,
0100
0010
0100
0010
,
0001
0100
0010
1000
,
0001
0010
0001
0000
0010
0100
0010
0000
,
0100
1000
0010
0100
,
0001
0010
0001
0000
0010
0100
0010
0000
,
0100
1000
0010
0100
,
0001
0010
0001
0000
0010
0100
0010
0000
,
0100
1000
0010
0100
,
0001
0010
0100
1000
,
0001
0010
0100
1000
0001
0010
0100
1000
0010
0100
0001
1000
0010
0100
0001
0010
,
0100
0010
0001
0010
0100
1000
0100
0010
0001
0100
0010
1000
0001
0010
0100
1000
,
0001
0001
0100
0100
0010
0010
1000
1000
,
0100
0100
0010
0010
0001
0001
0100
0100
,
0110
0000
0010
0010
1010
0000
1000
1000
,
1100
0000
0110
0000
0011
0101
0110
1010
,
1001
0001
1000
0010
,
0100
0001
0010
0100
,
0010
0001
0100
0010
,
1000
0001
0010
0100
,
1000
1100
0010
0110
,
0100
0101
0001
0011
,
0010
0110
0100
1100
,
1000
1010
0010
0110
,
0100
0001
0100
0010
,
1000
0001
0010
0100
,
1000
0000
0000
0001
0000
0100
0000
0010
,
0000
1000
0000
0001
0010
0000
0100
0000
,
1000
0001
0100
0010
,
1000
0001
0010
0100
,
1000
0100
1000
0000
0010
1000
0010
0000
,
0100
0001
0100
0000
0001
0010
0001
0000
,
0010
0000
0000
0100
0000
1000
0000
0001
,
0000
0100
0000
0010
0000
1000
0000
0000
,
0001
0000
0000
0010
0000
0100
0000
1000
,
0000
0001
0000
0100
0000
0010
0000
0000
,
1000
0000
0000
0001
0000
0010
0000
0100
,
0000
1000
0000
0010
0000
0100
0000
0000
,
0001
0000
0000
1000
0000
0010
0000
0100
,
0000
0001
0000
0010
0000
0100
0000
0000
,
1000
0000
0010
0000
1000
0001
1000
0000
,
0001
0100
0001
0000
0100
0010
0100
0000
,
0010
0000
1000
0000
0001
1000
0001
0000
,
0010
0001
0010
0000
0100
0010
0100
0000
,
1000
0000
0001
0000
0100
0010
0100
0000
,
0010
1000
0010
0000
1000
0001
1000
0000
,
0001
0000
0010
0000
0100
1000
0100
0000
,
1000
0010
1000
0000
0010
0100
0010
0000
,
0100
0000
0000
0001
0000
0000
0010
0000
,
0000
0100
0000
0000
1000
0000
0001
0000
,
1000
0000
0000
0000
,
0000
0000
0000
0000
,
1001
0000
0000
0000
;

//---------------dance-single - ----------------
#NOTEDATA:;
#CHARTNAME:;
#STEPSTYPE:dance-single;
#DESCRIPTION:;
#CHARTSTYLE:;
#DIFFICULTY:Easy;
#METER:3;
#RADARVALUES:0.206,0.250,0.008,0.000,0.000,172.000,1.000,0.000,0.000,0.000,0.000,0.000,0.000,0.206,0.250,0.008,0.000,0.000,172.000,1.000,0.000,0.000,0.000,0.000,0.000,0.000;
#CREDIT:;
#NOTES:
0000
0000
0000
0000
,
0000
0000
0000
0000
,
0000
0000
0000
0000
,
0000
0000
0000
0000
,
0000
0000
0000
0000
,
0000
0000
0000
0000
,
0000
0000
0000
0000
,
0000
0000
0000
0000
,
0000
0000
0000
0000
,
0001
0000
0001
0000
,
1000
0000
1000
0000
,
0001
0000
0001
0000
,
1000
0000
1000
0000
,
0001
0000
0010
0000
,
0100
0000
1000
0000
,
0001
0000
0010
0000
,
0100
0000
1000
0000
,
0001
0000
0001
0000
,
0001
0000
0001
0000
,
1000
0000
1000
0000
,
1000
0000
1000
0000
,
0010
0000
0010
0000
,
0010
0000
0010
0000
,
0100
0000
0100
0000
,
0100
0000
0100
0000
,
0001
0000
0000
0010
0000
0000
0100
0000
,
0000
1000
0000
0000
0001
0000
0010
0000
,
0100
0000
0000
1000
0000
0000
0001
0000
,
0000
0010
0000
0000
0100
0000
1000
0000
,
0001
0000
0000
0010
0000
0000
0100
0000
,
0000
1000
0000
0000
0001
0000
0010
0000
,
0100
0000
0000
1000
0000
0000
0001
0000
,
0000
0010
0000
0000
0100
0000
1000
0000
,
0001
0100
0010
1000
,
0001
0010
0100
1000
,
0001
0001
1000
1000
,
0001
0010
0100
1000
,
0001
0000
1000
0000
,
0001
1000
0001
1000
,
0001
0000
0001
0000
,
1000
0000
1000
0000
,
0010
0000
0010
0000
,
0100
0000
0100
0000
,
0001
0000
0000
0000
,
1000
0000
0000
0000
,
0001
0000
0000
0000
,
1000
0000
0000
0000
,
0001
0000
0010
0000
,
0100
0000
1000
0000
,
0001
0000
0000
1000
0000
0001
0000
1000
,
0000
0001
0000
0000
1000
0000
0001
0000
,
0100
0010
1000
0001
,
0010
0100
1000
0001
,
0100
0010
1000
0001
,
0010
0100
1000
0000
,
0001
0000
0000
1000
0000
0001
0000
1000
,
0000
0000
0000
0000
,
0001
0000
0000
1000
0000
0001
0000
1000
,
0000
0000
0000
0000
,
0001
0000
0000
1000
0000
0001
0000
1000
,
0000
0000
0000
0000
,
0001
0000
0000
1000
0000
0001
0000
1000
,
0000
0000
0000
0000
,
0001
0010
0100
1000
,
0001
0010
0100
1000
,
0001
0010
0100
1000
,
0001
0010
0100
1000
,
0001
0100
0010
1000
,
0001
0100
0010
1000
,
0001
0100
0010
1000
,
0001
0100
0010
1000
,
0001
0000
0000
0010
0000
0000
0100
0000
,
0000
1000
0000
0000
0001
0000
1000
0000
,
0001
0000
0000
0000
,
0000
0000
0000
0000
,
1001
0000
0000
0000
;
