#TITLE:下弦の月;
#SUBTITLE:;
#ARTIST:iNO;
#TITLETRANSLIT:Kagen no tsuki;
#SUBTITLETRANSLIT:;
#ARTISTTRANSLIT:;
#GENRE:NEO CLASSICALDANCE;
#CREDIT:;
#BANNER:[ROUND 11] - Kagen no tsuki.png;
#BACKGROUND:[ROUND 11] - Kagen no tsuki-bg.png;
#LYRICSPATH:;
#CDTITLE:;
#MUSIC:[ROUND 11] - Kagen no tsuki.ogg;
#OFFSET:-0.522;
#SAMPLESTART:99.505;
#SAMPLELENGTH:12.000;
#SELECTABLE:YES;
#BPMS:0.000=166.000
;
#STOPS:
;
#BGCHANGES:;
#KEYSOUNDS:;
#ATTACKS:;

//---------------dance-single - ----------------
#NOTES:
     dance-single:
     :
     Beginner:
     2:
     0.194,0.196,0.139,0.098,0.000,137.000,17.000,12.000,0.000,0.000,0.000,0.194,0.196,0.139,0.098,0.000,137.000,17.000,12.000,0.000,0.000,0.000:
0000
0000
0000
0000
,
0000
0000
0000
0000
,
0000
0000
0000
0000
,
0000
0000
0000
0000
,
2002
0000
0000
0000
,
0000
0000
0000
3003
,
1000
0000
1000
0000
,
0001
0000
0001
0000
,
0010
0000
0100
0000
,
1001
0000
0110
0000
,
0010
0000
1000
0000
,
0100
0000
1000
0000
,
0010
0000
0100
0000
,
1001
0000
0000
0000
,
1000
0000
1000
0000
,
0001
0000
0001
0000
,
1000
0000
0001
0000
,
1000
0000
1000
0000
,
0010
0000
0100
0000
,
0010
0000
0010
0000
,
0100
0000
0010
0000
,
0110
0000
0000
0000
,
0010
0000
0001
0000
,
1000
0000
1000
0000
,
0010
0000
0100
0000
,
0001
0000
0001
0000
,
1000
0000
0100
0000
,
1000
0000
0010
0000
,
0100
0000
0001
0000
,
1001
0000
0000
0000
,
0010
0000
0010
0000
,
0100
0000
0100
0000
,
0002
0000
0000
0003
,
2000
0000
0000
3000
,
1000
0000
0100
0000
,
1000
0000
0010
0000
,
0100
0000
0100
0000
,
0001
0001
0000
0000
,
0100
0000
0010
0000
,
0100
0000
0010
0000
,
1000
0000
0100
0000
,
1001
0000
0110
0000
,
0010
0000
1000
0000
,
0100
0000
1000
0000
,
0010
0000
0001
0001
,
0001
0000
0000
0000
,
0100
0000
0100
0000
,
0010
0000
0010
0000
,
1000
0000
0100
0000
,
2002
0000
0000
3003
,
1000
0000
0010
0000
,
0100
0000
0001
0000
,
0010
0000
0010
0000
,
2002
0000
0000
3003
,
0100
0000
0100
0000
,
0220
0000
0000
0330
,
0010
0000
0010
0000
,
1000
0000
0010
0000
,
0001
0000
0001
0000
,
1000
0000
0010
0000
,
0100
0100
0000
0000
,
0110
0000
0000
0000
,
0100
0000
0000
0000
,
0001
0000
1000
0000
,
1001
0000
0110
0000
,
0010
0000
0010
0000
,
1000
0000
1000
0000
,
0100
0000
1000
0000
,
2002
0000
0000
3003
,
0001
0000
0100
0000
,
0010
0000
0010
0000
,
1000
0000
0100
0000
,
1001
0000
0000
0000
,
0100
0000
0010
0000
,
1000
0000
1000
0000
,
0001
0000
0010
0000
,
0001
0000
0000
0000
,
1000
0000
0010
0000
,
0100
0000
0100
0000
,
0001
0000
1000
0000
,
1001
0000
0000
0000
;

//---------------dance-single - ----------------
#NOTES:
     dance-single:
     :
     Easy:
     4:
     0.338,0.394,0.294,0.147,0.000,235.000,36.000,18.000,0.000,0.000,0.000,0.338,0.394,0.294,0.147,0.000,235.000,36.000,18.000,0.000,0.000,0.000:
0000
0000
0000
0000
,
0000
0000
0000
0000
,
0000
0000
0000
0000
,
0000
0000
0000
0000
,
2002
0000
0000
0000
,
0000
0000
0000
3003
,
1000
1000
0100
0100
,
1000
0010
0100
0001
,
0010
0000
0010
0000
,
0001
1000
1001
0000
,
1000
1000
0010
0010
,
0100
0001
1000
1000
,
0010
0100
0001
0010
,
2002
0000
0000
3003
,
1000
0000
1000
0000
,
0010
0010
0010
0000
,
0100
0000
0001
0000
,
1000
0010
0100
0001
,
1000
0000
1000
0000
,
0010
1000
0010
0100
,
0001
0000
0001
0000
,
0010
0001
1000
0010
,
1001
0000
1000
1000
,
0010
0000
0010
0010
,
0100
0000
0100
0100
,
0001
0001
1000
0010
,
1001
0000
1000
1000
,
0010
0000
0010
0010
,
0100
0000
0100
0001
,
1001
0000
1000
0000
,
0010
0010
0100
0000
,
0100
0001
0010
0000
,
0010
0010
0001
0001
,
0010
0010
0001
0001
,
0100
0000
0010
0000
,
0010
1000
0100
0000
,
1000
1000
0100
0000
,
0010
0100
0010
0100
0000
0000
0000
0000
,
0010
0000
1000
0000
,
0100
1000
0010
0000
,
0100
0000
0100
0001
,
0010
0010
0001
1000
,
1001
0000
0100
0000
,
0010
1000
0100
0000
,
1000
0000
0010
0100
,
1001
0000
0110
0000
,
0010
1000
0100
0000
,
1000
0010
0100
0000
,
0001
0010
0001
0000
,
2002
0000
0000
3003
,
1000
0000
0010
0000
,
0010
0100
0001
0000
,
1000
0010
0100
0010
,
2020
0000
0000
3030
,
0202
0000
0000
0303
,
0010
0100
0010
1000
,
0100
0001
0100
1000
,
0010
0010
0100
0100
,
0010
0001
0010
1000
,
0100
0100
1000
1000
,
0001
1000
0001
1000
0000
0000
0000
0000
,
0010
0010
1000
0000
,
1000
1000
0100
0000
,
1000
0000
0010
0000
,
1001
0110
1001
0011
,
0110
0000
0010
0000
,
0010
1100
1000
1000
,
0010
0010
0100
0100
,
0101
0000
1010
0000
,
1000
0100
0010
0001
,
1001
0110
1001
1001
,
0010
1000
0100
1000
,
2200
3300
0022
0033
,
0100
0010
1000
0100
,
1010
0101
1010
0101
,
1000
0010
0100
0001
,
0022
0033
2200
3300
,
1000
0010
0100
0001
,
0010
0011
0101
1010
,
0101
0010
1000
0100
,
1000
0001
1000
0001
0000
0000
0000
0000
;

//---------------dance-single - ----------------
#NOTES:
     dance-single:
     :
     Medium:
     7:
     0.419,0.427,0.196,0.155,0.000,316.000,24.000,19.000,0.000,0.000,0.000,0.419,0.427,0.196,0.155,0.000,316.000,24.000,19.000,0.000,0.000,0.000:
0000
0000
0000
0000
,
0000
0000
0000
0000
,
0000
0000
0000
0000
,
0000
0000
0000
0000
,
2002
0000
0000
0000
,
0000
0000
0000
3003
,
1000
0000
0010
0000
0100
0001
0010
0000
,
0001
0001
1000
1000
,
0010
0000
0010
0000
0100
0001
0010
0000
,
0001
0001
1001
0110
,
0010
0000
0010
0000
1000
0100
1000
0000
,
0010
0100
0001
0000
0010
0000
0010
0000
,
0001
1000
0001
0000
0100
0000
0110
0000
,
2002
0000
0000
3003
,
1000
0010
0100
0000
0001
0000
0001
0000
,
0010
0001
0100
0000
0010
0000
0010
0000
,
0010
1000
0100
0000
1000
0000
1000
0000
,
0002
0013
2000
3100
,
0001
0000
0010
0000
0001
1000
0100
0000
,
0010
0000
0010
0000
1000
0100
1000
0000
,
0010
0001
0010
0000
0001
0000
0100
0000
,
0010
0010
1000
0001
,
1001
0000
0100
0100
,
0010
0000
0010
0010
,
0010
1000
0100
0000
0010
0001
0100
0000
,
0001
0001
1000
1000
,
0010
0000
0010
0000
,
1000
0001
1000
0000
,
0010
0000
0001
0100
0010
0000
0010
0000
,
1000
0001
1000
0001
,
0010
0100
0010
0000
1000
0000
1000
0000
,
0001
0100
0001
0000
0010
0000
0010
0000
,
0001
1000
0100
0000
0100
0000
0000
0000
,
0100
1000
0010
0000
0100
0000
0000
0000
,
0001
0001
0010
0010
,
0001
0001
0100
0100
,
0010
1000
0100
0000
0100
0000
0100
0000
,
1000
0001
1000
0001
0000
0000
0000
0000
,
0010
0010
0100
0100
,
0010
1000
0100
0000
0010
0000
0010
0000
,
0010
0001
0100
0000
0001
0010
0001
0000
,
0001
1001
0110
1001
,
0010
1000
0100
0000
1000
0000
1000
0000
,
1000
0100
0001
0000
0001
0100
1000
0000
,
0010
0000
0010
0100
0001
0000
0010
0000
,
0011
1100
0101
1010
,
0010
1000
0001
0000
0010
0000
0010
0000
,
0010
1000
0001
0000
0010
0000
0010
0000
,
0100
1000
0001
0000
0100
0000
0100
0000
,
0020
0000
0000
0030
,
0010
1000
0100
0000
1000
0000
1000
0000
,
1000
0010
0001
0000
0001
0010
1000
0000
,
1000
0010
0001
0000
0001
0010
1000
0000
,
0020
0000
0000
0000
,
0200
0000
0000
0330
,
0002
0000
0000
0000
0020
0000
0000
0033
,
0200
0000
2000
3300
,
1000
0010
1000
1000
,
0010
0100
0001
0001
,
0010
0001
0100
0000
0100
0000
0100
0000
,
0010
1000
0100
1000
0000
0000
0000
0000
,
0010
0000
0010
0000
,
0100
0000
0100
0000
,
0001
0000
1000
0000
,
0110
1010
0101
1001
,
0110
0000
0010
0000
,
0010
1000
0100
0000
1000
0000
1000
0000
,
0010
0100
0001
0000
0010
0000
0010
0000
,
0022
0000
0000
0033
2200
0000
3300
0000
,
0010
1000
0100
0000
0010
0000
0010
0000
,
0001
0100
0010
0000
1010
0000
0101
0000
,
0010
0000
1000
0000
0100
1000
0010
0000
,
0120
0100
0100
0130
,
0010
0001
0100
0000
0010
0000
0010
0000
,
0010
1000
0100
0000
1000
0000
1000
0000
,
0010
0100
0001
0000
0010
0000
0001
0000
,
1002
1000
1000
1003
,
0100
0010
1000
0000
0100
0000
0100
0000
,
1000
0010
0100
0001
0010
0000
0010
0000
,
0001
0100
0010
1000
0100
0000
0010
0000
,
1000
0001
0001
1000
0000
0000
0000
0000
;

//---------------dance-single - ----------------
#NOTES:
     dance-single:
     :
     Hard:
     9:
     0.634,0.657,0.213,0.114,0.020,503.000,26.000,14.000,0.000,0.000,0.000,0.634,0.657,0.213,0.114,0.020,503.000,26.000,14.000,0.000,0.000,0.000: // measure 0
0000
0000
0000
0000
,  // measure 1
0000
0000
0000
0000
,  // measure 2
0000
0000
0000
0000
,  // measure 3
0000
0000
0000
0000
,  // measure 4
1000
1000
0100
0100
,  // measure 5
0010
0000
0010
0000
0010
0001
0010
0001
,  // measure 6
0100
0010
0100
0010
1000
0010
0100
0000
,  // measure 7
0001
0001
0011
0000
0100
0100
1100
0000
,  // measure 8
0010
0100
0010
1000
0100
0001
0100
1000
,  // measure 9
0010
0100
0001
0000
1001
0000
0110
0000
,  // measure 10
0010
0100
0010
0100
0001
0100
0010
0000
,  // measure 11
1000
1000
1100
0000
0010
0010
0011
0000
,  // measure 12
0100
0010
0100
0100
0010
1000
0010
0001
,  // measure 13
0020
0000
0200
0330
,  // measure 14
0001
0010
0001
0100
0010
0100
0010
1000
,  // measure 15
0010
0001
0010
1000
0010
0001
0010
1000
,  // measure 16
0100
0010
0001
0100
1000
0100
0001
0100
,  // measure 17
1000
0100
0001
0010
0002
0000
0013
0000
,  // measure 18
0001
1000
0100
0010
0001
0100
1000
0100
,  // measure 19
0010
1000
0100
0001
0100
0010
0001
1000
,  // measure 20
0001
0100
0010
1000
0100
0010
0001
0100
,  // measure 21
0010
0001
0010
1000
0020
0000
0130
0000
,  // measure 22
1001
0001
0100
1000
0100
0010
0100
0000
,  // measure 23
0001
0110
1010
0100
,  // measure 24
1001
0000
1000
0010
0100
0000
0100
0000
,  // measure 25
0001
1000
0100
0000
0110
0000
1100
0000
,  // measure 26
0001
1000
0010
0001
0010
0100
0010
0000
,  // measure 27
1000
0110
0101
0010
,  // measure 28
1001
0000
0001
0100
0010
0000
0010
0000
,  // measure 29
0100
0001
0010
0000
0010
0001
0010
0000
,  // measure 30
2001
0010
0001
0100
,  // measure 31
0010
0001
0010
3100
,  // measure 32
1000
0010
0001
0010
1000
0010
1000
1000
,  // measure 33
0100
0000
0001
0000
0100
0000
1000
0100
1000
0000
0100
0000
1000
0000
0100
0000
,  // measure 34
1002
0100
1000
0010
,  // measure 35
0100
1000
0100
0013
,  // measure 36
0001
0100
1000
0100
0001
0100
0001
0001
,  // measure 37
1000
0001
0100
2002
0000
0000
3003
0000
,  // measure 38
1000
0010
0100
0010
1000
0010
0001
0000
,  // measure 39
0010
1000
0100
0000
0010
0001
0100
0000
,  // measure 40
0010
0100
0010
0000
1000
0100
1000
0100
,  // measure 41
0001
0100
1000
0100
1000
0001
1001
0000
,  // measure 42
0001
0100
0010
0100
0001
0100
1000
0000
,  // measure 43
0100
0001
0010
0000
0100
1000
0010
0000
,  // measure 44
1000
0001
0100
1000
0100
0001
0010
1000
,  // measure 45
0010
0000
0010
0000
0001
0000
0010
0000
0001
0100
0001
0100
0010
1000
0010
1000
,  // measure 46
0010
1000
0100
0010
0100
1000
0001
0100
,  // measure 47
0010
0100
0010
0000
1000
0100
1000
0100
,  // measure 48
0010
0001
0100
1000
0100
0001
0010
0100
,  // measure 49
2000
0000
0002
3003
,  // measure 50
0100
0001
0010
0100
0010
0001
1000
0010
,  // measure 51
0100
0010
0100
0000
0001
0010
0001
0010
,  // measure 52
0100
1000
0010
0001
0010
1000
0100
0001
,  // measure 53
0100
0010
0100
1000
0001
0100
0010
0100
,  // measure 54
0001
0100
0010
0001
0010
1000
0100
0010
,  // measure 55
0001
1000
0100
0010
0100
1000
0001
0100
,  // measure 56
0100
0010
0100
0001
0010
0001
0010
0100
,  // measure 57
1000
0100
0001
0100
1000
0100
0001
0100
,  // measure 58
1000
0100
0010
0001
0010
0100
1000
0010
,  // measure 59
0100
0001
1000
0010
0100
0001
1000
0010
,  // measure 60
1000
0001
1000
2002
0000
0000
3003
0000
,  // measure 61
1000
1000
0100
0100
,  // measure 62
0010
0001
0100
0000
0100
0010
1000
0000
,  // measure 63
1000
0010
0100
0000
0100
0001
0010
0000
,  // measure 64
1001
0110
0011
1100
,  // measure 65
0001
0100
0010
0100
0001
0100
1000
0000
,  // measure 66
0100
0001
0010
0000
0100
1000
0010
0000
,  // measure 67
0100
0001
0100
0000
0001
0010
0001
0010
,  // measure 68
1000
0010
0001
0010
0001
1000
1010
0000
,  // measure 69
1000
0010
0100
0010
1000
0010
0001
0000
,  // measure 70
0010
1000
0100
0000
0010
0001
0100
0000
,  // measure 71
0010
1000
0001
0010
0100
1000
0100
0001
,  // measure 72
0100
0100
1000
0100
1000
0010
1000
0000
,  // measure 73
1000
0001
0010
0100
0010
0001
1000
0010
,  // measure 74
0100
0010
0100
0000
0001
0010
0001
0010
,  // measure 75
0100
1000
0010
0001
0010
1000
0100
0001
,  // measure 76
0200
0000
2000
3300
,  // measure 77
0100
0010
1000
0100
0001
0100
1000
0010
,  // measure 78
0001
0100
1000
0010
0100
0001
0010
1000
,  // measure 79
0100
0001
1000
0100
0010
0100
1000
0010
,  // measure 80
1000
0001
1000
1001
0000
0000
0000
0000
;
