#TITLE:Forever Sunshine (D.O.G G3 Mix);
#SUBTITLE:;
#ARTIST:Remixed by JAKAZiD;
#TITLETRANSLIT:;
#SUBTITLETRANSLIT:;
#ARTISTTRANSLIT:;
#GENRE:;
#CREDIT:;
#BANNER:Forever Sunshine.png;
#BACKGROUND:Forever Sunshine-bg.png;
#LYRICSPATH:;
#CDTITLE:;
#MUSIC:[ROUND 11] - Forever Sunshine (D.O.G G3 Mix).ogg;
#OFFSET:-0.040;
#SAMPLESTART:59.636;
#SAMPLELENGTH:12.000;
#SELECTABLE:YES;
#BPMS:0.000=165.000,279.000=140.000,280.000=110.550,281.000=100.000,282.000=88.000,283.000=72.500,284.000=82.500;
#DISPLAYBPM:165.000;
#STOPS:;
#BGCHANGES:;
#KEYSOUNDS:;

//---------------dance-single - Blank----------------
#NOTES:
     dance-single:
     Blank:
     Hard:
     8:
     0.554,0.528,0.037,0.102,0.005:
0000
0000
0000
0000
,
0000
0000
0000
0000
,
0000
0000
0000
0000
,
0000
0000
0000
0000
,
1000
0100
0010
0001
0000
0001
0100
0010
,
1000
0100
0010
0100
0000
0100
1000
0001
,
0100
0010
1000
0001
0000
0001
1000
0010
,
0200
0000
0010
0310
,
1000
0100
0010
0100
1000
0010
0100
0010
,
1000
0001
0010
0100
0010
0001
0100
0010
,
0100
0001
1000
0100
0010
0001
0100
0010
,
0100
0001
1000
0100
0010
0001
0100
0000
,
0100
0010
0100
0001
0010
0100
1000
0001
,
0100
0010
0100
0001
0010
0100
0010
0001
,
1000
0010
0100
0001
0100
0010
1000
0001
,
0010
0100
1000
0001
0100
0010
0200
0000
,
0310
1000
0100
0001
0100
1000
0010
0100
,
0010
1000
0010
0100
0001
0100
0010
0100
,
0001
0010
0100
1000
0001
0100
1000
0100
,
0001
1000
0100
0010
0001
1000
0010
0000
,
0010
0100
0001
0100
0000
0010
1000
0100
,
0000
0010
0001
0100
0000
0010
1000
0002
,
0000
1000
0000
0100
0000
1000
0003
1000
,
0020
0000
0000
0030
,
1000
0000
0100
0000
0010
0001
0100
0000
,
0010
0000
1000
0000
0001
0010
0100
0000
,
1000
0000
0001
0000
0100
0010
0100
0000
,
0001
0000
0010
0000
0100
1000
0001
1000
,
0100
0000
0010
0000
0001
0100
0010
0000
,
1000
0000
0100
0000
0010
0100
1000
0000
,
0001
0000
0100
0000
0010
1000
0001
0000
,
0010
0000
0100
0000
1000
0001
1000
0010
,
0100
0000
0001
0000
0010
0100
1000
0000
,
0100
0000
0010
0000
0001
0100
1000
0000
,
0100
0000
0001
0000
1000
0100
0010
0000
,
0001
0000
0100
0000
1000
0100
0001
0000
,
1000
0000
0100
0000
0010
0100
1000
0000
,
0010
0000
0100
0000
0001
0010
0100
0000
,
1000
0000
0010
0000
0100
0001
1000
0001
,
0020
0031
2000
3100
,
1000
0000
0000
0000
0001
0000
0000
0000
1000
0000
0001
0000
1000
0001
0000
0000
,
1001
0000
1001
0000
0010
0100
0010
0100
,
0000
0010
0000
1000
0000
0100
1000
0001
,
0100
0000
0010
0000
1000
0100
0010
0001
,
0000
0100
0000
0010
0000
0010
0100
0000
,
0001
0000
1000
0000
0100
0010
0001
0100
,
0000
0010
0000
0100
0000
0001
1000
0000
,
0100
0000
0010
0000
0001
1000
0010
0000
,
0100
0000
0001
0000
0010
0100
1000
0001
,
0100
0000
0110
0000
0010
1000
0010
0100
,
0000
0001
0000
0100
0000
0010
1000
0000
,
0001
0000
0010
0000
0100
1000
0001
0100
,
0000
0010
0000
0100
0000
0001
1000
0000
,
0100
0000
0010
0000
0001
1000
0010
0200
,
0001
0000
0302
0000
,
1003
0100
0010
0001
0100
0010
0100
0001
,
1000
0100
0010
0001
0100
0010
1000
0001
,
0010
0100
1000
0001
0100
0100
0010
1000
,
0001
0010
0100
1000
0100
0010
0001
0000
,
0001
0100
1000
0100
0001
1000
0100
0010
,
0100
1000
0010
0100
0001
0010
1000
0010
,
0100
1000
0010
0100
0001
1000
0100
0010
,
0001
0100
0010
1000
0001
0010
0100
0000
,
0100
1000
0010
0100
0010
1000
0001
0010
,
0100
1000
0001
0100
0010
1000
0001
0000
,
0001
0010
0100
1000
0010
0100
0001
0010
,
0100
1000
0010
0100
0001
1000
0100
0000
,
0100
1000
0010
0100
0000
0001
0010
0100
,
0000
1000
0001
0100
0000
0010
1000
0002
,
0010
0100
0013
2002
,
0000
0000
0000
0000
,
3003
0000
0000
0000
;

//---------------dance-single - Blank----------------
#NOTES:
     dance-single:
     Blank:
     Medium:
     6:
     0.404,0.429,0.046,0.102,0.000:
0000
0000
0000
0000
,
0000
0000
0000
0000
,
0000
0000
0000
0000
,
0000
0000
0000
0000
,
0001
1000
0001
0001
,
0100
0010
0100
0100
,
0010
1000
0001
0100
,
0220
0000
0000
0330
,
0010
0000
1000
0000
0100
1000
0001
0000
,
0100
0000
0010
0000
1000
0001
0010
0000
,
0100
0000
1000
0000
0001
0100
0010
0000
,
0100
0000
0001
0000
0010
0100
0010
0000
,
0001
0000
1000
0000
0010
0100
0001
0000
,
1000
0000
0100
0000
0010
0100
1000
0000
,
0001
0000
0100
0000
0010
1000
0001
0000
,
0010
0000
0100
0000
1000
0010
1000
0000
,
0001
0000
0010
0000
0100
1000
0001
0000
,
0100
0000
0010
0000
1000
0100
0001
0000
,
0100
0000
0010
0000
0001
0100
0010
0000
,
1000
0000
0100
0000
0010
0001
1000
0000
,
0010
0000
1000
0001
0000
1000
0010
1000
,
0000
0010
0100
0001
0000
0010
0000
2000
,
0000
0001
0001
3001
,
2002
0000
0000
3003
,
1000
0000
0010
0000
0001
0100
0010
0000
,
1000
0100
0010
0010
,
0100
0000
1000
0000
0001
0100
1000
0000
,
0100
0010
1000
0100
,
0010
0000
0001
0000
1000
0010
0001
0000
,
0010
0100
0001
0010
,
0100
0000
1000
0000
0001
0100
0010
0000
,
1000
0000
0001
0000
0010
0100
0010
0100
,
0010
0001
0100
1000
,
0100
0000
0001
0000
0010
0100
0010
0000
,
0001
1000
0010
0100
,
0001
0000
1000
0000
0100
0001
0100
0000
,
0010
0001
1000
0010
,
0100
0000
0001
0000
1000
0010
0100
0000
,
0010
1000
0100
0010
,
0200
0000
2300
0000
,
3001
0000
1000
0000
0001
1000
0001
0000
,
1000
0000
0100
0000
1100
0000
0000
0010
,
0000
0100
0000
0001
0010
0000
0100
0000
,
1000
0000
0010
0000
0100
0000
0000
0001
,
0000
1000
0000
0100
1000
0000
0010
0000
,
0100
0000
0001
0000
0010
0100
1000
0000
,
0001
0100
0010
0010
,
0100
0001
0010
0100
,
1000
0000
0001
0000
0100
0010
0100
0000
,
0001
0000
0010
0000
0011
0000
0000
0100
,
0000
1000
0000
0010
0100
0000
0010
0000
,
1000
0000
0001
0000
0010
0000
0000
0100
,
0000
1000
0000
0001
0100
0000
0010
0000
,
1000
0010
0100
0001
,
2000
0000
0000
3000
,
0010
0100
0001
0010
,
0100
0000
1000
0000
0001
0100
0010
0000
,
0100
0001
0010
0100
,
1000
0000
0001
0000
0100
0010
0100
0000
,
0001
0010
0100
1000
,
0001
0000
0100
0000
0010
1000
0100
0000
,
1000
0010
0100
0001
,
1000
0000
0100
0000
0010
0001
0010
0000
,
0001
0010
0100
0001
,
0100
0000
1000
0000
0010
1000
0010
0000
,
0010
1000
0100
0010
,
0001
0000
1000
0000
0010
0100
0010
0000
,
1000
0000
0100
1000
0000
0001
0100
0010
,
0000
1000
0001
0010
0000
0100
1000
0002
,
0000
0100
0103
0220
,
0000
0000
0000
0000
,
0330
0000
0000
0000
;

//---------------dance-single - Blank----------------
#NOTES:
     dance-single:
     Blank:
     Easy:
     3:
     0.239,0.259,0.028,0.065,0.000:
0000
0000
0000
0000
,
0000
0000
0000
0000
,
0000
0000
0000
0000
,
0000
0000
0000
0000
,
0010
0000
0100
0000
,
0001
0000
1000
0000
,
0100
0000
0010
0000
,
1001
0000
0000
0000
,
0010
0000
0001
0000
,
0100
0010
0100
0000
,
0001
0000
0010
0000
,
0100
1000
0001
0000
,
0100
0000
0010
0000
,
1000
0100
0001
0000
,
1000
0000
0010
0000
,
0100
1000
0010
0000
,
0100
0000
0001
0000
,
0010
0100
1000
0000
,
0001
0000
0100
0000
,
0010
1000
0001
0000
,
0010
0000
0000
0000
0000
0000
0000
0100
,
0000
0000
0000
0000
0000
0000
0000
2000
,
0000
0000
3001
0000
,
2002
0000
0000
3003
,
1000
0000
0010
0000
,
0100
0001
1000
0000
,
0100
0000
0010
0000
,
0001
0100
0010
0000
,
0100
0000
0001
0000
,
1000
0100
0010
0000
,
0001
0000
0100
0000
,
0010
1000
0001
0000
,
0010
0000
0100
0000
,
1000
0001
0100
0000
,
0010
0000
1000
0000
,
0100
0010
0100
0000
,
1000
0000
0010
0000
,
0001
0010
1000
0000
,
0001
0000
0010
0000
,
0200
0000
2300
0000
,
3001
0000
0000
0000
,
0001
0001
1000
1000
,
0010
0100
0010
1000
,
0100
0100
0010
0010
,
0001
0100
1000
0100
,
0010
0010
1000
1000
,
0100
0100
0001
0001
,
1000
0010
0100
1000
,
0010
0100
0001
0000
,
0010
0010
0100
0100
,
1000
0010
0001
0010
,
1000
1000
0001
0001
,
0010
0100
1000
0001
,
0100
0010
0100
0001
,
2000
0000
3001
0000
,
0100
0000
0010
0000
,
1000
0100
0010
0000
,
0001
0000
0100
0000
,
1000
0100
0010
0000
,
1000
0000
0100
0000
,
0010
0001
1000
0000
,
0010
0000
0100
0000
,
0001
0010
0100
0000
,
1000
0000
0001
0000
,
0100
0010
0100
0000
,
0001
0000
0010
0000
,
0100
1000
0001
0000
,
0100
0000
0000
0000
0000
0000
0000
0010
,
0000
0000
0000
0000
0000
0000
0000
2000
,
0000
0001
3000
1001
;

//---------------dance-single - Blank----------------
#NOTES:
     dance-single:
     Blank:
     Beginner:
     1:
     0.093,0.130,0.046,0.000,0.000:
0000
0000
0000
0000
,
0000
0000
0000
0000
,
0000
0000
0000
0000
,
0000
0000
0000
0000
,
1000
0000
0000
0000
,
0000
0000
0000
0000
,
0001
0000
1000
0000
,
1001
0000
0000
0000
,
1000
0000
0000
0000
,
0100
0000
0000
0000
,
0010
0000
0000
0000
,
0001
0000
0000
0000
,
0100
0000
0000
0000
,
0010
0000
0000
0000
,
1000
0000
0000
0000
,
0001
0000
0000
0000
,
0010
0000
0000
0000
,
0100
0000
0000
0000
,
1000
0000
0000
0000
,
0010
0000
0000
0000
,
0110
0000
0000
0000
,
0000
0000
0000
0000
,
0010
0000
0010
0000
,
0010
0000
0000
0000
,
1000
0000
0000
0000
,
0100
0000
0000
0000
,
0010
0000
0000
0000
,
0001
0000
0000
0000
,
1000
0000
0000
0000
,
0010
0000
0000
0000
,
0100
0000
0000
0000
,
0001
0000
0000
0000
,
0010
0000
0000
0000
,
0100
0000
0000
0000
,
1000
0000
0000
0000
,
0001
0000
0000
0000
,
0100
0000
0000
0000
,
0010
0000
0000
0000
,
1000
0000
0000
0000
,
0001
0000
0000
0000
,
0000
0000
0000
0000
,
1000
0000
0000
0000
,
1000
0000
0000
0000
,
0010
0000
0000
0000
,
0010
0000
0000
0000
,
0100
0000
0000
0000
,
0100
0000
0000
0000
,
0001
0000
0000
0000
,
0001
0000
0000
0000
,
1000
0000
0000
0000
,
0100
0000
0000
0000
,
0010
0000
0000
0000
,
0001
0000
0000
0000
,
0100
0000
0000
0000
,
0010
0000
0000
0000
,
1001
0000
0000
0000
,
0100
0000
0000
0000
,
0010
0000
0000
0000
,
0001
0000
0000
0000
,
1000
0000
0000
0000
,
0010
0000
0000
0000
,
0100
0000
0000
0000
,
0001
0000
0000
0000
,
1000
0000
0000
0000
,
0100
0000
0000
0000
,
0010
0000
0000
0000
,
0001
0000
0000
0000
,
1001
0000
0000
0000
,
0000
0000
0000
0000
,
0100
0000
0000
0110
;
