#TITLE:December Breeze;
#SUBTITLE:;
#ARTIST:dj silverberg;
#TITLETRANSLIT:;
#SUBTITLETRANSLIT:;
#ARTISTTRANSLIT:;
#GENRE:;
#CREDIT:;
#BANNER:[ROUND 11] - December Breeze.png;
#BACKGROUND:[ROUND 11] - December Breeze-bg.png;
#LYRICSPATH:;
#CDTITLE:cdtitle.png;
#MUSIC:[ROUND 11] - December Breeze.ogg;
#OFFSET:0.000;
#SAMPLESTART:52.737;
#SAMPLELENGTH:14.000;
#SELECTABLE:YES;
#BPMS:0.000=182.000
;
#STOPS:
;
#BGCHANGES:;
#KEYSOUNDS:;
#ATTACKS:;

//---------------dance-single - ----------------
#NOTES:
     dance-single:
     :
     Challenge:
     10:
     1.000,1.000,0.203,0.097,1.000,864.000,23.000,11.000,0.000,0.000,0.000,1.000,1.000,0.203,0.097,1.000,864.000,23.000,11.000,0.000,0.000,0.000:
0000
0000
0000
0000
,
1000
1000
0001
0010
0000
0010
0001
0100
,
0010
0010
1000
0001
0000
0001
1000
0100
,
1000
0010
0001
0010
1000
0100
0001
0100
,
1000
0010
0100
0001
0010
0100
0010
0001
0100
0010
1000
0100
0010
0100
1000
0002
,
2000
0000
0000
3003
,
0010
0000
0100
0000
0010
0000
1000
0000
0001
0010
0100
0010
0001
1000
0000
0010
,
1000
0000
0100
0000
0001
0000
0100
0000
1000
0010
0100
0010
1000
0001
0010
0100
,
0010
0000
0001
0000
1000
0000
0010
0000
1000
0100
0010
0100
1000
0001
0000
0100
,
0001
0100
0010
1000
0100
0010
0100
1000
0001
0000
0100
0000
1000
0000
0100
0000
,
0010
0000
1000
0000
0001
0000
1000
0000
0100
0010
0001
0100
0010
0100
0000
0010
,
1000
0000
0001
0000
1000
0000
0010
0000
0100
0001
0010
0100
1000
0010
0100
0010
,
1000
0001
1000
0200
0000
0310
0100
1000
,
0001
0000
0100
0000
0001
0010
0000
0100
0010
0001
0100
0010
0100
0001
1000
0100
,
1000
0000
0010
0000
0001
0000
0010
0000
0100
0001
0100
0010
1000
0001
0000
0010
,
0001
0000
1000
0000
0010
0000
0100
0000
0010
1000
0100
0010
0100
1000
0001
0100
,
0001
0000
0010
0000
1000
0000
0010
0000
0001
1000
0010
1000
0100
0010
0000
0100
,
1000
0010
0100
0001
1000
0100
0010
0100
1000
0000
0010
0000
0100
0000
0010
0000
,
0001
0000
0010
0000
0100
0000
0001
0000
1000
0100
1000
0010
0100
0001
0000
0010
,
0001
0000
0100
0000
1000
0000
0100
0000
0010
1000
0001
0010
0100
1000
0010
0100
,
0010
1000
0001
0020
0000
0130
0010
0001
,
1001
0000
0100
0010
0100
0000
1001
0000
0010
0100
0010
0000
1001
0000
0110
0000
,
0000
0100
0001
0100
0010
1000
0001
0010
,
0001
0100
0010
0100
0001
0000
1000
0000
0100
0000
0000
0100
0010
0000
0001
0000
,
0100
0000
1000
0000
0100
0000
0010
0000
1000
0000
0001
0000
0010
0100
1000
0100
,
0010
0000
0100
1000
0001
0000
1000
0000
0010
0000
0100
0001
1000
0000
0001
0000
,
0010
1000
0010
0100
1000
0010
0100
0001
,
1000
0000
0100
0010
0100
0000
1000
0000
0001
0000
0100
0010
0100
0000
0001
0000
,
0010
0100
0010
0001
1000
0000
0001
0000
0100
0010
1000
0001
1000
0000
0100
0000
,
1000
0010
0001
0010
0100
0001
0100
0010
,
1000
0010
0100
0010
1000
0001
0010
0100
0010
0001
0100
1000
0100
0010
0100
0001
,
1000
0000
0001
0010
0001
0000
1000
0000
0001
0100
0001
0000
1000
0000
0001
0010
,
0001
0000
1000
0000
0001
0100
0001
0000
0010
0000
0010
0000
0011
0000
0011
0000
,
1000
0010
0100
0010
1000
0000
0001
0100
0010
0100
0001
0000
1000
0010
0100
0010
,
1000
0000
0001
0100
0010
0100
0001
0000
1000
0100
0010
0001
1000
0000
0001
0000
,
0010
0100
1000
0010
0100
0010
1000
0001
0010
0100
0010
0001
0100
0010
1000
0001
,
1000
0010
0001
0010
1000
0001
0010
0100
0010
0001
1000
0001
0100
0010
1000
0100
,
0010
0100
1000
0010
0001
0010
0100
0001
0100
0010
1000
0100
0010
0001
0100
0010
,
0100
0000
0000
0000
1010
0000
0000
0000
0010
0100
0001
0010
0100
0000
0110
0000
,
0000
0000
0011
0000
0011
0000
0000
0000
1001
0000
1001
0000
0001
1000
0001
1000
,
0001
0000
0010
0000
0100
0000
0010
0000
0100
1000
0010
0100
0001
0010
0000
0100
,
0010
0000
0100
0000
1000
0000
0010
0000
0100
0001
0010
0100
0010
0001
1000
0010
,
1000
0000
0100
0000
0001
0000
0100
0000
1000
0010
0100
0010
1000
0001
0000
0010
,
0001
0010
0100
1000
0010
0100
0001
0100
0010
0000
0010
0000
1000
0000
0100
0000
,
1000
0000
0001
0000
0010
0000
0100
0000
0010
0001
1000
0001
0100
0010
0000
1000
,
0010
0000
0100
0000
0001
0000
1000
0000
0100
0010
0100
1000
0001
0100
0010
0100
,
0001
1000
0001
0200
0000
0310
0100
0001
,
1000
0000
0100
0000
1000
0010
0000
0001
0010
0100
0010
1000
0001
0010
0100
1000
,
0010
0000
0100
0000
0010
0000
1000
0000
0001
0010
0100
0010
0001
0100
0000
0010
,
0100
0000
0001
0000
0100
0000
0010
0000
1000
0100
1000
0010
0100
0001
0010
0100
,
0010
0000
0001
0000
1000
0000
0001
0000
0100
0010
0100
0001
1000
0100
0000
0010
,
0100
1000
0100
0010
0001
0100
0010
1000
0100
0000
0010
0000
0100
0000
1000
0000
,
0001
0000
0100
0000
1000
0000
0100
0000
0001
1000
0100
0010
0100
1000
0000
0001
,
1000
0000
0010
0000
0100
0000
0010
0000
1000
0001
0010
0100
0010
0001
1000
0010
,
0100
1000
0100
0020
0000
0130
0010
1000
,
0001
0000
0010
0000
0100
0010
0000
0001
0010
0001
0100
0010
1000
0100
0010
0100
,
1000
0010
0001
0010
0100
0010
1000
0001
0010
0100
1000
0010
0100
0010
1000
0001
,
0010
0000
0000
0100
0000
0000
1000
0000
0000
0010
0000
0000
1000
0000
0000
0001
0000
0000
0010
0000
0000
0100
0000
0000
1000
0000
0001
0000
1000
0000
0001
0000
1000
0000
0001
0000
1000
0000
0000
0001
0000
0000
1000
0000
0000
0001
0000
0000
,
0010
0000
0010
0000
0001
0000
0200
0000
0000
0000
0310
0000
0100
0001
0010
0100
,
1000
0000
0010
0000
0100
0000
0010
0000
0001
0010
0100
0001
1000
0100
0000
0010
,
0100
0000
0010
0000
0001
0000
1000
0000
0010
0100
0001
0010
0100
0010
0001
1000
,
0001
0000
0100
0000
1000
0000
0100
0000
0010
0100
0001
1000
0100
0010
0000
0001
,
0010
0001
0100
0010
1000
0100
0010
0100
1000
0000
0010
0000
1000
0000
0100
0000
,
0010
0000
1000
0000
0010
0000
0001
0000
1000
0010
0100
0010
1000
0001
0010
0100
,
0010
0000
0100
0000
1000
0000
0010
0000
0100
0010
1000
0001
0010
0100
0010
0001
,
1000
0010
1000
0002
0000
0013
0001
0100
,
0010
0000
0100
0000
0001
0010
0000
0100
0010
0001
0100
1000
0100
0010
1000
0100
,
0010
0000
0001
0000
1000
0000
0001
0000
0100
0010
0100
0001
1000
0100
0000
0010
,
0100
0000
0010
0000
0001
0000
1000
0000
0001
0100
0001
1000
0100
0010
0001
1000
,
0010
0000
0001
0000
0010
0000
0100
0000
0001
0010
0100
0010
0001
1000
0000
0010
,
1000
0100
0010
0001
1000
0010
0100
0010
1000
0000
0100
0000
0010
0000
0100
0000
,
1000
0000
0010
0000
0100
0000
0001
0000
1000
0100
0010
0100
1000
0001
0000
0100
,
0001
0000
0010
0000
1000
0000
0010
0000
0100
1000
0010
0100
0001
0010
0100
0010
,
0001
1000
0010
0200
0000
0310
1000
0100
,
1100
0011
0101
0110
,
1001
0000
0101
0000
1010
1000
0100
1000
,
1001
0000
1010
0000
0101
0001
0010
0001
,
1000
0100
1000
0010
0100
0010
1000
0001
0010
1000
0010
0100
0010
0001
1000
0010
,
0100
0001
1000
0100
0010
0100
1000
0001
1000
0010
0100
0001
0010
0100
0010
0001
,
1000
0000
0000
0001
0100
0001
0100
0000
0000
0010
1000
0010
1000
0010
1000
0001
0000
0000
1000
0000
0000
2002
0000
0000
,
0000
0000
0000
0000
,
3003
0000
0000
0000
;

//---------------dance-single - ----------------
#NOTES:
     dance-single:
     :
     Hard:
     10:
     0.863,1.000,0.106,0.115,0.406,660.000,12.000,13.000,0.000,0.000,0.000,0.863,1.000,0.106,0.115,0.406,660.000,12.000,13.000,0.000,0.000,0.000:
0000
0000
0000
0000
,
1000
0010
0100
0010
0000
1000
0001
0010
,
0100
0010
0001
0100
0000
0010
0100
0001
,
1000
0100
0001
0100
1000
0010
0001
0010
,
0100
0001
1000
0100
0010
0100
1000
0001
,
2002
0000
0000
3003
,
1000
0000
0001
0000
0100
0000
0001
0000
0010
0000
1000
0000
0010
0100
0000
0010
,
0001
0100
0001
1000
0100
0001
0100
1000
,
0010
0000
0100
0000
0001
0000
1000
0000
0100
0000
0010
0000
0100
1000
0000
0010
,
0100
0010
1000
0001
0010
0000
0100
0000
0010
0000
0001
0000
1000
0000
0010
0000
,
0100
0000
0001
0000
1000
0000
0001
0000
0010
0000
0100
0000
0010
0001
0000
1000
,
0010
1000
0100
0001
0100
0010
0001
1000
,
0010
0100
1000
0200
0000
0310
0100
0001
,
0010
0000
0100
0000
1000
0010
0000
1000
0100
0010
0100
0000
1000
0000
0010
0000
,
0100
0000
0001
0000
1000
0000
0100
0000
0010
0000
0001
0000
0100
0010
0000
0100
,
0001
0010
1000
0010
0001
1000
0001
0100
,
0010
0000
1000
0000
0100
0000
0010
0000
0100
0000
1000
0000
0010
0100
0000
0010
,
1000
0001
0010
0100
0010
0000
0001
0000
0100
0000
0010
0000
1000
0000
0001
0000
,
0010
0000
1000
0000
0010
0000
0100
0000
1000
0000
0010
0000
0100
0001
0000
0010
,
0100
0010
0001
1000
0010
0100
0010
1000
,
0100
0010
0001
0200
0000
0310
0100
0001
,
1000
0000
0100
0010
0100
0000
1000
0000
0010
0100
0010
0000
1000
0000
1001
0000
,
0000
0001
0010
0100
1000
0100
0010
0001
,
1000
0000
0010
0100
0001
0000
1000
0000
0100
0000
0000
0010
0000
0000
0001
0000
,
0100
1000
0100
0010
1000
0001
0010
0100
,
0010
0000
0001
1000
0010
0000
0100
0000
0001
0000
0000
1000
0000
0000
0100
0000
,
1000
0010
0100
0001
0010
0100
1000
0010
,
0100
0000
0001
0010
0100
0000
1000
0000
0010
0000
0000
0100
0000
0000
0001
0000
,
1000
0000
0100
0010
0001
0000
1000
0000
0010
0000
0001
0000
0010
0000
0100
0000
,
0001
1000
0100
0010
0100
1000
0010
0100
,
0010
0000
0000
1000
0001
0010
0100
0000
0000
0010
0000
0000
,
0001
0100
0100
1000
0100
0100
0001
0100
,
0100
1000
0100
0100
0010
0100
0001
1000
,
0001
0010
0010
1000
0010
0010
0001
0010
,
0010
1000
0010
0010
0100
1000
0010
0100
,
0001
1000
0100
0010
0100
1000
0010
0001
,
0010
0100
0001
0010
0100
1000
0010
1000
,
0001
0010
0100
1000
0001
0010
0100
1000
,
0010
0000
0000
0000
0110
0000
0000
0000
0100
0001
1000
0000
0001
0000
1001
0000
,
0000
0000
1000
0000
1000
0000
0000
0000
0001
0000
0001
0000
0010
0100
0010
0100
,
0010
0000
0001
0000
1000
0000
0010
0000
1000
0000
0100
0000
0010
0001
0000
0100
,
0010
1000
0001
0010
0100
1000
0010
1000
,
0001
0000
0100
0000
1000
0000
0100
0000
0010
0000
1000
0000
0001
0010
0000
0100
,
0010
0001
0100
0010
0100
0000
0001
0000
1000
0000
0100
0000
1000
0000
0010
0000
,
0100
0000
0001
0000
0010
0000
0100
0000
0010
0000
0001
0000
1000
0010
0000
0100
,
0010
1000
0100
0001
0100
1000
0010
0100
,
0001
0010
0100
2000
0000
3010
1000
0001
,
0010
0000
0100
0000
1000
0001
0000
1000
0010
0100
0010
0000
1000
0000
0100
0000
,
0010
0000
0001
0000
0100
0000
0010
0000
1000
0000
0001
0000
1000
0100
0000
0010
,
0100
0010
0001
1000
0010
0100
0010
1000
,
0001
0000
0010
0000
1000
0000
0010
0000
0100
0000
1000
0000
0100
0010
0000
0001
,
0100
0010
0100
0001
0010
0000
0100
0000
0010
0000
0001
0000
1000
0000
0010
0000
,
0100
0000
0001
0000
1000
0000
0001
0000
0010
0000
0100
0000
1000
0100
0000
1000
,
0001
0100
1000
0100
0001
1000
0100
0010
,
0001
1000
0010
0200
0000
0310
0100
0001
,
0010
0100
0110
0000
0100
1000
0001
1000
,
0010
0100
0110
0000
0100
0001
1000
0001
,
1000
0100
0010
0001
1000
0010
0100
0001
0010
0100
0010
0001
1000
0010
0100
0010
,
1000
0000
1000
0000
0001
0000
0102
0000
0000
0000
0103
0000
0001
0010
0100
0010
,
0001
0000
1000
0000
0100
0000
0010
0000
0100
0000
1000
0000
0010
0100
0000
0001
,
0010
0001
0100
0010
1000
0100
0001
0100
,
0010
0000
0001
0000
0100
0000
0010
0000
1000
0000
0001
0000
1000
0100
0000
0010
,
0100
1000
0010
0100
0001
0000
1000
0000
0100
0000
0010
0000
0100
0000
1000
0000
,
0010
0000
1000
0000
0001
0000
0010
0000
1000
0000
0010
0000
0100
1000
0000
0010
,
0100
0001
1000
0100
0010
0100
1000
0001
,
0100
0010
0100
0002
0000
1003
0001
0010
,
0100
0000
1000
0000
0010
0100
0000
0010
1000
0001
1000
0000
0100
0000
0010
0000
,
0100
0000
1000
0000
0001
0000
1000
0000
0010
0000
0100
0000
0001
0010
0000
0100
,
0010
0001
0100
1000
0100
0010
0100
0001
,
1000
0000
0100
0000
0010
0000
0100
0000
1000
0000
0010
0000
0100
0001
0000
0010
,
0100
1000
0100
0010
0001
0000
1000
0000
0010
0000
0100
0000
0001
0000
0010
0000
,
0100
0000
0010
0000
0001
0000
1000
0000
0010
0000
0100
0000
0010
1000
0000
0001
,
0010
1000
0010
0100
1000
0010
1000
0001
,
0010
0100
1000
0020
0000
0130
0010
1000
,
1001
1100
0011
1010
,
0002
0000
0100
0000
1000
0000
0103
0010
,
2000
0000
0100
0000
0001
0000
3100
0010
,
0001
0100
0001
1000
0100
0010
0100
1000
,
0010
0100
0001
1000
0100
0010
0100
1000
0010
0100
0001
0010
0100
1000
0010
0100
,
0010
0000
1000
0100
1000
0000
0001
0100
0001
0100
0001
0000
1000
0000
2002
0000
,
0000
0000
0000
0000
,
3003
0000
0000
0000
;

//---------------dance-single - ----------------
#NOTES:
     dance-single:
     :
     Medium:
     8:
     0.578,0.679,0.159,0.053,0.000,435.000,18.000,6.000,0.000,0.000,0.000,0.578,0.679,0.159,0.053,0.000,435.000,18.000,6.000,0.000,0.000,0.000:
0000
0000
0000
0000
,
0001
0010
0100
0010
0000
0001
0100
0010
,
1000
0100
0010
0100
0000
1000
0010
0100
,
0001
0101
1000
1100
,
1000
0010
0100
0001
1000
0001
0010
0002
,
2000
0000
0000
3003
,
1000
0010
1000
0000
0001
0000
1000
0000
,
0001
0010
0100
0010
0001
0000
1000
0000
,
0010
0100
0010
0000
1000
0000
0001
0000
,
0010
0100
1000
0100
0010
0000
0001
0000
,
0100
0010
0100
0000
0001
0000
1000
0000
,
0100
0010
0001
0010
0100
0000
1000
0000
,
0010
0100
0010
0000
1000
0000
0100
0000
,
0010
0001
0100
1000
0100
0001
0010
0100
,
1000
0001
1000
0000
0010
0000
0100
0000
,
0001
1000
0100
1000
0001
0000
0100
0000
,
0010
1000
0010
0000
0100
0000
0001
0000
,
1000
0100
0010
0100
1000
0000
0010
0000
,
0100
0001
0100
0000
0010
0000
1000
0000
,
0001
0010
0100
0010
0001
0000
1000
0000
,
0010
0100
0010
0000
1000
0000
0001
0000
,
1000
1000
0000
1000
1000
0000
1000
1000
,
0000
0001
1000
0001
0010
0000
0100
0000
,
1000
0000
0001
0100
0001
0000
1000
0100
,
1000
0010
0100
0001
,
1000
0000
0001
0010
0001
0000
1000
0010
,
1000
0100
0010
0100
,
1000
0000
0010
0100
0010
0000
1000
0100
,
1000
0100
0010
0001
,
0101
1000
1100
0001
,
0011
0110
1100
1001
,
1000
0010
0100
0000
1000
0010
0100
0000
,
1000
0010
0100
0000
1000
0010
0100
0010
,
1000
0100
0010
0000
1000
0100
0010
0000
,
1000
0100
0010
0000
1000
0100
0010
0100
,
1000
0000
0010
0000
0100
0001
0100
0000
,
0001
0010
0001
0000
0010
0100
0010
0000
,
0100
1000
0100
0010
0001
1000
0010
0100
,
0001
1001
1010
0101
,
0000
0001
0001
0000
0001
0001
1000
0000
,
0001
0100
0001
0000
1000
0000
0001
0000
,
1000
0100
0010
0100
1000
0000
0001
0000
,
0100
0010
0100
0000
0001
0000
1000
0000
,
0100
0010
0001
0010
0100
0000
1000
0000
,
0010
0100
0010
0000
1000
0000
0001
0000
,
0010
0100
1000
0100
0010
0000
0001
0000
,
0100
0010
0100
0000
0001
0000
0010
0000
,
0100
1000
0010
0001
0010
1000
0100
0010
,
0001
1000
0001
0000
0100
0000
0010
0000
,
1000
0001
0010
0001
1000
0000
0010
0000
,
0100
0001
0100
0000
0010
0000
1000
0000
,
0001
0010
0100
0010
0001
0000
0100
0000
,
0010
1000
0010
0000
0100
0000
0001
0000
,
1000
0100
0010
0100
1000
0000
0001
0000
,
0100
0010
0100
0000
0001
0000
1000
0000
,
1100
0001
0101
1000
,
1010
0001
0011
1000
,
0010
1000
0001
0010
0100
1000
0010
0100
,
0001
0010
0100
0010
0000
0001
1000
0010
,
1000
0100
1000
0000
0010
0000
0100
0000
,
0001
0010
0100
1000
0100
0000
0010
0000
,
0001
0100
0001
0000
0010
0000
0100
0000
,
1000
0010
0100
0001
0010
0000
0100
0000
,
0010
0001
0010
0000
0001
0000
0100
0000
,
0010
1000
0100
1000
0010
0000
0100
0000
,
0001
0010
0001
0000
0010
0000
0100
0000
,
1000
0010
0100
0000
0010
1000
0100
0000
,
0010
0001
0010
0000
0001
0000
1000
0000
,
0010
0100
0001
0100
0010
0000
1000
0000
,
0100
0010
0100
0000
1000
0000
0010
0000
,
0100
0001
0010
0001
0100
0000
0010
0000
,
1000
0100
1000
0000
0010
0000
0100
0000
,
0001
1000
0100
1000
0001
0000
0100
0000
,
0010
1000
0010
0000
0100
0000
0001
0000
,
1000
1100
0001
0101
,
0002
0010
1000
0013
,
2000
0010
0001
3010
,
1000
0100
0010
0001
,
1000
0010
0100
0001
1000
0100
0010
0001
,
1000
0010
1000
0001
0100
0001
1000
2002
,
0000
0000
0000
0000
,
3003
0000
0000
0000
;

//---------------dance-single - ----------------
#NOTES:
     dance-single:
     :
     Easy:
     5:
     0.287,0.357,0.079,0.071,0.000,211.000,9.000,8.000,0.000,0.000,0.000,0.287,0.357,0.079,0.071,0.000,211.000,9.000,8.000,0.000,0.000,0.000: // measure 0
0000
0000
0000
0000
,  // measure 1
1000
0000
0000
0000
,  // measure 2
0001
0000
0000
0000
,  // measure 3
1000
0000
0001
0000
,  // measure 4
1000
1000
0001
0001
,  // measure 5
2002
0000
0000
3003
,  // measure 6
1000
0000
0100
0000
,  // measure 7
1000
0010
1000
0000
,  // measure 8
0001
0000
0100
0000
,  // measure 9
0001
0010
0100
0010
,  // measure 10
0001
0000
0100
0000
,  // measure 11
0010
1000
0010
0000
,  // measure 12
1000
0000
0100
0000
,  // measure 13
0010
0001
0010
0100
,  // measure 14
1000
0000
0001
0000
,  // measure 15
0100
0010
0100
0000
,  // measure 16
0001
0000
0010
0000
,  // measure 17
0100
1000
0100
0010
,  // measure 18
0001
0000
1000
0000
,  // measure 19
0010
0100
0010
0000
,  // measure 20
1000
0000
0100
0000
,  // measure 21
0010
0000
0000
0010
0000
0000
0010
0000
,  // measure 22
0000
0001
0100
0010
,  // measure 23
1000
0100
1000
0000
,  // measure 24
0001
0000
1001
0000
,  // measure 25
0001
0100
0001
0000
,  // measure 26
1000
0000
1001
0000
,  // measure 27
1000
0100
0010
0100
,  // measure 28
1000
0000
1010
0000
,  // measure 29
2002
0000
0000
3003
,  // measure 30
1000
0100
0010
0001
,  // measure 31
1000
0000
0010
0000
,  // measure 32
0100
0000
0001
1000
,  // measure 33
0001
0000
0010
0000
,  // measure 34
0100
0000
1000
0001
,  // measure 35
1000
0000
1000
0000
,  // measure 36
0001
0000
0001
0000
,  // measure 37
1000
0010
0100
0001
,  // measure 38
1000
1000
0001
0001
,  // measure 39
0000
0010
0010
0010
,  // measure 40
0100
0000
1000
0000
,  // measure 41
0001
0100
0001
0000
,  // measure 42
0010
0000
0100
0000
,  // measure 43
1000
0010
1000
0001
,  // measure 44
1000
0000
0100
0000
,  // measure 45
0010
0001
0010
0000
,  // measure 46
0001
0000
0100
0000
,  // measure 47
0010
1000
0010
0100
,  // measure 48
0010
0000
1000
0000
,  // measure 49
0001
0010
0001
0000
,  // measure 50
0010
0000
0100
0000
,  // measure 51
1000
0001
1000
0010
,  // measure 52
1000
0000
0001
0000
,  // measure 53
0010
0100
0010
0000
,  // measure 54
0100
0000
1000
0000
,  // measure 55
0001
0100
0001
0000
,  // measure 56
1000
0010
1000
0010
,  // measure 57
1000
0001
1000
0000
,  // measure 58
2002
0000
0000
3003
,  // measure 59
0001
0000
0001
0000
,  // measure 60
1000
0100
1000
0000
,  // measure 61
0001
0000
0001
0000
,  // measure 62
1000
0010
0100
0010
,  // measure 63
1000
0000
1000
0000
,  // measure 64
0100
0010
0100
0000
,  // measure 65
1000
0000
1000
0000
,  // measure 66
0010
0100
0010
1000
,  // measure 67
0001
0000
0001
0000
,  // measure 68
1000
0100
1000
0000
,  // measure 69
0001
0000
0001
0000
,  // measure 70
1000
0010
1000
0100
,  // measure 71
0010
0000
0010
0000
,  // measure 72
0001
1000
0001
0000
,  // measure 73
0100
0000
0100
0000
,  // measure 74
0010
0010
0100
0100
,  // measure 75
0001
0000
0101
0000
,  // measure 76
1000
0000
1100
0000
,  // measure 77
1000
0010
0100
0001
,  // measure 78
1000
0100
0010
0001
,  // measure 79
1000
0000
0000
0000
0001
0000
0000
2002
,  // measure 80
0000
0000
0000
0000
,  // measure 81
3003
0000
0000
0000
;
