#TITLE:Bassline Disco;
#SUBTITLE:;
#ARTIST:DJ Noriken;
#TITLETRANSLIT:;
#SUBTITLETRANSLIT:;
#ARTISTTRANSLIT:;
#GENRE:;
#CREDIT:;
#BANNER:[ROUND 11] - Bassline Disco.png;
#BACKGROUND:[ROUND 11] - Bassline Disco-bg.png;
#LYRICSPATH:;
#CDTITLE:cdtitle.png;
#MUSIC:[ROUND 11] - Bassline Disco.ogg;
#OFFSET:-0.500;
#SAMPLESTART:64.553;
#SAMPLELENGTH:12.500;
#SELECTABLE:YES;
#BPMS:0.000=150.000
;
#STOPS:
;
#BGCHANGES:;
#KEYSOUNDS:;
#ATTACKS:;

//---------------dance-single - ----------------
#NOTES:
     dance-single:
     :
     Hard:
     9:
     0.625,0.540,0.100,0.067,0.029,505.000,12.000,8.000,0.000,0.000,0.000,0.625,0.540,0.100,0.067,0.029,505.000,12.000,8.000,0.000,0.000,0.000:
0000
0000
0000
0000
,
0000
0000
0000
0000
,
0000
0000
0000
0000
,
0000
0000
0000
0000
,
0001
0100
0001
0100
1000
0100
1000
0100
,
0001
0010
0001
0010
1000
0010
1000
0010
,
0100
1000
0010
0001
0010
0100
0001
1000
,
2002
0000
0003
3000
,
0001
0010
0100
0010
0001
1000
0010
0001
,
0010
0100
0001
0010
1000
0010
0001
0010
,
0100
1000
0010
0001
0010
1000
0100
0010
,
0001
0100
0010
0100
0001
0010
0110
0000
,
0010
0001
0100
1000
0100
0001
1000
0100
,
0001
0100
0010
0001
1000
0010
1000
0001
,
0010
1000
0010
0001
1000
0010
0100
0001
,
1000
0100
0001
0100
1000
0001
0101
0000
,
0001
0010
1000
0010
0100
0010
1000
0010
,
0001
0100
1000
0100
0010
0100
1000
0100
,
0001
1000
0100
0001
0100
1000
0010
0001
,
0010
0100
0001
0010
1000
0010
0100
1000
,
0001
0100
0010
0100
0001
0010
0100
0010
,
0001
1000
0010
1000
0100
0010
0100
1000
,
0001
0100
1000
0100
0001
0010
1000
0010
,
0200
0000
2000
3300
,
0001
0000
0100
0000
1000
0000
0100
0000
0001
0000
0000
0001
0000
0000
0001
0000
,
1000
0000
0100
0000
0001
0000
0100
0000
1000
0000
0000
1000
0000
0000
1000
0000
,
0001
0000
0010
0000
1000
0000
0010
0000
0001
0000
0000
0001
0000
0000
0001
0000
,
1000
0000
0010
0000
0001
0000
0010
0000
1000
0000
0000
1000
0000
0000
1000
0000
,
0001
0000
0010
0000
0100
0000
0010
0000
0001
0000
0000
0001
0000
0000
0001
0000
,
1000
0000
0010
0000
0100
0000
0010
0000
1000
0000
0000
1000
0000
0000
1000
0000
,
0001
0000
0100
0000
0010
0000
0100
0000
0001
0000
0000
0001
0000
0000
0001
0000
,
1000
0100
0010
0100
1000
0010
0100
0000
,
0001
0010
1000
0010
0100
1000
0001
1000
,
0010
0100
0001
1000
0100
0001
0100
1000
,
0001
0100
1000
0100
0010
1000
0001
1000
,
0100
0010
0001
1000
0010
0001
0010
1000
,
0001
0010
0001
0010
1000
0010
1000
0010
,
0001
0100
0001
0100
1000
0100
1000
0100
,
0010
1000
0100
0001
0100
0010
0001
1000
,
2002
0000
0003
3000
,
0001
0010
0100
1000
0010
0001
0010
1000
,
0100
0010
0100
1000
0001
0100
1000
0100
,
0001
0010
0100
1000
0010
0001
0010
1000
,
0001
0010
1000
0010
0100
1000
0010
1000
,
0100
0001
0100
0010
0001
1000
0010
0001
,
0010
1000
0100
0010
0100
1000
0001
0100
,
1000
0100
0010
1000
0001
0010
0100
1000
,
0001
0100
1000
0100
0001
1000
2002
0000
,
3003
0000
1000
0100
0010
0100
1000
0010
,
0001
0010
0100
0001
0010
1000
0010
0001
,
0100
0010
1000
0100
0001
0100
1000
0010
,
1000
0001
0010
1000
0010
0001
1000
0010
,
0100
0001
1000
0100
0010
0100
1000
0001
,
0100
1000
0100
0001
0010
0100
0010
0001
,
1000
0010
0001
0010
0100
0001
1000
0100
,
0010
0001
0010
0100
1000
0010
0100
0001
,
0010
1000
0010
0001
1000
0010
0100
0010
,
1000
0100
0001
0100
1000
0010
0001
0010
,
0100
0001
0010
0100
0010
0001
0100
1000
,
0100
0001
1000
0100
0010
0100
1000
0010
,
0100
0001
0010
0001
0100
1000
0100
0010
,
1000
0001
0010
1000
0010
0001
1000
0010
,
1000
0100
0010
0100
1000
0001
0100
0001
,
0011
0101
0110
1001
,
1000
0010
1000
0100
0001
0100
0010
0001
,
0100
1000
0100
0001
1000
0100
0010
0100
,
1000
0010
0001
0010
0100
0001
1000
0100
,
0010
0001
0100
1000
0100
0010
0110
0000
,
0100
0001
1000
0100
0001
0100
1000
0010
,
0100
0001
0010
1000
0010
0001
1000
0010
,
0001
0010
0100
0001
1000
0100
0010
0100
,
1000
0010
1000
0100
0010
0000
0110
0000
,
1001
0000
0000
0000
;

//---------------dance-single - ----------------
#NOTES:
     dance-single:
     :
     Medium:
     7:
     0.443,0.450,0.108,0.100,0.000,347.000,13.000,12.000,0.000,0.000,0.000,0.443,0.450,0.108,0.100,0.000,347.000,13.000,12.000,0.000,0.000,0.000:
0000
0000
0000
0000
,
0000
0000
0000
0000
,
0000
0000
0000
0000
,
0000
0000
0000
0000
,
0001
0010
0001
0000
1000
0100
1000
0000
,
0001
0100
0001
0000
1000
0010
1000
0000
,
0001
0010
0100
1000
,
2002
0000
0000
3003
,
1000
0010
0100
0000
0010
0000
1000
0000
,
0001
0000
0010
0000
0100
0000
1000
0001
,
0100
0001
0010
0000
0100
0000
1000
0000
,
0010
0100
0001
1001
,
1000
0100
0010
0000
0100
0000
1000
0000
,
0010
0000
0100
0000
0001
0000
1000
0100
,
1000
0010
0100
0000
0001
0000
1000
0000
,
0100
0010
0100
1100
,
1000
0010
0001
0100
,
1000
0010
0100
0001
,
1000
0100
0001
0010
,
1000
0100
0010
0001
,
1000
0010
0100
0000
0001
0010
0100
0000
,
0010
0001
0100
0000
0010
1000
0001
0000
,
1000
0100
0010
0001
,
2000
0000
0002
3003
,
1000
0100
0010
0100
1000
0000
0001
0000
,
1000
0100
0010
0100
1000
0000
0001
0000
,
1000
0010
0100
0010
1000
0000
0001
0000
,
1000
0010
0100
0010
1000
0100
0010
0000
,
0001
0010
0100
0010
0001
0000
1000
0000
,
0001
0010
0100
0010
0001
0000
1000
0000
,
0001
0100
0010
0100
0001
0000
1000
0000
,
0001
0100
0010
0100
0001
0000
1001
0000
,
1000
0100
0001
0010
,
1000
0100
0010
0100
,
1000
0010
0001
0100
,
1000
0000
0010
0000
0100
0010
1000
0000
,
0001
0010
0001
1000
0010
0100
0010
0000
,
1000
0100
1000
0010
0100
0001
1000
0100
,
1000
0010
0100
0001
,
2002
0000
0000
3003
,
1000
0000
0100
0000
0010
0001
0100
0010
,
0100
0000
0001
0000
1000
0100
0001
0100
,
1000
0000
0010
0000
0100
0010
1000
0001
,
0010
0000
0100
0000
1000
0010
0001
0010
,
1000
0000
0001
0000
0010
0100
1000
0010
,
0100
0000
0001
0000
1000
0100
0010
0100
,
1000
0000
0010
0000
0100
0001
0010
0100
,
0010
0001
1000
2002
,
3003
0000
1000
0000
0010
0100
0001
0000
,
1000
0000
0001
0000
0010
0100
1000
0100
,
0010
0000
0001
0000
1000
0010
0100
0000
,
0001
0000
1000
0000
0100
0010
0100
1000
,
0010
0000
0100
0000
0001
1000
0100
0000
,
0010
0000
0100
0000
1000
0001
0100
0001
,
0010
0000
0100
0000
1000
0010
0100
0000
,
0010
1000
0010
0100
0001
1000
0001
0000
,
1000
0100
0010
0000
0001
0000
1000
0000
,
0010
0001
0010
0000
0100
0000
0010
0000
,
0100
0001
1000
0000
0100
0000
0001
0000
,
0100
0010
0100
0000
0010
0000
0001
0000
,
1000
0010
0100
0010
1000
0100
0010
0000
,
0001
0100
0010
0100
0001
0010
0100
1000
,
0001
0100
0010
1000
,
2002
3003
0110
2002
,
3003
0000
0001
0000
0010
0100
0010
0000
,
0100
0000
1000
0000
0001
0100
0001
1000
,
0100
0000
0010
0000
0001
0100
0001
0000
,
0100
0010
1000
1001
,
0001
0000
0010
0000
0100
1000
0010
0000
,
1000
0000
0001
0000
0010
0100
0010
0001
,
1000
0000
0010
0000
0100
0001
1000
0000
,
0100
0010
0011
1100
,
1001
0000
0000
0000
;

//---------------dance-single - ----------------
#NOTES:
     dance-single:
     :
     Easy:
     4:
     0.320,0.330,0.083,0.083,0.000,249.000,10.000,10.000,0.000,0.000,0.000,0.320,0.330,0.083,0.083,0.000,249.000,10.000,10.000,0.000,0.000,0.000:
0000
0000
0000
0000
,
0000
0000
0000
0000
,
0000
0000
0000
0000
,
0000
0000
0000
0000
,
0001
0100
0001
0100
,
0010
1000
0010
1000
,
0001
0000
1000
0000
,
2002
0000
0000
3003
,
1000
0100
0010
0100
,
1000
0010
0100
0001
,
0010
1000
0010
0001
,
1000
0010
1000
1001
,
0001
0010
0100
0010
,
0001
0100
0010
1000
,
0100
0001
0100
1000
,
0001
0100
0001
1001
,
1000
0010
0100
0001
,
1000
0100
0001
0010
,
1000
0100
0010
0001
,
1000
0010
0001
0100
,
1000
0010
1000
0010
,
0100
0001
0100
0001
,
1000
0000
0001
0000
,
2002
0000
0000
3003
,
1000
0100
0010
0010
,
0001
0100
0010
0010
,
1000
0100
0010
0010
,
0001
0100
0010
0100
,
0001
0010
0100
0100
,
1000
0010
0100
0100
,
0001
0010
0100
0100
,
0010
0001
1000
1001
,
0001
0010
0100
0010
,
0001
0100
0010
0100
,
0001
1000
0100
1000
,
0001
1000
0010
1000
,
0001
0010
0001
0010
,
0100
1000
0100
1000
,
0001
0000
1000
0000
,
2002
0000
0000
3003
,
1000
0100
0010
0010
,
0100
1000
0010
0010
,
0100
0001
0010
0010
,
0001
0100
0010
1000
,
0001
0010
0100
0100
,
0010
0001
0100
0100
,
0010
1000
0100
0100
,
1000
0010
1000
2002
,
3003
0001
0100
0010
,
0100
0001
1000
0100
,
0010
0100
1000
0010
,
0100
0001
1000
0001
,
0010
0100
1000
0010
,
0001
0010
1000
0001
,
0010
0100
1000
0010
,
0100
0001
0010
0001
,
1000
0010
1000
0001
,
1000
0100
0010
0000
,
0001
0100
0010
0100
,
0001
0010
0100
0000
,
1000
0010
1000
0010
,
0100
0001
0100
0001
,
1000
0000
0001
0000
,
2002
0000
0000
0000
,
3003
1000
0010
1000
,
0001
0010
0100
1000
,
0001
0100
0010
0100
,
0001
0010
0001
1001
,
1000
0001
0100
0001
,
1000
0100
0010
0001
,
1000
0010
0100
0010
,
1000
0100
1000
0001
,
1001
0000
0000
0000
;

//---------------dance-single - ----------------
#NOTES:
     dance-single:
     :
     Challenge:
     10:
     0.741,0.720,0.167,0.083,0.625,593.000,20.000,10.000,0.000,0.000,0.000,0.741,0.720,0.167,0.083,0.625,593.000,20.000,10.000,0.000,0.000,0.000: // measure 0
0000
0000
0000
0000
,  // measure 1
0000
0000
0000
0000
,  // measure 2
0000
0000
0000
0000
,  // measure 3
0000
0000
0000
0000
,  // measure 4
0001
0000
0010
0000
0001
0000
1000
0000
0010
0000
0100
0000
0001
0000
1000
0100
,  // measure 5
1000
0000
0010
0000
1000
0000
0100
0000
0010
0000
0001
0000
0100
0000
0010
0100
,  // measure 6
0010
1010
0101
0011
,  // measure 7
0220
0000
0000
0330
,  // measure 8
0010
0000
0001
0100
0001
0000
1000
0000
0100
0000
0001
0000
0100
0000
0000
0000
,  // measure 9
1000
0000
0010
0100
0010
0000
1000
0000
0001
0000
0010
0000
0100
0000
0100
0000
,  // measure 10
0010
0000
0000
0000
0000
0000
0100
0000
0000
1000
0000
0000
0100
0000
0000
0000
0000
0000
0010
0000
0000
0000
0000
0000
0001
0000
0000
0000
0000
0000
0100
0000
0000
0000
0000
0000
0010
0000
0000
0000
0000
0000
1000
0000
0100
0000
1000
0000
,  // measure 11
0100
0000
0010
0001
0010
0000
0001
0000
1000
0010
1000
0010
0100
0000
0000
0000
,  // measure 12
0001
0000
0010
0100
1000
0000
0010
0000
1000
0000
0100
0000
0010
0000
0000
0000
,  // measure 13
0100
0000
1000
0010
0100
0000
0001
0000
1000
0000
0100
0000
0010
0000
0010
0000
,  // measure 14
0100
0000
0000
0000
0000
0000
1000
0000
0000
0001
0000
0000
0100
0000
0000
0000
0000
0000
0010
0000
0000
0000
0000
0000
1000
0000
0000
0000
0000
0000
0100
0000
0000
0000
0000
0000
0010
0000
0000
0000
0000
0000
0001
0000
0100
0000
0001
0000
,  // measure 15
0100
0000
0010
1000
0001
0000
0010
0000
1000
0000
0010
0000
0100
0000
0000
0000
,  // measure 16
1000
0000
0000
1000
0010
0000
0100
0000
0001
0000
0000
0001
0010
0000
0100
0000
,  // measure 17
0010
0000
0000
0010
0001
0000
0100
0000
1000
0000
0000
1000
0100
0000
0010
0000
,  // measure 18
0100
0000
0000
0100
0001
0000
0010
0000
0100
0000
0000
0100
1000
0000
0010
0000
,  // measure 19
0001
0000
0000
0001
0010
0000
0100
0000
0010
1000
0001
1000
0100
0000
0010
0000
,  // measure 20
0001
0000
0100
0000
0001
0000
1000
0000
0100
0000
0010
0000
0100
0000
1000
0001
,  // measure 21
1000
0010
1000
0001
0010
0100
0010
0001
,  // measure 22
0101
1010
1100
0110
,  // measure 23
0022
0000
0000
0033
,  // measure 24
1000
0000
0010
0100
0000
0010
1000
0000
0001
0000
0010
0100
0000
1000
0100
0000
,  // measure 25
0010
0000
0001
0100
0000
0010
0100
0010
1000
0000
0001
0010
0100
0010
0001
0000
,  // measure 26
1000
0000
0001
0100
0000
0001
1000
0000
0100
0000
0010
0100
0000
1000
0010
0000
,  // measure 27
0100
0000
0001
0010
1000
0010
0001
0100
0010
0000
1000
0100
1000
0010
0100
0000
,  // measure 28
0010
0000
1000
0100
0000
1000
0010
0000
0100
0000
0001
0010
0000
0001
0100
0000
,  // measure 29
0010
0000
1000
0001
0000
0010
0001
0010
0100
0000
1000
0010
0100
0001
0010
0000
,  // measure 30
0100
0000
1000
0001
0000
0010
0001
0000
0010
0000
0100
1000
0000
0010
0100
0000
,  // measure 31
0010
1000
0010
0100
0001
0010
0011
0000
,  // measure 32
0001
0000
0000
0001
0100
0000
0010
0000
0100
0000
0000
0100
0001
0000
1000
0000
,  // measure 33
0010
0000
0000
0010
1000
0000
0100
0000
0001
0000
0100
0000
1000
0000
0010
0000
,  // measure 34
0100
0000
0000
0100
0001
0000
0010
0000
0001
0000
0000
0001
1000
0000
0100
0000
,  // measure 35
0010
0000
0000
0010
0001
0000
1000
0000
0010
0000
0001
0000
0010
0000
0100
0000
,  // measure 36
0001
0000
0010
0000
0001
0000
0010
0000
0100
0000
1000
0000
0100
0000
1000
0010
,  // measure 37
1000
0000
0010
0000
1000
0000
0010
0000
0100
0000
0001
0000
0100
0000
0001
0010
,  // measure 38
0001
0101
1010
1001
,  // measure 39
2200
0000
0000
3300
,  // measure 40
1000
0000
0010
0000
1000
0001
0000
0000
0010
0000
0100
0000
0010
0000
0001
0100
,  // measure 41
0001
0000
0010
0000
0100
0010
0000
0000
0001
0000
1000
0000
0010
0000
0100
0001
,  // measure 42
0100
0000
0010
0000
1000
0100
0000
0000
1000
0000
0010
0000
0001
0000
0010
0100
,  // measure 43
0010
0000
0100
0000
0001
0010
0000
0000
0100
0000
1000
0000
0100
0000
0010
0001
,  // measure 44
0010
0000
0001
0000
1000
0010
0000
0000
1000
0000
0100
0000
0010
0000
0100
1000
,  // measure 45
0100
0000
0010
0000
0001
0100
0000
0000
0010
0000
0100
0000
0001
0000
0010
0100
,  // measure 46
0010
0100
1000
0001
1000
0010
0001
0010
,  // measure 47
1000
0100
0010
0001
0100
0000
0220
0000
,  // measure 48
0330
0000
0010
1000
0000
1000
0001
0000
1000
0000
0100
0010
0000
0010
0100
0000
,  // measure 49
1000
0000
0001
0100
0000
0100
0001
1000
0100
0000
0010
0001
0010
0100
1000
0000
,  // measure 50
0001
0000
0100
0010
0000
0010
0100
0000
0010
0000
1000
0100
0000
0100
1000
0000
,  // measure 51
0010
0100
0010
1000
0100
0010
0100
1000
0001
0000
1000
0010
1000
0100
0010
0000
,  // measure 52
0100
0000
1000
0010
0000
0010
1000
0000
0001
0000
0010
0100
0000
0100
0010
0000
,  // measure 53
0001
0000
1000
0010
0000
0010
1000
0001
1000
0000
0100
0010
0100
1000
0010
0000
,  // measure 54
0100
0000
0001
0010
0000
0010
0001
0000
1000
0000
0010
0100
0000
0100
0010
0000
,  // measure 55
1000
0000
0100
0001
0000
0100
1000
0001
1000
0000
0010
0001
0000
0010
1000
0001
,  // measure 56
1000
0000
0100
0010
0000
0001
1000
0000
0010
0000
0100
0001
0000
0010
0100
0000
,  // measure 57
0010
0000
0001
0100
0000
0010
1000
0001
0010
0000
0100
1000
0100
0010
0001
0000
,  // measure 58
0100
0000
0010
1000
0000
0001
1000
0000
0100
0000
0010
0001
0000
1000
0001
0000
,  // measure 59
1000
0010
1000
0001
0010
0100
0010
0001
0100
0000
0010
0100
0001
1000
0100
0000
,  // measure 60
0010
0000
0001
0000
0100
0000
1000
0000
0100
0000
0001
0000
0010
0000
0100
1000
,  // measure 61
0100
0000
0010
0000
0001
0000
1000
0000
0010
0000
0001
0000
0010
0000
0100
0001
,  // measure 62
0100
0110
1010
0101
,  // measure 63
2002
0000
0000
3003
,  // measure 64
1000
0000
0001
0100
0001
0000
0010
0000
1000
0000
0010
0000
0001
0000
0000
0000
,  // measure 65
0100
0000
0010
1000
0010
0000
0100
0000
0001
0000
1000
0000
0001
0000
0001
0000
,  // measure 66
0100
0000
0000
0000
0000
0000
0010
0000
0000
1000
0000
0000
0010
0000
0000
0000
0000
0000
0001
0000
0000
0000
0000
0000
0010
0000
0000
0000
0000
0000
0100
0000
0000
0000
0000
0000
0001
0000
0000
0000
0000
0000
1000
0000
0100
0000
1000
0000
,  // measure 67
0100
0000
0010
0100
0010
0000
0100
0000
1000
0010
1000
0010
0100
0000
0000
0000
,  // measure 68
0001
0000
1000
0100
1000
0000
0010
0000
0100
0000
0001
0000
0100
0000
0000
0000
,  // measure 69
0010
0000
1000
0001
1000
0000
0100
0000
0010
0000
0100
0000
1000
0000
1000
0000
,  // measure 70
0010
0000
0000
0000
0000
0000
0100
0000
0000
0001
0000
0000
0100
0000
0000
0000
0000
0000
1000
0000
0000
0000
0000
0000
0100
0000
0000
0000
0000
0000
0010
0000
0000
0000
0000
0000
1000
0000
0000
0000
0000
0000
0100
0000
0010
0000
0100
0000
,  // measure 71
0010
0000
0100
1000
0100
0000
0010
0000
0001
0000
0100
0000
0001
0000
0000
0000
,  // measure 72
1001
0000
0000
0000
;
