#VERSION:0.73;
#TITLE:Stay Awake (Hardcore Bootleg);
#SUBTITLE:;
#ARTIST:Ellie Goulding;
#TITLETRANSLIT:;
#SUBTITLETRANSLIT:;
#ARTISTTRANSLIT:;
#GENRE:;
#ORIGIN:;
#CREDIT:;
#BANNER:[ROUND 10] - Stay Awake (Hardcore Bootleg).bn.png;
#BACKGROUND:[ROUND 10] - Stay Awake (Hardcore Bootleg).bg.jpg;
#LYRICSPATH:;
#CDTITLE:cdtitle.png;
#MUSIC:[ROUND 10] - Stay Awake (Hardcore Bootleg).ogg;
#OFFSET:-3.566000;
#SAMPLESTART:96.466003;
#SAMPLELENGTH:12.000000;
#SELECTABLE:YES;
#BPMS:0.000000=170.000000
,196.000000=133.332993
,198.250000=170.000000
;
#STOPS:198.250000=0.100000
;
#DELAYS:;
#WARPS:;
#TIMESIGNATURES:0.000000=4=4
;
#TICKCOUNTS:0.000000=2
;
#COMBOS:0.000000=1
;
#SPEEDS:0.000000=1.000000=0.000000=0
;
#SCROLLS:0.000000=1.000000
;
#LABELS:0.000000=Song Start
;
#BGCHANGES:;
#KEYSOUNDS:;
#ATTACKS:;

//---------------dance-single - Blank----------------
#NOTEDATA:;
#STEPSTYPE:dance-single;
#DESCRIPTION:Blank;
#CHARTSTYLE:;
#DIFFICULTY:Hard;
#METER:10;
#RADARVALUES:0.624,0.577,0.523,0.023,0.008,505.000,69.000,3.000,30.000,0.000,0.000,0.000,0.000,0.624,0.577,0.523,0.023,0.008,505.000,69.000,3.000,30.000,0.000,0.000,0.000,0.000;
#CREDIT:;
#OFFSET:-3.566000;
#BPMS:0.000000=170.000000
,196.000000=133.332993
,198.250000=170.000000
;
#STOPS:198.250000=0.100000
;
#DELAYS:;
#WARPS:;
#TIMESIGNATURES:0.000000=4=4
;
#TICKCOUNTS:0.000000=2
;
#COMBOS:0.000000=1
;
#SPEEDS:0.000000=1.000000=0.000000=0
;
#SCROLLS:0.000000=1.000000
;
#FAKES:;
#LABELS:0.000000=Song Start
;
#ATTACKS:
;
#NOTES:
MMMM
0000
0000
00M0
0000
0000
000M
0000
,
M000
0000
0000
0M00
0000
0000
000M
0000
,
M000
0000
0000
00M0
0000
0000
0M00
0000
,
000M
0000
0000
00M0
0000
0000
0M00
0000
,
M000
0000
0000
000M
0000
0000
0M00
0000
,
0M00
0000
0000
000M
0000
0000
M000
0000
,
00M0
0000
0000
000M
0000
0000
M000
0000
,
0M00
0000
0000
000M
0000
0000
MMMM
0000
,
1010
0000
0000
1100
0000
0000
1001
0000
,
1000
0001
0100
0001
0100
0010
1000
1000
,
0001
0010
0100
1000
0001
0100
0010
0010
,
1000
0010
0100
0001
1000
0100
0010
0010
,
0110
0000
1000
0001
0100
0001
1000
1000
,
1000
0001
0100
0010
0100
0001
1000
1000
,
0001
0100
1000
0001
0010
1000
0001
0001
,
1000
0010
0100
0001
1000
0100
0020
0030
,
0001
0010
0000
0010
0100
0000
0100
1000
,
0000
1000
0100
0000
0100
0010
0100
0010
,
0001
1000
0000
1000
0010
0000
0100
0001
,
0000
0001
0100
0000
0100
0001
0100
0001
,
0100
0010
0000
1000
0010
0000
0100
0001
,
0000
0100
0010
1000
0010
0100
0001
0010
,
0100
1000
0000
1000
0100
0000
1000
0001
,
0000
1000
0001
0100
1000
0001
0010
1000
,
0001
0011
0010
1010
,
1000
1001
0001
0011
,
0010
0110
0100
0101
,
0001
0000
1001
0000
1010
0000
1001
1000
,
1100
0000
0101
0000
1000
0100
0001
0000
,
0011
0000
1010
0000
0001
0100
1000
0000
,
1001
1100
1001
0011
,
1000
0001
1000
0100
0001
1000
0010
0001
,
1000
0000
0001
0000
1000
0010
0100
0000
,
0001
1000
0010
0100
0000
0010
1001
0000
,
0100
0000
0001
0000
1000
0100
0010
0001
,
1000
0001
0100
0010
1000
0001
0110
0000
,
0001
0000
0100
0000
0010
1000
0001
0000
,
0100
0010
1000
0001
0000
1000
0011
0000
,
1000
0000
0001
0000
0100
0010
1000
0000
,
1000
0000
0000
0001
0100
0001
1000
0001
,
1001
0010
0011
0010
,
1010
1000
1100
0100
,
0110
0010
0011
0001
,
1001
0000
0110
0000
1001
0000
1100
1000
,
1010
0000
0001
0000
1000
0010
0001
0000
,
1100
0000
0011
0000
1000
0100
0001
0000
,
0110
0000
1001
0000
0001
0100
0010
0000
,
1001
0000
0110
0000
1001
1000
1001
0001
,
2002
0000
0000
0000
,
3003
0000
0000
0000
0000
0000
0000
0000
0000
1000
0100
0010
0001
0000
1000
0000
,
0001
0100
0001
0010
0001
0010
0001
1000
,
0001
1000
0001
0100
0001
0010
0100
1000
,
0001
1000
0001
0100
0001
0100
0010
1000
,
0001
0100
0001
0100
0010
1000
0100
0010
,
0001
1000
0100
1000
0001
1000
0010
0100
,
0001
1000
0010
0100
0001
0100
0010
1000
,
0010
1000
0010
0100
0001
0010
0010
0001
,
1000
0010
0100
0001
1000
0001
1000
0100
,
0000
0100
0010
0000
0010
0001
0000
0001
,
0010
0000
0010
0100
0001
0100
1000
0010
,
1000
0100
1000
0100
0010
0000
0001
0010
,
0100
1000
0001
0100
0010
1000
0001
0100
,
0000
0100
0001
0000
0010
0100
0000
1000
,
0100
0010
0001
0100
0010
1000
0010
0100
,
0001
1000
0010
0100
0001
0100
0010
1000
,
0010
0001
1000
0100
0001
1000
0010
0100
,
0000
0110
0000
0100
0001
1000
0010
0100
,
0000
1100
0000
1000
0010
0100
0001
0010
,
0000
0011
0000
0010
0001
0100
0010
1000
,
0000
1001
0000
0100
0010
1000
0001
0010
,
0000
0110
0000
0001
0100
1000
0001
0010
,
0000
1100
0000
1000
0010
0001
1000
0100
,
0000
0011
0000
1010
0000
0110
1000
0000
,
1000
0000
1000
0000
1000
0000
1000
0100
,
0010
0100
0010
0001
1000
0000
0001
0010
,
0100
0010
0100
1000
0001
0000
0100
0010
,
1000
0010
1000
0001
0100
0100
0010
0100
,
0001
0100
0001
1000
0010
0000
1000
0100
,
0001
0100
1000
0100
0001
0000
1000
0010
,
0001
0010
1000
0010
0001
0000
1000
0100
,
0001
1000
0010
0001
1000
0001
0010
1000
,
0001
0100
1000
0001
1000
0000
1001
0000
,
1001
0110
0110
1001
,
0110
0011
1010
0011
,
1010
1001
0110
0101
,
1100
0000
0101
0000
1100
0000
0100
0010
,
0100
0001
0100
0010
0100
0001
0100
0010
,
0100
0001
0100
0010
0100
0001
0100
0001
,
0100
1000
0001
0100
1000
0001
1000
0100
,
0001
0010
1000
0001
0100
0010
0000
0000
;

//---------------dance-single - Blank----------------
#NOTEDATA:;
#STEPSTYPE:dance-single;
#DESCRIPTION:Blank;
#CHARTSTYLE:;
#DIFFICULTY:Medium;
#METER:8;
#RADARVALUES:0.472,0.544,0.318,0.030,0.000,390.000,42.000,4.000,0.000,0.000,0.000,0.000,0.000,0.472,0.544,0.318,0.030,0.000,390.000,42.000,4.000,0.000,0.000,0.000,0.000,0.000;
#CREDIT:;
#OFFSET:-3.566000;
#BPMS:0.000000=170.000000
,196.000000=133.332993
,198.250000=170.000000
;
#STOPS:198.250000=0.100000
;
#DELAYS:;
#WARPS:;
#TIMESIGNATURES:0.000000=4=4
;
#TICKCOUNTS:0.000000=2
;
#COMBOS:0.000000=1
;
#SPEEDS:0.000000=1.000000=0.000000=0
;
#SCROLLS:0.000000=1.000000
;
#FAKES:;
#LABELS:0.000000=Song Start
;
#ATTACKS:;
#NOTES:
0000
0000
0000
0000
,
0000
0000
0000
0000
,
0000
0000
0000
0000
,
0000
0000
0000
0000
,
0000
0000
0000
0000
,
0000
0000
0000
0000
,
0000
0000
0000
0000
,
0000
0000
0000
0000
,
0010
0000
0000
0100
0000
0000
0010
0000
,
0000
1000
0001
1000
,
0010
0000
0000
0100
0000
0000
0010
0000
,
0100
0001
0010
0100
,
0010
0001
1000
0100
,
0010
0001
1000
0010
,
0100
0100
0100
0100
,
0010
0100
0010
0100
0010
0100
0110
0000
,
0001
0000
0100
1000
0000
1000
0100
0000
,
0100
0001
0000
0001
0100
0000
0110
0000
,
0010
0000
0010
0100
0000
0100
0010
0000
,
0010
0001
0000
0001
0010
0000
0110
0000
,
0001
0100
1000
0000
1000
0100
0001
0000
,
0001
0010
1000
0000
1000
0010
0001
0000
,
0001
0010
0100
1000
,
1000
0010
0100
0001
,
1000
0001
1000
0010
,
0100
0010
1000
0001
,
0100
1000
0001
0010
0000
0000
1000
0000
,
0010
0001
1000
0100
0000
0000
0001
0000
,
0100
0010
0100
0001
,
1000
0010
0100
0010
,
1000
0010
1000
0001
,
1000
0001
1000
0001
1000
0001
1000
0000
,
1001
0100
1000
0100
,
0001
0010
0001
0100
,
0010
0100
0110
1001
,
1100
0101
0110
1001
,
1000
0100
0010
0100
,
1000
0001
0010
0100
,
1000
0001
0010
0110
,
1001
0000
0000
1001
0000
0000
1001
0000
,
0010
0100
1000
0000
1000
0100
0010
0000
,
0001
0010
1000
0000
1000
0010
0001
0000
,
0001
0100
1000
0000
1000
0100
0001
0000
,
0001
0010
1000
0001
1000
0010
0001
0000
,
0010
1000
0100
0001
,
0010
1000
0100
0001
,
1000
0001
1000
0001
1000
0001
1000
0001
,
1001
1001
1001
1001
,
2020
0000
0000
0000
,
3030
0000
0000
1000
,
0100
0000
0010
0000
0001
0000
1000
0100
,
0010
0001
0010
0100
1000
0000
0010
0000
,
0001
0000
0010
0000
1000
0000
0001
0010
,
0001
0100
0010
1000
0001
0000
0001
0000
,
1000
0000
0100
0010
0001
0000
1000
0100
,
0010
0100
0000
1000
0001
0000
0010
0000
,
0100
0000
1000
0010
0100
0000
0001
0000
,
0100
0000
0100
0100
0100
0100
0010
0000
,
1001
0010
1010
0010
,
0110
0010
0011
0010
,
1001
0010
0110
0010
,
1010
0010
0011
0001
,
0100
1000
0100
0001
,
0010
0000
1000
0000
0010
0000
0001
0001
,
0100
1000
0100
0001
0100
1000
0100
0001
,
0100
1000
0100
0001
0101
0000
0100
1000
,
0000
1000
0000
1000
0000
1000
0100
0001
,
0000
0001
0000
0001
0000
0001
0010
1000
,
0000
1000
0000
1000
0000
1000
0001
1000
,
0000
1000
0000
1000
0000
1000
1100
0100
,
0000
0100
0000
0100
0000
0100
0110
0010
,
0000
0010
0000
0010
0000
0010
0011
0001
,
0000
0001
0000
0001
0000
0001
1000
0000
,
1001
1001
1001
0010
,
0100
0001
1000
0001
,
0100
0010
1000
0001
,
0001
1000
1000
0010
,
0100
0000
0010
0000
0100
0010
0100
0000
,
0001
0000
1000
0001
0100
0000
0001
0000
,
1000
0000
0010
0100
0001
0000
1000
0000
,
0010
0000
0100
0010
0100
0000
0001
1000
,
0100
1000
0000
0010
0000
0000
1010
0000
,
0100
0010
0100
0001
,
0010
1000
0010
1001
,
0010
1010
0001
0011
,
0010
0000
0110
0000
0100
0000
1000
0100
,
0010
0001
1000
0100
0010
0001
1000
0010
,
0001
1000
0100
0001
1000
0001
1000
0001
,
1000
0010
1000
0010
0100
0001
0100
0001
,
1001
1001
2002
3003
;

//---------------dance-single - Blank----------------
#NOTEDATA:;
#STEPSTYPE:dance-single;
#DESCRIPTION:Blank;
#CHARTSTYLE:;
#DIFFICULTY:Easy;
#METER:6;
#RADARVALUES:0.348,0.407,0.129,0.076,0.000,295.000,17.000,10.000,0.000,0.000,0.000,0.000,0.000,0.348,0.407,0.129,0.076,0.000,295.000,17.000,10.000,0.000,0.000,0.000,0.000,0.000;
#CREDIT:;
#OFFSET:-3.566000;
#BPMS:0.000000=170.000000
,196.000000=133.332993
,198.250000=170.000000
;
#STOPS:198.250000=0.100000
;
#DELAYS:;
#WARPS:;
#TIMESIGNATURES:0.000000=4=4
;
#TICKCOUNTS:0.000000=2
;
#COMBOS:0.000000=1
;
#SPEEDS:0.000000=1.000000=0.000000=0
;
#SCROLLS:0.000000=1.000000
;
#FAKES:;
#LABELS:0.000000=Song Start
;
#ATTACKS:;
#NOTES:
// measure 0
0000
0000
0000
0000
,  // measure 1
0000
0000
0000
0000
,  // measure 2
0000
0000
0000
0000
,  // measure 3
0000
0000
0000
0000
,  // measure 4
0000
0000
0000
0000
,  // measure 5
0000
0000
0000
0000
,  // measure 6
0000
0000
0000
0000
,  // measure 7
0000
0000
0000
0000
,  // measure 8
1000
1000
1000
1000
,  // measure 9
0001
0001
0001
0001
,  // measure 10
1000
0100
0010
0001
,  // measure 11
1000
0100
0010
0001
,  // measure 12
0010
0010
0010
0010
,  // measure 13
0100
0100
0100
0100
,  // measure 14
1000
0010
0100
0001
,  // measure 15
0100
0010
1000
1001
,  // measure 16
0100
0000
0000
0000
,  // measure 17
1000
0100
0001
0100
,  // measure 18
1000
0010
1000
1000
,  // measure 19
0100
0001
0100
1000
,  // measure 20
1001
0000
0000
0000
,  // measure 21
0001
0010
0100
0010
,  // measure 22
0001
0001
1000
0001
,  // measure 23
0010
0100
0001
1000
,  // measure 24
1001
0000
1100
0000
,  // measure 25
0011
0000
0110
0000
,  // measure 26
1000
0100
0001
0100
,  // measure 27
0100
1000
0010
0100
,  // measure 28
0110
0000
1100
0000
,  // measure 29
0101
0000
0110
0000
,  // measure 30
0110
1000
0001
1000
,  // measure 31
0001
0100
0010
1000
,  // measure 32
0001
0001
0001
0001
,  // measure 33
0010
0010
0010
0010
,  // measure 34
0100
0100
0100
0100
,  // measure 35
1000
1000
1000
1000
,  // measure 36
0001
0100
1000
0100
,  // measure 37
0001
0010
1000
0010
,  // measure 38
0001
0100
0001
0100
,  // measure 39
0010
0000
0000
0100
0000
0000
0000
0000
,  // measure 40
0110
0000
0100
0010
,  // measure 41
0001
0010
0100
0001
,  // measure 42
1001
0000
1000
0100
,  // measure 43
0010
0001
1000
0100
,  // measure 44
1000
1000
0001
0010
,  // measure 45
0100
0100
1000
0010
,  // measure 46
0100
0100
0001
0100
,  // measure 47
0002
0000
0010
0010
,  // measure 48
0020
0000
0000
0000
,  // measure 49
0033
0000
0000
1000
,  // measure 50
0100
0010
0001
1000
,  // measure 51
0100
0010
0001
1000
,  // measure 52
0010
1000
0010
0100
,  // measure 53
0001
0100
0001
1000
,  // measure 54
0010
0100
0001
1000
,  // measure 55
0010
0100
0001
0100
,  // measure 56
0010
0100
0010
1000
,  // measure 57
0100
0010
0001
1000
,  // measure 58
1000
1000
1000
0010
,  // measure 59
0010
0010
0010
0100
,  // measure 60
0100
0100
0100
0001
,  // measure 61
0001
0001
0001
2000
,  // measure 62
3100
0200
0310
0020
,  // measure 63
0031
0020
0031
0200
,  // measure 64
0310
2000
3100
0020
,  // measure 65
0031
0200
0301
0010
,  // measure 66
0000
0100
0000
0000
1000
0000
0100
0000
,  // measure 67
0000
0010
0000
0000
0001
0000
0100
0000
,  // measure 68
0000
0010
0000
0000
1000
0000
0010
0000
,  // measure 69
0000
0100
0000
0000
0001
0000
0010
0000
,  // measure 70
0000
0100
0000
0000
1000
0000
0100
0000
,  // measure 71
0000
0010
0000
0000
0001
0000
0100
0000
,  // measure 72
0000
0010
0000
0000
1000
0000
0001
0000
,  // measure 73
1000
0001
1000
1000
,  // measure 74
1000
1000
1010
0001
,  // measure 75
0001
0001
0011
0010
,  // measure 76
0010
0010
0110
0100
,  // measure 77
0100
0100
0100
1000
,  // measure 78
0100
0001
0100
1000
,  // measure 79
0010
0001
0010
1000
,  // measure 80
0001
1000
0010
0100
,  // measure 81
0001
1000
0010
0100
,  // measure 82
0001
0001
0001
0001
,  // measure 83
0010
0100
1000
0010
,  // measure 84
1000
1000
1000
1000
,  // measure 85
0010
0100
0001
0100
,  // measure 86
0100
1000
1000
0100
,  // measure 87
0100
0001
0001
0001
,  // measure 88
0010
0100
1000
0100
,  // measure 89
0100
0100
1100
0000
;

//---------------dance-single - Blank----------------
#NOTEDATA:;
#STEPSTYPE:dance-single;
#DESCRIPTION:Blank;
#CHARTSTYLE:;
#DIFFICULTY:Beginner;
#METER:4;
#RADARVALUES:0.147,0.270,0.030,0.083,0.000,121.000,4.000,11.000,0.000,0.000,0.000,0.000,0.000,0.147,0.270,0.030,0.083,0.000,121.000,4.000,11.000,0.000,0.000,0.000,0.000,0.000;
#CREDIT:;
#OFFSET:-3.566000;
#BPMS:0.000000=170.000000
,196.000000=133.332993
,198.250000=170.000000
;
#STOPS:198.250000=0.100000
;
#DELAYS:;
#WARPS:;
#TIMESIGNATURES:0.000000=4=4
;
#TICKCOUNTS:0.000000=2
;
#COMBOS:0.000000=1
;
#SPEEDS:0.000000=1.000000=0.000000=0
;
#SCROLLS:0.000000=1.000000
;
#FAKES:;
#LABELS:0.000000=Song Start
;
#ATTACKS:;
#NOTES:
// measure 0
0000
0000
0000
0000
,  // measure 1
0000
0000
0000
0000
,  // measure 2
0000
0000
0000
0000
,  // measure 3
0000
0000
0000
0000
,  // measure 4
0000
0000
0000
0000
,  // measure 5
0000
0000
0000
0000
,  // measure 6
0000
0000
0000
0000
,  // measure 7
0000
0000
0000
0000
,  // measure 8
1000
0000
0000
0000
,  // measure 9
0010
0000
0000
0000
,  // measure 10
0100
0000
0000
0000
,  // measure 11
0001
0000
0000
0000
,  // measure 12
1000
0000
0000
0000
,  // measure 13
0100
0000
0000
0000
,  // measure 14
0010
0000
0000
0000
,  // measure 15
0001
0000
0000
0000
,  // measure 16
0220
0000
0000
0000
,  // measure 17
0330
0000
0000
0000
,  // measure 18
2200
0000
0000
0000
,  // measure 19
3300
0000
0000
0000
,  // measure 20
0022
0000
0000
0000
,  // measure 21
0033
0000
0000
0000
,  // measure 22
2002
0000
0000
0000
,  // measure 23
3003
0000
0000
0000
,  // measure 24
0100
0000
0010
0000
,  // measure 25
0001
0000
0010
0000
,  // measure 26
0100
0000
0000
0000
,  // measure 27
0000
0000
1000
0001
,  // measure 28
1000
0000
0001
0000
,  // measure 29
0100
0000
0010
0000
,  // measure 30
0100
0000
0000
0000
,  // measure 31
0001
1000
0001
1000
,  // measure 32
0010
0000
0000
0000
,  // measure 33
0100
0000
0000
0000
,  // measure 34
0001
0000
0000
0000
,  // measure 35
1000
0000
0000
0000
,  // measure 36
0010
0010
0000
0000
,  // measure 37
0100
0100
0000
0000
,  // measure 38
0001
0001
0000
0000
,  // measure 39
0020
0000
0000
0000
,  // measure 40
0030
0000
0000
0000
,  // measure 41
0001
0000
0100
0000
,  // measure 42
0010
0000
1000
0000
,  // measure 43
0010
0000
0100
0000
,  // measure 44
0001
0001
0000
0000
,  // measure 45
1000
1000
0000
0000
,  // measure 46
0010
0010
0000
0000
,  // measure 47
0200
0000
0000
0000
,  // measure 48
0300
0000
0000
0000
,  // measure 49
0000
0000
0000
0001
,  // measure 50
0000
1000
0000
0001
,  // measure 51
0000
1000
0000
0010
,  // measure 52
0000
0100
0000
0010
,  // measure 53
0000
0100
0000
0001
,  // measure 54
0000
0001
0000
1000
,  // measure 55
0000
1000
0000
0010
,  // measure 56
0000
0010
0000
0100
,  // measure 57
0000
0200
0300
0010
,  // measure 58
0010
0100
0100
0001
,  // measure 59
0001
1000
1000
0001
,  // measure 60
0000
0000
0000
1000
,  // measure 61
0000
0100
0000
0010
,  // measure 62
0000
0001
0000
0010
,  // measure 63
0000
0100
0000
1000
,  // measure 64
0000
0001
0000
0001
,  // measure 65
1000
0001
1000
0100
,  // measure 66
0000
0000
0000
0010
,  // measure 67
0000
0000
0000
0100
,  // measure 68
0000
0000
0000
0100
,  // measure 69
0000
0000
0000
0001
,  // measure 70
0000
0000
0000
1000
,  // measure 71
0000
0000
0000
0010
,  // measure 72
0000
0000
0000
0010
,  // measure 73
0000
0000
0000
0100
,  // measure 74
0000
0000
0000
0010
,  // measure 75
0000
0000
0000
1000
,  // measure 76
0000
0000
0000
0001
,  // measure 77
0000
0000
0000
0010
,  // measure 78
0000
0000
0000
0100
,  // measure 79
0000
0000
0000
0001
,  // measure 80
0000
0000
0000
1000
,  // measure 81
0000
0000
0000
1000
,  // measure 82
1000
0000
0000
0001
,  // measure 83
0001
0000
0000
0100
,  // measure 84
0100
0000
0000
0010
,  // measure 85
0010
0100
0100
0010
,  // measure 86
0000
0000
0000
1000
,  // measure 87
0000
0000
0000
0001
,  // measure 88
0000
0100
0000
0010
,  // measure 89
0000
1000
0000
0000
;
