#TITLE:Pilgrim 2000;
#SUBTITLE:;
#ARTIST:Bass-X & Scott Brown;
#TITLETRANSLIT:;
#SUBTITLETRANSLIT:;
#ARTISTTRANSLIT:;
#CREDIT:;
#BANNER:[ROUND 10] - Pilgrim 2000.png;
#BACKGROUND:[ROUND 10] - Pilgrim 2000-bg.png;
#LYRICSPATH:;
#CDTITLE:;
#MUSIC:[ROUND 10] - Pilgrim 2000.ogg;
#OFFSET:0.000;
#SAMPLESTART:43.001;
#SAMPLELENGTH:21.493;
#SELECTABLE:YES;
#BPMS:0.000=178.660;
#STOPS:;
#BGCHANGES:;

//---------------dance-single - ----------------
#NOTES:
     dance-single:
     :
     Hard:
     9:
     0.621,0.621,0.055,0.073,0.000:
0000
0000
0000
0000
,
0000
0000
0000
0000
,
0000
0000
0000
0000
,
0000
0000
0000
0000
,
0010
1001
0100
1001
,
0010
0000
1001
0000
0100
0010
0000
0010
,
0100
1100
1000
1001
,
0001
0000
0101
0000
0100
0010
0200
0000
,
0301
0010
0000
0100
0000
1000
0000
0010
,
0100
0001
0000
1000
0000
0100
0000
1000
,
0010
0100
0000
0001
0000
0010
0000
0100
,
1000
0010
0000
0100
0000
0001
0000
1000
,
0100
0001
0000
0100
0000
1000
0000
0010
,
0001
0010
0000
0100
0000
0001
0000
1000
,
0100
0010
0000
0001
0000
1000
0000
0010
,
0100
0001
0010
0100
1000
0001
0200
0000
,
0300
0010
0000
1000
0000
0100
0000
0010
,
0000
0001
0000
0100
0000
0010
0100
0001
,
0000
1000
0000
0100
0000
0010
0000
0001
,
0000
0100
0000
0010
0000
1000
0100
1000
,
0000
0010
0000
0100
0000
0001
0000
0010
,
0000
1000
0000
0001
0000
0100
1000
0010
,
0000
0100
0000
0001
0000
0010
0000
0100
,
0000
1000
0000
0001
0000
0100
0010
0100
,
0001
1000
0000
0100
0000
0010
0000
0001
,
0100
0010
0000
1000
0000
0100
1000
0001
,
0100
0010
0000
0100
0000
0001
0000
1000
,
0100
0010
0000
0001
0000
0100
0010
0100
,
0001
0010
0000
0100
0000
1000
0000
0001
,
0100
0010
0000
1000
0000
0100
0010
0001
,
1000
0010
0000
0100
0000
0001
0000
0010
,
0100
1000
0000
0010
0000
0100
0002
0000
,
1003
0100
1000
0010
0000
0100
0001
0010
,
0100
1000
0001
0100
0000
0010
0100
0001
,
0010
0100
1000
0001
0000
0001
0100
0010
,
0100
0001
0010
0100
0000
0100
1000
0010
,
0001
0010
1000
0100
0000
0010
0001
0100
,
0010
0100
0001
1000
0000
0100
0010
0001
,
0100
0010
1000
0001
0000
0010
0100
0001
,
0100
1000
0001
0100
0000
0010
1000
0001
,
0010
0100
1000
0010
0100
0001
0010
0100
,
1000
0010
0100
0001
1000
0100
0000
0100
,
1000
0010
0100
0001
0010
0100
1000
0001
,
0100
0010
0100
0001
0010
0100
0000
0100
,
0010
0001
0100
1000
0100
0001
1000
0100
,
0010
0001
1000
0010
0100
0001
0000
0001
,
0010
1000
0010
0100
1000
0010
0100
0001
,
2000
0000
0000
3002
,
1003
0000
0100
1000
0000
0010
0100
0000
,
0001
0010
0000
0100
0010
0000
0001
1000
,
0010
0000
0100
0001
0000
1000
0100
0000
,
0010
0100
0000
1000
0010
0000
0100
0001
,
0010
0000
0100
1000
0000
0001
0100
0000
,
0010
0100
0000
0001
0010
0000
0100
1000
,
0001
0000
0100
0010
0000
0010
0100
0000
,
0001
1000
0000
1000
0001
0000
0010
0100
,
1000
0010
0100
0000
0001
0100
0010
0000
,
1000
0100
0010
0000
0100
1000
0001
0000
,
0100
0010
1000
0000
0001
0010
0100
0000
,
1000
0001
0100
0000
0010
1000
0001
0000
,
0010
1000
0010
0000
0100
1000
0001
0000
,
0100
0010
1000
0000
0001
0010
0100
0000
,
1000
0010
0100
0001
0100
0010
1000
0001
,
0020
0000
0000
0031
,
0100
0010
0100
0010
1000
0001
1000
0001
,
0010
0001
0010
0001
1000
0100
1000
0100
,
1000
0100
0001
0100
1000
0010
0001
0010
,
1000
0100
0010
0001
0100
1000
0100
0010
,
1000
0010
1000
0010
0100
0010
0100
0010
,
0100
0001
0100
0001
1000
0001
1000
0001
,
0010
0100
1000
0001
0100
0010
0100
0001
,
0010
1000
0010
0100
1000
0010
0100
0001
,
0010
0100
0010
0100
1000
0100
1000
0100
,
1000
0001
1000
0001
0100
0010
0100
0010
,
1000
0100
0010
0001
0010
1000
0010
0001
,
0100
0010
1000
0100
0001
0100
1000
0010
,
0100
0001
0100
0001
1000
0010
1000
0010
,
0100
1000
0100
1000
0100
0010
0100
0010
,
1000
0100
0010
0001
0100
1000
0100
0001
,
2000
0000
0000
0002
,
3003
0000
0000
0000
;

//---------------dance-single - ----------------
#NOTES:
     dance-single:
     :
     Medium:
     7:
     0.485,0.473,0.009,0.055,0.000:
0000
0000
0000
0000
,
0000
0000
0000
0000
,
0000
0000
0000
0000
,
0000
0000
0000
0000
,
1000
0010
0100
0001
,
1000
0100
0010
0100
,
1000
0010
0100
0001
,
0010
0000
0100
0000
1000
0001
0200
0000
,
0310
0000
1000
0100
0000
1000
0010
0000
,
0100
0001
0010
0100
,
1000
0000
0010
0001
0000
0010
1000
0000
,
0100
0010
0001
0100
,
0010
0000
1000
0100
0000
0010
0001
0000
,
0100
0010
0100
0001
,
0010
0000
0100
0001
0000
0100
1000
0000
,
0010
0000
0100
0000
0001
1000
0020
0000
,
0030
1000
0000
0100
0000
0010
0000
0001
,
0000
0100
0000
0010
0000
0100
0001
1000
,
0000
0100
0000
0010
0000
0001
0000
0100
,
0000
1000
0000
0100
0000
0010
1000
0010
,
0000
0100
0000
0001
0000
1000
0000
0100
,
0000
0010
0000
0001
0000
0100
0010
0100
,
0000
0001
0000
0010
0000
1000
0000
0010
,
0000
0001
0000
1000
0000
0010
0100
0010
,
1000
0010
0000
0100
0000
0001
0000
0010
,
0000
0100
0000
1000
0000
0001
0100
0001
,
0000
1000
0000
0100
0000
1000
0000
0010
,
0000
0100
0000
0001
0000
0010
0100
0010
,
0000
0001
0000
0100
0000
1000
0000
0100
,
0000
0001
0000
0010
0000
0100
1000
0001
,
0000
0100
0000
0010
0000
0100
0000
0001
,
0000
1000
0000
0100
0000
0010
0002
0000
,
0003
1000
0010
1000
0000
0001
0010
0001
,
0000
1000
0100
1000
0000
0001
0000
0100
,
0000
0010
1000
0010
0000
0100
0001
0100
,
0000
0001
0010
0001
0000
1000
0000
0100
,
0000
1000
0010
1000
0000
0001
0100
0001
,
0000
1000
0100
1000
0000
0001
0000
0010
,
0000
0100
1000
0100
0000
0010
0001
0010
,
0000
0001
0100
0001
0000
0100
0010
0000
,
1000
0001
1000
0001
0000
0100
0010
0100
,
0000
0001
0100
0001
0000
1000
0100
1000
,
0000
0010
0100
0010
0000
1000
0001
1000
,
0000
0001
0010
0001
0000
1000
0000
0100
,
0000
1000
0010
1000
0000
0010
0100
0010
,
0000
0100
0001
0100
0000
0001
0010
0001
,
0000
1000
0100
1000
0000
0001
0100
0001
,
2000
0000
0000
3010
,
0100
0001
0010
0100
,
1000
0000
0010
0000
0100
0000
0001
0010
,
0001
0100
0010
1000
,
0100
0000
0010
0000
0001
0000
1000
0100
,
1000
0010
0100
0001
,
0010
0000
0100
0000
0010
0000
0001
1000
,
0001
0100
0010
0100
,
0001
0000
0010
0000
0100
0000
1000
0010
,
1000
0100
0010
0001
,
0100
0000
0010
0000
0100
0000
0001
1000
,
0100
0010
0100
1000
,
0010
0000
0100
0000
0001
0000
0010
0100
,
1000
0010
0100
0001
,
1000
0000
0100
0000
0010
0000
0100
1000
,
0010
0100
0001
0010
,
0120
0000
0000
0100
,
0031
0000
0010
0000
0100
1000
0001
0000
,
0100
0000
0010
0000
1000
0100
0010
0000
,
0100
0000
1000
0000
0001
0100
0010
0000
,
1000
0000
0001
0000
0010
0100
1000
0000
,
0010
0000
0100
0000
0001
1000
0100
0000
,
0010
0000
0001
0000
0100
1000
0100
0000
,
0001
0000
1000
0000
0100
0010
0001
0000
,
1000
0000
0010
0000
0100
0001
1000
0001
,
0000
0100
0010
0100
0000
0010
1000
0010
,
0000
1000
0001
1000
0000
0001
0000
0010
,
0000
0100
1000
0100
0000
1000
0001
1000
,
0000
0001
0100
0001
0000
0100
0000
0010
,
0000
1000
0010
1000
0000
0001
0100
0001
,
0000
0010
0001
0010
0000
0100
0000
1000
,
0000
0001
0100
0010
0000
1000
0100
0010
,
0002
0000
0000
1003
;

//---------------dance-single - ----------------
#NOTES:
     dance-single:
     :
     Easy:
     5:
     0.374,0.364,0.137,0.164,0.000: // measure 1
0000
0000
0000
0000
,  // measure 2
0000
0000
0000
0000
,  // measure 3
0000
0000
0000
0000
,  // measure 4
0000
0000
0000
0000
,  // measure 5
1000
0010
1000
0010
,  // measure 6
0100
0001
0100
0001
,  // measure 7
1000
0001
1000
0001
,  // measure 8
0010
0100
0010
0110
,  // measure 9
0010
0001
1000
0010
,  // measure 10
0100
0010
1000
0000
,  // measure 11
0001
0010
0100
1000
,  // measure 12
0010
1000
0100
0000
,  // measure 13
0010
0001
0100
1000
,  // measure 14
0100
0001
0010
0000
,  // measure 15
0100
1000
0010
0001
,  // measure 16
0010
1000
0100
0010
,  // measure 17
2002
0000
0000
3003
,  // measure 18
0210
0000
0000
0310
,  // measure 19
2020
0000
0000
3030
,  // measure 20
0102
0000
0000
0103
,  // measure 21
2002
0000
0000
3003
,  // measure 22
2100
0000
0000
3001
,  // measure 23
0022
0000
0000
0033
,  // measure 24
0210
0000
0300
0010
,  // measure 25
0000
0001
0000
0010
0000
0001
0000
0010
,  // measure 26
0000
0100
0000
1000
0000
0100
0000
0100
,  // measure 27
0000
1000
0000
0010
0000
1000
0000
0010
,  // measure 28
0000
0100
0000
0001
0000
0100
0000
0100
,  // measure 29
0000
0001
0000
0010
0000
1000
0000
0010
,  // measure 30
0000
0100
0000
1000
0000
0010
0000
0100
,  // measure 31
0000
0001
0000
0010
0000
0100
0000
1000
,  // measure 32
0000
0010
0000
0100
0000
0001
0000
0000
,  // measure 33
1001
0100
0010
0001
,  // measure 34
0100
0010
0100
0001
,  // measure 35
0001
0010
0100
1000
,  // measure 36
0010
0100
0001
1000
,  // measure 37
1000
0010
0100
0001
,  // measure 38
0010
0100
1000
0010
,  // measure 39
0010
1000
0100
0010
,  // measure 40
0001
0100
0010
0000
,  // measure 41
0110
0010
1000
0100
,  // measure 42
1000
0001
0100
0010
,  // measure 43
0010
0100
0001
0010
,  // measure 44
1000
0010
0100
1000
,  // measure 45
1000
0010
0001
0010
,  // measure 46
1000
0100
0010
0001
,  // measure 47
0001
0100
0010
1000
,  // measure 48
2002
0000
0000
3003
,  // measure 49
1000
0000
0100
0000
,  // measure 50
0010
0001
1000
0000
,  // measure 51
0010
0000
0100
0000
,  // measure 52
0001
1000
0100
0000
,  // measure 53
0010
0000
0001
0000
,  // measure 54
0100
0010
0100
0000
,  // measure 55
1000
0000
0100
0000
,  // measure 56
0001
0010
1000
0000
,  // measure 57
0010
0100
0010
0100
,  // measure 58
1000
0001
1000
0000
,  // measure 59
0010
0100
0010
0100
,  // measure 60
0001
1000
0001
0000
,  // measure 61
0010
1000
0010
0001
,  // measure 62
0100
1000
0001
0000
,  // measure 63
0010
1000
0100
0010
,  // measure 64
2002
0000
0000
3003
,  // measure 65
0010
1000
0100
1000
,  // measure 66
0010
0100
0001
0010
,  // measure 67
0010
0100
1000
0001
,  // measure 68
0100
0010
0100
0001
,  // measure 69
0001
0010
1000
0010
,  // measure 70
0100
1000
0010
0100
,  // measure 71
0100
0010
1000
0001
,  // measure 72
0010
0100
1000
0000
,  // measure 73
1001
0010
0100
0001
,  // measure 74
1000
0100
0001
0100
,  // measure 75
0100
0010
0001
0100
,  // measure 76
1000
0100
0001
1000
,  // measure 77
1000
0100
0010
0001
,  // measure 78
0100
1000
0100
0010
,  // measure 79
0010
1000
0100
0010
,  // measure 80
2002
0000
0000
3003
;

//---------------dance-single - ----------------
#NOTES:
     dance-single:
     :
     Beginner:
     1:
     0.117,0.180,0.046,0.000,0.000: // measure 1
0000
0000
0000
0000
,  // measure 2
0000
0000
0000
0000
,  // measure 3
0000
0000
0000
0000
,  // measure 4
0000
0000
0000
0000
,  // measure 5
1000
0000
0000
0000
,  // measure 6
0001
0000
0000
0000
,  // measure 7
1000
0000
0000
0000
,  // measure 8
0001
0000
0000
0000
,  // measure 9
0100
0000
0000
0000
,  // measure 10
0010
0000
0000
0000
,  // measure 11
0100
0000
0000
0000
,  // measure 12
0010
0000
0000
0000
,  // measure 13
1000
0000
0000
0000
,  // measure 14
0100
0000
0000
0000
,  // measure 15
0010
0000
0000
0000
,  // measure 16
0001
0000
0000
0000
,  // measure 17
1001
0000
0000
0000
,  // measure 18
0001
0000
0000
0000
,  // measure 19
1000
0000
0000
0000
,  // measure 20
0001
0000
0000
0000
,  // measure 21
0100
0000
0000
0000
,  // measure 22
0010
0000
0000
0000
,  // measure 23
0100
0000
0000
0000
,  // measure 24
0010
0000
0000
0000
,  // measure 25
1000
0000
0000
0000
,  // measure 26
0100
0000
0000
0000
,  // measure 27
0010
0000
0000
0000
,  // measure 28
0001
0000
0000
0000
,  // measure 29
1000
0000
0000
0000
,  // measure 30
0010
0000
0000
0000
,  // measure 31
0100
0000
0000
0000
,  // measure 32
0001
0000
0000
0000
,  // measure 33
1001
0000
0000
0000
,  // measure 34
0100
0000
0000
0100
,  // measure 35
0100
0000
0000
0000
,  // measure 36
0010
0000
0000
0010
,  // measure 37
0010
0000
0000
0000
,  // measure 38
0001
0000
0000
0001
,  // measure 39
0001
0000
0000
0000
,  // measure 40
1000
0000
0000
1000
,  // measure 41
1000
0000
0000
0000
,  // measure 42
0010
0000
0000
0010
,  // measure 43
0010
0000
0000
0000
,  // measure 44
0100
0000
0000
0100
,  // measure 45
0100
0000
0000
0000
,  // measure 46
0001
0000
0000
0001
,  // measure 47
0001
0000
0000
0000
,  // measure 48
1001
0000
0000
0000
,  // measure 49
0100
0000
0000
0000
,  // measure 50
0000
0000
0000
0000
,  // measure 51
0010
0000
0000
0000
,  // measure 52
0000
0000
0000
0000
,  // measure 53
0001
0000
0000
0000
,  // measure 54
0000
0000
0000
0000
,  // measure 55
1000
0000
0000
0000
,  // measure 56
0000
0000
0000
0000
,  // measure 57
0010
0000
0000
0000
,  // measure 58
0100
0000
0000
0000
,  // measure 59
0010
0000
0000
0000
,  // measure 60
0000
0000
0000
0000
,  // measure 61
1000
0000
0000
0000
,  // measure 62
0001
0000
0000
0000
,  // measure 63
1000
0000
0000
0000
,  // measure 64
1001
0000
0000
0000
,  // measure 65
0100
0000
0000
0000
,  // measure 66
0010
0000
0000
0010
,  // measure 67
0010
0000
0000
0000
,  // measure 68
0001
0000
0000
0001
,  // measure 69
0001
0000
0000
0000
,  // measure 70
1000
0000
0000
1000
,  // measure 71
1000
0000
0000
0000
,  // measure 72
0010
0000
0000
0010
,  // measure 73
0010
0000
0000
0000
,  // measure 74
0100
0000
0000
0100
,  // measure 75
0100
0000
0000
0000
,  // measure 76
0001
0000
0000
0001
,  // measure 77
0001
0000
0000
0000
,  // measure 78
0010
0000
0000
0010
,  // measure 79
0010
0000
0000
0000
,  // measure 80
0110
0000
0000
0000
;
