#VERSION:0.81;
#TITLE:On da Floor;
#SUBTITLE:;
#ARTIST:Mr. Funky;
#TITLETRANSLIT:;
#SUBTITLETRANSLIT:;
#ARTISTTRANSLIT:;
#GENRE:;
#ORIGIN:;
#CREDIT:;
#BANNER:[ROUND 10] - On da Floor.png;
#BACKGROUND:[ROUND 10] - On da Floor-bg.png;
#PREVIEWVID:;
#JACKET:;
#CDIMAGE:;
#DISCIMAGE:;
#LYRICSPATH:;
#CDTITLE:cdtitle.png;
#MUSIC:[ROUND 10] - On da Floor.ogg;
#OFFSET:-0.141;
#SAMPLESTART:37.059;
#SAMPLELENGTH:14.769;
#SELECTABLE:YES;
#BPMS:0.000=130.000;
#STOPS:;
#DELAYS:;
#WARPS:;
#TIMESIGNATURES:0.000=4=4;
#TICKCOUNTS:0.000=4;
#COMBOS:0.000=1;
#SPEEDS:0.000=1.000=0.000=0;
#SCROLLS:0.000=1.000;
#FAKES:;
#LABELS:0.000=Song Start;
#BGCHANGES:;
#KEYSOUNDS:;
#ATTACKS:
;

//---------------dance-single - Rygon----------------
#NOTEDATA:;
#CHARTNAME:X-15;
#STEPSTYPE:dance-single;
#DESCRIPTION:Rygon;
#CHARTSTYLE:;
#DIFFICULTY:Challenge;
#METER:10;
#RADARVALUES:0.601,0.646,0.234,0.260,0.428,429.000,27.000,30.000,0.000,0.000,0.000,0.000,0.000,0.601,0.646,0.234,0.260,0.428,429.000,27.000,30.000,0.000,0.000,0.000,0.000,0.000;
#CREDIT:Rygon;
#NOTES:
// measure 0
0000
0000
0000
0000
,  // measure 1
0000
0000
0000
0000
,  // measure 2
0000
0000
0000
0000
,  // measure 3
0000
0000
0000
0000
,  // measure 4
1000
0000
0010
0010
0100
0000
0001
1000
0000
0000
0100
0000
0010
0100
0000
0000
,  // measure 5
1000
0000
0001
0000
0100
0000
0100
0000
0010
1000
0000
0000
1100
0000
0101
0000
,  // measure 6
0001
0000
0010
0010
0100
0000
1000
0001
0000
0000
0100
0000
0010
0100
0000
0000
,  // measure 7
0001
1000
1100
0110
0012
1000
1000
1003
,  // measure 8
1010
0000
0010
0010
0100
0000
0100
0100
0001
0000
0010
0000
1000
0010
0000
0000
,  // measure 9
0001
0000
0011
0000
1100
0000
1000
0000
1000
0001
0010
0001
0000
0001
1000
0001
,  // measure 10
1000
0000
0100
0100
0010
0000
0010
0010
0001
0000
0100
0000
1000
0100
0000
0100
,  // measure 11
0002
0000
2000
0000
,  // measure 12
3003
0000
0000
0000
1000
0000
0010
0000
0010
0000
0000
0100
0000
0000
0001
0000
,  // measure 13
0002
0000
0000
0010
0000
0000
1003
0000
1000
0000
0010
0000
0001
0000
0010
0000
,  // measure 14
1000
0000
1100
0000
0101
0000
0000
0000
0001
0000
0010
0000
0100
1000
0000
0000
,  // measure 15
0010
0100
0100
1000
0100
0002
1000
0000
,  // measure 16
0013
0000
0000
0000
0001
0000
0010
0000
0010
0000
0000
0100
0000
0000
1000
0000
,  // measure 17
2000
0000
0000
0010
0000
0000
3001
0000
0001
0000
0010
0000
1000
0000
0010
0000
,  // measure 18
0001
0000
0101
0000
1100
0000
0000
0000
1000
0000
0010
0000
0100
0001
0000
0000
,  // measure 19
0010
0100
0100
2000
0001
3002
1000
1003
,  // measure 20
1001
0000
0001
0001
0100
0000
1000
0100
0001
0000
0010
0000
0100
1000
0000
1000
,  // measure 21
0010
0000
1000
0000
0010
0000
0100
0000
0001
0010
0001
0010
0100
1000
0100
1000
,  // measure 22
0001
0000
1000
1000
0100
0000
0001
0100
1000
0000
0010
0000
0100
0001
0000
0001
,  // measure 23
0010
0000
0001
0000
0010
0000
0100
0000
1000
0000
0010
0100
0002
0000
0003
0000
,  // measure 24
1001
0000
0001
0000
0100
0000
0100
0000
1000
0000
0100
0000
0001
1000
0000
1000
,  // measure 25
0100
0100
0010
0010
0011
0101
1001
0000
,  // measure 26
0010
0000
0020
0000
0100
0000
0230
0000
0001
0000
0301
0100
0000
0000
0001
0000
,  // measure 27
0010
0000
0100
1000
0000
0000
0001
0000
1000
0000
0020
0200
0000
0000
0330
0000
,  // measure 28
0110
0000
0010
1000
1000
0000
0001
0001
0010
0000
0100
0000
1100
0000
0101
0000
,  // measure 29
0001
0000
1000
1000
0010
0000
0010
0000
0100
0000
0001
0000
1000
0100
1000
0100
,  // measure 30
0010
0000
0010
0001
0001
0000
1000
1000
0010
0000
0100
0000
1001
0000
0001
1000
,  // measure 31
0002
0000
2000
0000
,  // measure 32
3003
0000
0000
0000
1000
0000
0100
0000
0100
0000
0000
0010
0000
0000
0001
0000
,  // measure 33
0002
0000
0000
0100
0000
0000
1003
0000
1000
0000
0100
0000
0001
0000
0100
0000
,  // measure 34
1000
0000
1010
0000
0011
0000
0000
0000
0001
0000
0100
0000
0010
1000
0000
0000
,  // measure 35
0100
0010
0010
1000
0010
0002
1000
0000
,  // measure 36
0103
0000
0000
0000
0001
0000
0100
0000
0100
0000
0000
0010
0000
0000
1000
0000
,  // measure 37
2000
0000
0000
0100
0000
0000
3001
0000
0001
0000
0100
0000
1000
0000
0100
0000
,  // measure 38
0001
0000
0011
0000
1010
0000
0000
0000
1000
0000
0100
0000
0010
0001
0000
0000
,  // measure 39
0100
0010
0010
2000
0001
3002
1000
1003
,  // measure 40
2000
0010
0000
0010
,  // measure 41
3002
0010
0000
0010
,  // measure 42
2003
0010
0000
0010
,  // measure 43
3002
0010
0000
0010
,  // measure 44
1003
0000
0100
0000
0000
0000
0100
0000
0001
0000
0100
0000
0000
1000
0000
0000
,  // measure 45
0001
0000
0100
0000
0000
0000
0100
1000
0000
0000
0100
0000
0000
0000
0001
0000
,  // measure 46
1000
0000
0100
0000
0100
0000
0000
0001
0000
0000
0100
0000
0000
1000
0000
0000
,  // measure 47
0001
0200
0000
2300
0000
3200
0000
0301
,  // measure 48
0001
0001
0001
0001
,  // measure 49
1000
1000
1000
1000
,  // measure 50
0010
0010
0010
0010
0100
0100
0100
0100
,  // measure 51
0001
0010
0001
0010
0100
1000
0100
1000
0020
0000
0000
0000
0030
0000
0000
0000
,  // measure 52
1001
0000
1000
0001
0001
0000
0010
0010
0100
0000
1000
0010
0000
0100
0001
0001
,  // measure 53
1000
0000
0001
0010
0000
0100
1000
0010
1000
0000
0010
0100
0000
0001
1000
1000
,  // measure 54
0001
0000
0001
1000
1000
0000
0010
0010
0100
0000
0001
0010
0000
0100
1000
1000
,  // measure 55
0001
0000
1000
0010
0000
0100
0001
0010
0001
1000
0002
0000
0003
0000
0000
0000
,  // measure 56
1001
0000
1000
0001
0001
0000
0100
0100
0010
0000
1000
0100
0000
0010
0001
0001
,  // measure 57
1000
0000
0001
0100
0000
0010
1000
0100
1000
0000
0100
0010
0000
0001
1000
1000
,  // measure 58
0001
0100
0010
1000
0001
0010
0100
1000
,  // measure 59
0010
0100
0001
0100
0010
1000
0100
0010
0200
0000
0000
0000
0300
0000
0000
0000
;

//---------------dance-single - Rygon----------------
#NOTEDATA:;
#CHARTNAME:X-13;
#STEPSTYPE:dance-single;
#DESCRIPTION:Rygon;
#CHARTSTYLE:;
#DIFFICULTY:Hard;
#METER:9;
#RADARVALUES:0.559,0.594,0.156,0.268,0.363,403.000,18.000,31.000,0.000,0.000,0.000,0.000,0.000,0.559,0.594,0.156,0.268,0.363,403.000,18.000,31.000,0.000,0.000,0.000,0.000,0.000;
#CREDIT:Rygon;
#NOTES:
0000
0000
0000
0000
,
0000
0000
0000
0000
,
0000
0000
0000
0000
,
0000
0000
0000
0000
,
0001
0000
0010
0100
1000
0000
0000
0010
0100
0000
0001
0000
1000
0100
0000
0000
,
1000
0000
0010
0000
0001
0000
0010
0000
1000
0001
0000
0000
0110
0000
0000
0000
,
1000
0000
0010
0100
0001
0000
0000
0010
0100
0000
1000
0000
0001
0100
0000
0000
,
0001
0010
1000
0010
0002
0000
0000
0003
,
1001
0000
0000
1000
0010
0000
0000
0001
0010
0000
1000
0000
0100
0010
0000
0000
,
0001
0000
0000
0100
1000
0000
0100
0000
0001
0010
0000
0010
0100
0000
1000
0000
,
0001
0000
0000
1000
0100
0000
0000
0001
0100
0000
1000
0000
0010
0100
0000
0000
,
0002
0000
2000
0000
,
3003
0000
0000
0000
1000
0000
0010
0000
0010
0000
0000
0100
0000
0000
0001
0000
,
0002
0000
0000
0010
0000
0000
1003
0000
1000
0000
0010
0000
0001
0000
0010
0000
,
1000
0000
1100
0000
0101
0000
0000
0000
0001
0000
0010
0000
0100
1000
0000
0000
,
0010
0100
0100
1000
0100
0002
1000
0000
,
0013
0000
0000
0000
0001
0000
0010
0000
0010
0000
0000
0100
0000
0000
1000
0000
,
2000
0000
0000
0010
0000
0000
3001
0000
0001
0000
0010
0000
1000
0000
0010
0000
,
0001
0000
0101
0000
1100
0000
0000
0000
1000
0000
0010
0000
0100
0001
0000
0000
,
0010
0100
0100
2000
0001
3002
1000
1003
,
1001
0000
0000
1000
0010
0000
0010
0100
0001
0000
0000
0010
0100
0000
1000
0000
,
0001
0000
0100
0000
0100
0000
1000
0000
0100
0001
0000
0001
1000
0010
0000
0010
,
1000
0000
0000
0001
0010
0000
0010
0100
1000
0000
0000
0010
0100
0000
0001
0000
,
1000
0100
0100
0001
0100
2000
0002
3003
,
1000
0010
0100
0010
1001
0001
0101
0000
,
0001
0010
0100
0010
1001
1000
1100
0000
,
1000
0000
0010
0000
0001
0000
0010
0000
1000
0000
0000
0100
0000
0000
0001
0000
,
0100
0000
0000
1000
0000
0000
0010
0000
0100
0000
0002
2000
0000
0000
3003
0000
,
1001
0000
0000
1000
0100
0000
0100
0010
0001
0000
0000
0100
0010
0000
1000
0000
,
0001
0000
0010
0000
0010
0000
1000
0000
0010
0000
0001
0000
1000
0010
1000
0010
,
1000
0000
0000
0001
0100
0000
0100
0010
1000
0000
0000
0100
0010
0000
0001
0000
,
2000
0000
0002
0000
,
3003
0000
0000
0000
1000
0000
0100
0000
0100
0000
0000
0010
0000
0000
0001
0000
,
0002
0000
0000
0100
0000
0000
1003
0000
1000
0000
0100
0000
0001
0000
0100
0000
,
1000
0000
1010
0000
0011
0000
0000
0000
0001
0000
0100
0000
0010
1000
0000
0000
,
0100
0010
0010
1000
0010
0002
1000
0000
,
0103
0000
0000
0000
0001
0000
0100
0000
0100
0000
0000
0010
0000
0000
1000
0000
,
2000
0000
0000
0100
0000
0000
3001
0000
0001
0000
0100
0000
1000
0000
0100
0000
,
0001
0000
0011
0000
1010
0000
0000
0000
1000
0000
0100
0000
0010
0001
0000
0000
,
0100
0010
0010
2000
0001
3002
1000
1003
,
1000
0010
0100
0002
0000
0013
0100
2000
,
0000
3001
0100
2000
0000
3100
0001
0020
,
0000
0000
0000
0000
0000
0000
0000
0230
,
0000
0000
0000
0000
0000
0000
0000
0000
0000
0000
0310
0000
0001
0000
1000
0001
,
1000
0000
0010
0000
0000
0000
0010
0000
0001
0000
0010
0000
0000
1000
0000
0000
,
0001
0000
0010
0000
0000
0000
0010
1000
0000
0000
0010
0000
0000
0000
0001
0000
,
1000
0000
0010
0000
0010
0000
0000
0001
0000
0000
0010
0000
0000
1000
0000
0000
,
0001
0020
0000
2030
0000
3020
0000
0031
,
0001
0001
0001
0001
,
1000
1000
1000
1000
,
0010
0100
0010
0100
0010
0100
0010
0100
,
0001
1000
0001
1000
0001
1000
0001
1000
0200
0000
0000
0000
0300
0000
0000
0000
,
1001
0000
1000
0100
0010
0000
0001
1000
0001
0000
0100
0010
0000
0010
1000
0000
,
0001
0000
1000
0010
0100
0000
0001
1000
0001
0000
0010
0100
0000
1000
0001
0000
,
1000
0000
0001
0100
0010
0000
1000
0001
1000
0000
0100
0010
0000
0010
0001
0000
,
1000
0000
0001
0010
0100
0000
1000
0001
2000
0000
0002
0000
3003
0000
0000
0000
,
1001
0000
0001
0100
0010
0000
1000
0001
1000
0000
0100
0010
0000
0010
0001
0000
,
1000
0000
0001
0010
0100
0000
1000
0001
1000
0000
0010
0100
0000
0001
1000
0000
,
0001
0100
0010
1000
0001
0010
0100
1000
,
0001
0100
0001
0100
0010
1000
0010
1000
0200
0000
0000
0000
0300
0000
0000
0000
;

//---------------dance-single - Rygon----------------
#NOTEDATA:;
#CHARTNAME:X-7;
#STEPSTYPE:dance-single;
#DESCRIPTION:Rygon;
#CHARTSTYLE:;
#DIFFICULTY:Medium;
#METER:6;
#RADARVALUES:0.352,0.439,0.112,0.355,0.000,231.000,13.000,41.000,0.000,0.000,0.000,0.000,0.000,0.352,0.439,0.112,0.355,0.000,231.000,13.000,41.000,0.000,0.000,0.000,0.000,0.000;
#CREDIT:Rygon;
#NOTES:
0000
0000
0000
0000
,
0000
0000
0000
0000
,
0000
0000
0000
0000
,
0000
0000
0000
0000
,
0100
0000
1000
0000
0010
0000
0100
0001
,
1000
0000
0100
0000
0010
0000
0001
1000
,
0010
0000
0100
0000
0001
0000
1000
0100
,
0010
0001
2000
0000
,
3001
0101
1000
1100
,
0001
1000
0020
0230
,
0301
0011
1000
1010
,
0002
0000
2000
0000
,
3003
0000
1000
0000
0001
0000
1000
0010
,
0000
0100
0000
0001
0000
0010
0000
0100
,
1000
0000
0001
0000
0100
0000
1000
0100
,
0000
0001
0000
0010
0100
0000
2002
0000
,
3003
0000
0001
0000
1000
0000
0001
0010
,
0000
0100
0000
1000
0000
0010
0000
0100
,
0001
0000
1000
0000
0100
0000
0001
0100
,
0000
1000
0000
0010
2000
0002
3000
0003
,
1000
0000
1010
0000
0010
0100
0001
0000
,
0010
0100
2000
3002
,
1003
0000
1010
0000
0010
0100
0001
0000
,
0010
0000
0100
0000
1000
0001
1000
0000
,
0001
0100
0001
0100
0010
0000
1001
0000
,
1000
0100
1000
0100
0010
0000
1001
0000
,
0001
1000
0001
1000
0020
0000
0230
0000
,
0301
0010
1000
0000
0200
0000
0300
0000
,
0001
0000
0011
0000
0010
0100
1000
0000
,
0010
0100
0001
2000
,
3001
0000
0011
0000
0010
0100
1000
0000
,
0002
0000
2000
0000
,
3003
0000
1000
0000
0001
0000
1000
0100
,
0000
0010
0000
0001
0000
0100
0000
0010
,
1000
0000
0001
0000
0010
0000
1000
0010
,
0000
0001
0000
0100
0010
0000
2002
0000
,
3003
0000
0001
0000
1000
0000
0001
0100
,
0000
0010
0000
1000
0000
0100
0000
0010
,
0001
0000
1000
0000
0010
0000
0001
0010
,
0000
1000
0000
0100
2000
0002
3000
0003
,
0000
1000
0000
1000
,
0000
0001
0000
0001
,
0000
0100
0000
0100
,
0000
0010
0000
0010
,
1000
0100
0000
0100
,
0010
0001
0000
0001
,
0001
0100
0000
0100
,
0010
1000
0000
1000
,
0001
0001
0001
0001
,
1000
1000
1000
1000
,
0010
0010
0100
0100
,
0001
1000
0001
1000
0200
0000
0300
0000
,
2001
0000
3020
0000
0230
0000
0301
0100
,
0002
0000
0023
0000
0230
0000
1300
0100
,
2000
0000
3002
0000
0203
0000
0310
0100
,
0020
2030
0002
3003
,
0002
0000
0023
0000
0230
0000
1300
0100
,
2000
0000
3020
0000
0230
0000
0301
0100
,
0001
0010
0100
1000
,
0001
0010
0100
1000
0020
0000
0030
0000
;

//---------------dance-single - Rygon----------------
#NOTEDATA:;
#CHARTNAME:X-6;
#STEPSTYPE:dance-single;
#DESCRIPTION:Rygon;
#CHARTSTYLE:;
#DIFFICULTY:Easy;
#METER:4;
#RADARVALUES:0.292,0.310,0.225,0.147,0.000,193.000,26.000,17.000,0.000,0.000,0.000,0.000,0.000,0.292,0.310,0.225,0.147,0.000,193.000,26.000,17.000,0.000,0.000,0.000,0.000,0.000;
#CREDIT:Rygon;
#NOTES:
0000
0000
0000
0000
,
0000
0000
0000
0000
,
0000
0000
0000
0000
,
0000
0000
0000
0000
,
0001
1000
0001
0000
,
0001
0100
0001
0000
,
1000
0001
1000
0000
,
1000
0100
2000
0000
,
3000
0010
0010
0100
,
0001
0010
0010
0100
,
1000
0001
0100
0010
,
2000
0000
0002
0000
,
3003
1000
0100
0100
,
1000
0010
0100
0001
,
1000
1001
0001
1001
,
1000
0010
0200
0300
,
0001
0100
0100
0001
,
0001
0010
0100
1000
,
0001
1001
1000
1001
,
0001
0010
0200
0000
,
1300
0100
0001
0010
,
1000
0100
0110
1001
,
0001
0100
1000
0010
,
0001
0100
0110
1001
,
1000
0001
1000
1001
,
0010
0100
0010
0110
,
1000
0100
0001
0100
,
1000
0010
0200
0000
,
0301
0100
1000
0010
,
0001
0100
0110
1001
,
1000
0100
0001
0010
,
2000
0000
0002
0000
,
3003
1000
0010
0010
,
1000
0100
0010
0001
,
1000
1001
0001
1001
,
1000
0100
0020
0030
,
0001
0010
0010
0001
,
0001
0100
0010
1000
,
0001
1001
1000
1001
,
0001
0100
0020
0000
,
0030
1000
0000
1000
,
0000
0001
0000
0001
,
0000
0010
0000
0010
,
0000
0100
0000
0100
,
1000
0010
0000
0010
,
0100
0001
0000
0001
,
0001
0010
0000
0010
,
0100
1000
0000
1000
,
0001
0001
0001
0001
,
1000
1000
1000
1000
,
0010
0010
0100
0100
,
0002
2003
3200
0300
,
1010
1001
0100
0010
,
0011
1001
0100
0010
,
0110
1001
1000
0001
,
1000
0100
0020
0030
,
1100
1001
0010
0100
,
0101
1001
0010
0100
,
1000
0010
0100
0001
,
2000
3200
0320
0030
;

//---------------dance-single - Rygon----------------
#NOTEDATA:;
#CHARTNAME:X-1;
#STEPSTYPE:dance-single;
#DESCRIPTION:Rygon;
#CHARTSTYLE:;
#DIFFICULTY:Beginner;
#METER:1;
#RADARVALUES:0.062,0.129,0.035,0.009,0.000,45.000,4.000,1.000,0.000,0.000,0.000,0.000,0.000,0.062,0.129,0.035,0.009,0.000,45.000,4.000,1.000,0.000,0.000,0.000,0.000,0.000;
#CREDIT:Rygon;
#NOTES:
0000
0000
0000
0000
,
0000
0000
0000
0000
,
0000
0000
0000
0000
,
0000
0000
0000
0000
,
1000
0000
0000
0000
,
0000
0000
0000
0000
,
1000
0000
0000
0000
,
0000
0000
0000
0000
,
0001
0000
0000
0000
,
0000
0000
0000
0000
,
0001
0000
0000
0000
,
0000
0000
0000
0000
,
1000
0000
0000
0000
,
0100
0000
0000
0000
,
0010
0000
0000
0000
,
0001
0000
0000
0000
,
1000
0000
0000
0000
,
0010
0000
0000
0000
,
0100
0000
0000
0000
,
0001
0000
0000
0000
,
1000
0000
0000
0000
,
0000
0000
0000
0000
,
1000
0000
0000
0000
,
0000
0000
0000
0000
,
0001
0000
0000
0000
,
0000
0000
0000
0000
,
0001
0000
0000
0000
,
0000
0000
0000
0000
,
1000
0000
0000
0000
,
0000
0000
0000
0000
,
0001
0000
0000
0000
,
0000
0000
0000
0000
,
1000
0000
0000
0000
,
0010
0000
0000
0000
,
0100
0000
0000
0000
,
0001
0000
0000
0000
,
1000
0000
0000
0000
,
0100
0000
0000
0000
,
0010
0000
0000
0000
,
0001
0000
0000
0000
,
0100
0000
0000
0000
,
0000
0000
0000
0000
,
0000
0000
0000
0000
,
0000
0000
0000
0000
,
0010
0000
0000
0000
,
0000
0000
0000
0000
,
0000
0000
0000
0000
,
0000
0000
0000
0000
,
1000
0000
1000
0000
,
0001
0000
0001
0000
,
0100
0000
0100
0000
,
0010
0000
0010
0000
,
1001
0000
0000
0000
,
0100
0000
0000
0000
,
1001
0000
0000
0000
,
0010
0000
0000
0000
,
0110
0000
0000
0000
,
1000
0000
0000
0000
,
0110
0000
0000
0000
,
0001
0000
2000
3000
;
