#TITLE:My Town, My City;
#SUBTITLE:;
#ARTIST:Skitz the Samurida;
#TITLETRANSLIT:;
#SUBTITLETRANSLIT:;
#ARTISTTRANSLIT:;
#GENRE:;
#CREDIT:;
#BANNER:[ROUND 10] - My Town, My City.png;
#BACKGROUND:[ROUND 10] - My Town, My City-bg.png;
#LYRICSPATH:;
#CDTITLE:cdtitle.png;
#MUSIC:[ROUND 10] - My Town, My City.ogg;
#OFFSET:-7.108;
#SAMPLESTART:13.591;
#SAMPLELENGTH:12.000;
#SELECTABLE:YES;
#BPMS:0.000=148.000
;
#STOPS:
;
#BGCHANGES:;
#KEYSOUNDS:;
#ATTACKS:;

//---------------dance-single - ----------------
#NOTES:
     dance-single:
     :
     Hard:
     8:
     0.574,0.430,0.260,0.054,0.022,413.000,29.000,6.000,0.000,0.000,0.000,0.574,0.430,0.260,0.054,0.022,413.000,29.000,6.000,0.000,0.000,0.000: // measure 0
1000
0000
0000
0000
1001
0000
0000
0000
0001
0000
0000
0001
0000
0000
0100
0000
,  // measure 1
0001
0000
0000
0000
1001
0000
0000
0000
1000
0000
0000
1000
0000
0000
0100
0000
,  // measure 2
1000
0000
0000
0000
1001
0000
0000
0000
0001
0000
0000
0001
0000
0000
0010
0000
,  // measure 3
0002
0000
2000
3003
,  // measure 4
0001
1000
0110
0000
0001
1000
0110
0000
,  // measure 5
0100
0010
1000
0100
0010
0001
1000
0000
,  // measure 6
0001
0100
1000
0100
0001
1000
0100
0010
,  // measure 7
0000
0001
1000
0010
0001
0010
1000
0001
,  // measure 8
0010
0100
1001
0000
0010
0100
1001
0000
,  // measure 9
1000
0010
0100
0001
0010
0100
1000
0000
,  // measure 10
0010
0100
0001
0010
1000
0010
0001
0000
,  // measure 11
0100
0010
1000
0100
0010
0100
1000
0000
,  // measure 12
0001
0100
0110
0000
0001
0100
0110
0000
,  // measure 13
0100
0001
1000
0100
0010
0001
0100
0000
,  // measure 14
0010
1000
0001
0010
1000
0010
0100
1000
,  // measure 15
0000
0010
1000
0100
0001
0100
0010
0001
,  // measure 16
1000
0001
0101
0000
1000
0001
0101
0000
,  // measure 17
1000
0100
0010
0001
0100
0010
1000
0000
,  // measure 18
0001
0100
0001
1000
0100
0010
0001
0000
,  // measure 19
1000
0010
0001
0010
0100
0001
1000
0000
,  // measure 20
0100
0010
0001
0000
0100
0010
1000
0000
,  // measure 21
0001
0010
0100
0010
0001
1000
0010
0000
,  // measure 22
0100
0001
1000
0000
0100
0010
0001
0000
,  // measure 23
1000
0010
0100
0010
1000
0001
0010
0000
,  // measure 24
0001
0100
0001
0010
0100
1000
0100
0010
,  // measure 25
0001
0000
1001
0000
1000
0010
0100
0001
,  // measure 26
0010
0100
0010
0001
1000
0010
1000
0001
,  // measure 27
0010
0100
1001
0110
,  // measure 28
1000
0001
0010
0100
1000
0010
1000
0000
,  // measure 29
0001
0100
0010
1000
0100
0001
0100
1000
,  // measure 30
0010
0100
0001
0010
0100
0010
0001
0000
,  // measure 31
1000
0010
1000
0100
0001
0100
0010
0000
,  // measure 32
0001
1000
0010
0100
0010
1000
0100
0000
,  // measure 33
0010
0100
1000
0001
0100
0010
0100
0000
,  // measure 34
0001
1000
0100
0010
0001
0100
0010
1000
,  // measure 35
0001
1000
1001
0110
,  // measure 36
1000
1000
0100
0010
0001
1000
0010
0100
,  // measure 37
0010
1000
0100
0001
0100
1000
0001
0000
,  // measure 38
1000
0010
0100
0010
1000
0100
0010
0000
,  // measure 39
0001
1000
0010
0001
0010
1000
0100
0000
,  // measure 40
0010
0001
0100
0010
1000
0001
1000
0000
,  // measure 41
0100
0010
0100
1000
0010
0100
0001
0000
,  // measure 42
0010
0100
1000
0010
0001
0010
0100
0000
,  // measure 43
0001
1000
2002
3003
,  // measure 44
1000
0001
0110
0000
1000
0001
0110
0000
,  // measure 45
0010
0100
0001
0010
0100
1000
0001
0000
,  // measure 46
1000
0010
0001
0010
1000
0001
0010
0100
,  // measure 47
0000
1000
0001
0100
1000
0100
0001
1000
,  // measure 48
0100
0010
1001
0000
0100
0010
1001
0000
,  // measure 49
0001
0100
0010
1000
0100
0010
0001
0000
,  // measure 50
0100
0010
1000
0100
0001
0100
1000
0000
,  // measure 51
0010
0100
0001
0010
0100
0010
0001
0000
,  // measure 52
1000
0010
0110
0000
1000
0010
0110
0000
,  // measure 53
0010
1000
0001
0010
0100
1000
0010
0000
,  // measure 54
0100
0001
1000
0100
0001
0100
0010
0001
,  // measure 55
0000
0100
0001
0010
1000
0010
0100
1000
,  // measure 56
0001
1000
1010
0000
0001
1000
1010
0000
,  // measure 57
0001
0010
0100
1000
0010
0100
0001
0000
,  // measure 58
1000
0010
1000
0001
0010
0100
1000
0000
,  // measure 59
0001
0100
1000
0100
0010
1000
0001
0000
,  // measure 60
1000
0000
0000
0000
1001
0000
0000
0000
0001
0000
0000
0001
0000
0000
0100
0000
,  // measure 61
0001
0110
1000
0110
,  // measure 62
0001
0000
0000
0000
1001
0000
0000
0000
1000
0000
0000
1000
0000
0000
0010
0000
,  // measure 63
2000
0002
0000
0000
,  // measure 64
3003
0000
0000
0000
;

//---------------dance-single - ----------------
#NOTES:
     dance-single:
     :
     Medium:
     6:
     0.433,0.344,0.161,0.054,0.000,314.000,18.000,6.000,0.000,0.000,0.000,0.433,0.344,0.161,0.054,0.000,314.000,18.000,6.000,0.000,0.000,0.000:
1000
0000
1001
0000
0001
0000
0100
0100
,
0001
0000
1001
0000
1000
0000
0100
0100
,
1000
0000
1001
0000
0001
0000
0010
0010
,
0002
0000
2000
3003
,
1000
0010
0100
0000
1000
0010
0100
0000
,
1000
0100
0010
0000
0001
0000
1000
0000
,
0001
0100
0010
0000
1000
0000
0100
0000
,
0010
0100
1000
0000
0010
0000
0100
0000
,
0001
1000
0100
0000
0001
1000
0100
0000
,
0010
0001
1000
0000
0010
0000
0100
0000
,
0001
0010
0001
0000
1000
0100
1000
0000
,
0010
0100
1001
0110
,
1000
0100
0010
0000
1000
0100
0010
0000
,
0001
0100
0010
0000
1000
0000
0100
0000
,
0010
0001
0100
0000
0010
0000
1000
0000
,
0001
1000
0100
0000
0010
0000
0001
0000
,
1000
0001
0100
0000
1000
0001
0100
0000
,
0010
1000
0100
0000
0010
0000
0001
0000
,
1000
0010
1000
0000
0001
0100
0001
0000
,
1000
0001
0110
1001
,
1000
0100
1000
0100
,
1000
0001
1000
0000
0001
0000
0100
0000
,
0001
0010
0001
0010
,
0001
1000
0001
0000
1000
0000
0010
0000
,
1000
0100
0001
0100
,
1000
0001
1000
0010
,
0100
0001
0010
0100
,
1000
0001
1001
0000
,
1000
0000
0001
0000
0100
0001
0100
0000
,
0001
0000
1000
0000
0010
1000
0010
0000
,
1000
0000
0100
0000
0010
0001
0010
0000
,
0001
0000
0010
0000
0100
1000
0100
0000
,
1000
0000
0010
0000
1000
0100
0010
0000
,
0001
0000
0100
0000
0001
0010
0100
0000
,
0010
0001
0100
0000
0010
1000
0100
0000
,
0010
0100
0110
0000
,
0010
0001
0100
0010
1000
0000
1001
0000
,
0001
1000
0100
0010
0001
0000
0000
0000
,
0100
0010
1000
0100
0010
0000
0110
0000
,
0100
1000
0001
0100
0001
0000
0000
0000
,
0010
0100
1000
0001
0100
0000
0101
0000
,
0001
1000
0001
0010
0100
0000
0000
0000
,
1000
0001
0100
0000
0001
1000
0100
0000
,
2000
0000
0002
3003
,
0001
0100
0010
0000
0001
0100
0010
0000
,
0001
0010
0100
0000
1000
0000
0001
0000
,
1000
0010
0100
0000
0001
0000
0010
0000
,
0100
0010
0001
0000
0100
0000
0010
0000
,
1000
0001
0010
0000
1000
0001
0010
0000
,
0100
1000
0001
0000
0100
0000
0010
0000
,
1000
0100
1000
0000
0001
0010
0001
0000
,
0100
0010
1001
0110
,
0001
0010
0100
0000
0001
0010
0100
0000
,
1000
0010
0100
0000
0001
0000
0010
0000
,
0100
1000
0010
0000
0100
0000
0001
0000
,
1000
0001
0010
0000
0100
0000
1000
0000
,
0001
1000
0010
0000
0001
1000
0010
0000
,
0100
0001
0010
0000
0100
0000
1000
0000
,
0001
0100
0001
0000
1000
0010
1000
0000
,
0001
1000
0110
1001
,
1000
0000
1001
0000
0001
0000
0100
0100
,
0001
0010
1000
0010
,
0001
0000
1001
0000
1000
0000
0010
0010
,
2000
0002
0000
0000
,
3003
0000
0000
0000
;

//---------------dance-single - ----------------
#NOTES:
     dance-single:
     :
     Easy:
     4:
     0.309,0.287,0.108,0.054,0.000,223.000,12.000,6.000,0.000,0.000,0.000,0.309,0.287,0.108,0.054,0.000,223.000,12.000,6.000,0.000,0.000,0.000:
1000
1001
0001
0100
,
0001
1001
1000
0100
,
1000
1001
0001
0010
,
0002
0000
2000
3003
,
0001
0001
0100
0000
0001
0001
0100
0000
,
0001
0010
0100
0000
,
1000
0001
1000
0000
,
0001
0100
0001
0000
,
1000
1000
0100
0000
1000
1000
0100
0000
,
1000
0010
0100
0000
,
0001
0010
0001
0100
,
0001
1000
1001
0000
,
1000
1000
0010
0000
1000
1000
0010
0000
,
1000
0100
0010
0000
,
0001
0100
0001
0000
,
1000
0010
1000
0000
,
0001
0001
0010
0000
0001
0001
0010
0000
,
0001
0100
0010
0000
,
1000
0100
1000
0010
,
1000
0001
1001
0000
,
1000
0000
1000
0000
,
0001
0100
0001
0000
,
1000
0000
1000
0000
,
0001
0010
0001
0000
,
0001
0100
0001
1000
,
0000
1001
1000
0100
,
1000
0000
1000
0000
,
0001
1000
1001
0000
,
0001
0001
0100
0000
,
0001
0001
1000
0000
,
1000
1000
0100
0000
,
1000
1000
0001
0000
,
1000
0010
1000
0000
,
0001
1000
0001
0000
,
1000
0100
1000
0000
,
0001
1000
1001
0000
,
0001
0001
0100
0001
,
1000
1000
0100
0000
,
1000
1000
0010
1000
,
0001
0001
0010
0000
,
0001
0001
0100
0010
,
1000
1000
0100
0000
,
0010
0000
0100
0000
,
2000
0000
0002
3003
,
1000
1000
0010
0000
1000
1000
0010
0000
,
1000
0100
0010
0000
,
0001
1000
0001
0000
,
1000
0010
1000
0000
,
0001
0001
0010
0000
0001
0001
0010
0000
,
0001
0100
0010
0000
,
1000
0100
1000
0010
,
1000
0001
1001
0000
,
0001
0001
0100
0000
0001
0001
0100
0000
,
0001
0010
0100
0000
,
1000
0010
1000
0000
,
0001
0100
0001
0000
,
1000
1000
0100
0000
1000
1000
0100
0000
,
1000
0010
0100
0000
,
0001
0010
0001
0100
,
0001
1000
1001
0000
,
1000
1001
0001
0100
,
0001
0010
0100
1000
,
0001
1001
1000
0010
,
2000
0002
0000
0000
,
3003
0000
0000
0000
;
