#TITLE:Azul (Remix);
#SUBTITLE:;
#ARTIST:celas;
#TITLETRANSLIT:;
#SUBTITLETRANSLIT:;
#ARTISTTRANSLIT:;
#GENRE:;
#CREDIT:;
#BANNER:Azul Banner.png;
#BACKGROUND:Azul BG.png;
#LYRICSPATH:;
#CDTITLE:;
#MUSIC:[ROUND 10] - Azul (Remix).ogg;
#OFFSET:-0.040;
#SAMPLESTART:46.620;
#SAMPLELENGTH:12.000;
#SELECTABLE:YES;
#BPMS:0.000=97.501
,32.000=48.750
,34.000=195.001
,98.000=97.501
,106.000=195.001
,234.000=97.501
,266.000=195.001
;
#STOPS:
;
#BGCHANGES:;
#KEYSOUNDS:;
#ATTACKS:;

//---------------dance-single - ----------------
#NOTES:
     dance-single:
     :
     Challenge:
     10:
     0.775,0.944,0.510,0.054,0.490,629.000,66.000,7.000,0.000,0.000,0.000,0.775,0.944,0.510,0.054,0.490,629.000,66.000,7.000,0.000,0.000,0.000: // measure 0
0000
0000
0000
0000
,  // measure 1
0000
0000
0000
0000
,  // measure 2
0000
0000
0000
0000
,  // measure 3
0000
0000
0000
0000
,  // measure 4
2010
0000
0000
3001
0000
0000
0000
1000
0010
0100
0100
0001
0010
0100
0100
1000
,  // measure 5
0001
0000
0000
1000
0001
0000
0000
0001
1000
0000
0010
0100
0010
0000
0110
0000
,  // measure 6
0100
0010
0100
0001
0100
1000
0100
0010
1000
0100
0001
0100
1000
0010
0001
0010
,  // measure 7
1000
0000
0000
1000
0001
0000
0000
0000
1001
0000
1000
0000
0100
0010
0001
0000
,  // measure 8
1001
0000
1001
0101
,  // measure 9
0000
0100
0101
0000
0000
0001
0011
0000
,  // measure 10
0010
0110
0100
1100
,  // measure 11
0000
1000
1100
0000
1000
0100
0001
0101
,  // measure 12
0000
0100
1100
0000
1000
0000
1010
0000
,  // measure 13
0000
0010
1010
0000
1000
0100
0010
0011
,  // measure 14
0000
0001
0011
0000
0001
0000
0101
0000
,  // measure 15
0000
0100
0101
0000
0001
0100
1000
1100
,  // measure 16
0000
0100
0101
0000
0001
0010
0001
0010
,  // measure 17
0100
1000
0100
1000
0001
0010
0100
1000
,  // measure 18
0001
0010
0100
1000
1100
0000
1000
0000
,  // measure 19
0000
1000
1010
0000
1000
0100
0010
0011
,  // measure 20
0000
0001
0011
0000
0001
0100
1000
0100
,  // measure 21
0001
0010
1000
0010
0001
0001
0010
0010
,  // measure 22
0100
0100
1000
1000
1010
0000
1000
0100
,  // measure 23
0110
0000
0011
0000
0101
0000
0001
0100
,  // measure 24
0110
0000
0000
0000
1010
0000
0000
0000
1000
0000
0010
0000
0100
0100
0000
0001
,  // measure 25
0000
1000
0100
0010
0001
1000
0100
0010
0001
0000
0100
0000
0010
0010
0000
1000
,  // measure 26
0000
0001
0010
0100
1000
0001
0010
0100
1000
0000
0000
0000
1001
0000
0000
0000
,  // measure 27
0001
0010
0011
0000
0001
0010
0100
1000
,  // measure 28
0000
1000
1100
0000
1000
0000
1001
0000
,  // measure 29
1000
0010
1010
0000
1000
0010
0100
0001
,  // measure 30
0000
0001
0101
0000
0001
0000
0011
0000
,  // measure 31
0010
0100
0110
0000
0100
1000
0100
0001
,  // measure 32
0000
0100
1100
0000
1000
0000
1010
0000
,  // measure 33
0010
0100
0110
0000
0100
0001
0100
1000
,  // measure 34
0000
0100
0101
0000
0001
0010
0100
1000
,  // measure 35
0001
0100
0010
1000
0001
0010
1000
0010
,  // measure 36
0001
0100
1000
0100
0001
0000
0101
0000
,  // measure 37
0001
0100
0101
0000
0001
0010
0100
1100
,  // measure 38
0000
1000
1100
0000
1000
0010
1000
1000
,  // measure 39
0001
0100
0001
0001
1000
0010
0100
0001
,  // measure 40
1000
0010
0100
0001
0101
0000
0001
0100
,  // measure 41
0110
0000
1010
0000
1100
0000
1000
0100
,  // measure 42
0110
0000
0000
0000
0011
0000
0000
0000
0001
0100
0001
0000
0100
0010
0100
0000
,  // measure 43
0010
1000
0010
0000
1000
0000
0100
0000
1000
0010
1000
0000
0010
0100
0010
0000
,  // measure 44
0100
0001
0100
0000
0001
0010
0001
0000
1000
0000
0010
0000
0100
0000
0001
0000
,  // measure 45
1000
0000
0100
0000
0010
0000
0001
0000
1000
0000
0100
0010
0001
0000
1000
0000
,  // measure 46
0010
0000
1000
0000
0010
0000
0100
0000
0001
0000
0010
0100
1000
0000
0001
0000
,  // measure 47
0100
0000
0001
0000
0100
0000
0010
0000
1000
0000
0100
0010
0001
0000
1000
0000
,  // measure 48
0010
0000
1000
0000
0010
0000
0100
0000
0001
0000
0010
0000
0100
1000
0000
0000
,  // measure 49
1000
0010
0000
0000
0010
0100
0000
0000
0100
0001
0000
0000
0001
0010
0000
0000
,  // measure 50
0010
0100
0000
0000
0100
1000
0000
0000
0001
0000
0100
0010
0100
0000
0001
0000
,  // measure 51
0000
0000
0100
0000
0001
0000
0000
0000
1000
0000
0010
1000
0010
0000
1000
0000
,  // measure 52
0100
0000
0010
0000
0001
0000
0000
0000
1000
0000
0100
0010
0100
0000
1000
0000
,  // measure 53
0000
0000
0010
0000
1000
0000
0000
0000
0001
0000
0100
0001
0100
0000
0001
0000
,  // measure 54
0010
0000
0100
0000
1000
0000
0000
0000
0001
0000
0010
0100
1000
0000
0001
0000
,  // measure 55
0000
0000
1000
0000
0001
0000
0000
0000
1000
0000
0010
0100
0001
0000
1000
0000
,  // measure 56
0001
0000
1000
0000
0001
0000
0000
0000
1000
0010
0100
0000
0001
0010
0100
0000
,  // measure 57
1000
0001
1000
0000
0001
1000
0001
0000
1000
0100
0010
0001
1000
0010
0100
0001
,  // measure 58
0010
0100
1000
0001
0100
0010
1000
0000
2010
0000
0000
0100
0000
0000
0001
0000
,  // measure 59
0010
0000
0000
0000
3010
0000
0000
0000
0102
0000
0000
1000
0000
0000
0010
0000
,  // measure 60
0100
0000
0103
0000
0011
0010
0100
1000
,  // measure 61
0001
0100
0010
1000
1100
0100
0010
0001
,  // measure 62
0101
0000
0100
0000
0110
0000
0010
0000
2010
0000
0000
0100
0000
0000
0001
0000
,  // measure 63
0010
0000
0000
0100
0000
0000
3001
0000
0201
0000
0000
1000
0000
0000
0010
0000
,  // measure 64
0001
0000
0000
1000
0000
0000
0310
0000
1010
0000
0000
0000
0110
0000
0000
0000
,  // measure 65
0101
0000
0011
0000
0001
0010
0100
1000
,  // measure 66
0001
0000
0100
0000
0010
0000
1000
0000
0001
0010
0100
1000
0001
0100
0010
1000
0001
0000
0010
0000
0001
0000
0000
0000
0010
0000
0100
0000
0010
0000
0000
0000
,  // measure 67
0100
1000
0100
0000
1000
0000
0010
0000
1000
0010
1000
0000
0010
0100
0010
0000
,  // measure 68
0100
0001
0100
0000
0001
0010
0001
0000
1000
0000
0010
0000
0100
0000
0001
0000
,  // measure 69
1000
0000
0100
0000
0010
0000
0001
0000
1000
0000
0100
0001
0100
0000
1000
0000
,  // measure 70
0001
0010
0001
0000
0100
0000
0010
0000
1000
0000
0010
0001
0010
0000
1000
0000
,  // measure 71
0001
0100
0001
0000
0100
0000
0010
0000
1000
0000
0100
0001
0100
0000
1000
0000
,  // measure 72
0010
0001
0010
0000
1000
0000
0001
0000
1000
0010
0000
0000
0100
0001
0000
0000
,  // measure 73
1000
0100
0000
0000
0010
0001
0000
0000
1000
0010
0000
0000
0100
0001
0000
0000
,  // measure 74
1000
0100
0000
0000
0010
0001
0000
0000
1000
0000
0010
0001
0010
0000
1000
0000
,  // measure 75
0100
0001
0100
0000
1000
0000
0010
0000
0100
0000
0001
0010
0100
0000
1000
0000
,  // measure 76
0001
1000
0001
1000
0001
0000
1000
0000
0001
0000
0100
1000
0100
0000
0001
0000
,  // measure 77
0010
1000
0010
0000
0001
0000
0100
0000
0010
0000
1000
0100
0010
0000
0001
0000
,  // measure 78
1000
0001
1000
0001
1000
0000
0001
0000
1000
0000
0010
0100
0001
0000
0100
0000
,  // measure 79
0010
0100
0001
0000
0010
0000
0100
0000
1000
0000
0001
0010
0100
0000
1000
0000
,  // measure 80
0001
1000
0001
1000
0001
0000
1000
0000
0001
0010
0100
0000
1000
0010
0100
0000
,  // measure 81
0001
1000
0001
0000
1000
0001
1000
0000
0001
0010
0100
1000
0001
0100
0010
1000
,  // measure 82
0001
0010
0100
1000
0001
0100
0010
1000
0000
0000
0000
0000
2002
0000
0000
0000
,  // measure 83
0000
0000
0000
0000
,  // measure 84
0000
3003
0000
0000
;

//---------------dance-single - ----------------
#NOTES:
     dance-single:
     :
     Hard:
     9:
     0.650,0.944,0.463,0.124,0.185,513.000,60.000,16.000,0.000,0.000,0.000,0.650,0.944,0.463,0.124,0.185,513.000,60.000,16.000,0.000,0.000,0.000:
0000
0000
0000
0000
,
0000
0000
0000
0000
,
0000
0000
0000
0000
,
0000
0000
0000
0000
,
0011
0000
0000
1100
0000
0000
0000
0000
0001
0000
0000
0000
0010
0000
0000
0000
,
0100
0000
1000
0000
0001
1000
0001
0000
,
2000
3000
0200
0300
0020
0030
0002
0003
2000
3000
0020
0030
0200
0300
0002
0003
,
2000
0000
0002
3003
1000
0001
1000
0001
,
1001
0000
1010
0101
,
0000
0001
0101
0000
0000
0100
0110
0000
,
0010
1010
1000
1100
,
0000
1000
1100
0000
0100
0000
0110
0000
,
0000
0010
0011
0000
0001
0000
0101
0000
,
0000
0100
0101
0000
0000
0100
1100
0000
,
1000
1010
0010
0011
,
0000
0001
0101
0000
0001
0000
1001
0000
,
0000
1000
1001
0000
0001
0100
0001
0100
,
1000
0100
1000
0100
0001
0010
1000
0010
,
0001
0100
1000
0100
0001
0000
0011
0000
,
0000
0001
0011
0000
0110
0000
1100
0000
,
0000
1000
1100
0000
1000
0010
0001
0010
,
1000
0100
0001
0100
1000
1000
0010
0010
,
0100
0100
0001
0001
1001
0000
0001
0010
,
0100
0000
1100
0000
1001
0000
1000
0010
,
0100
0000
0000
0000
0101
0000
0000
0000
0001
0000
0001
0000
1000
0000
0000
0100
,
0000
0000
0001
0000
1000
0000
0010
0000
0001
0000
0001
0000
0100
0000
0000
1000
,
0000
0001
0010
1000
1010
0000
0101
0000
,
0000
0001
0101
0000
0000
0001
0011
0000
,
0010
0110
0100
1100
,
0000
1000
1100
0000
0100
0000
0110
0000
,
0000
0010
0011
0000
0001
0000
0101
0000
,
0000
0001
0101
0000
0000
0100
1100
0000
,
1000
1010
0010
0011
,
0000
0001
0011
0000
0001
0000
1001
0000
,
0000
1000
1001
0000
0001
0010
0100
1000
,
0001
0100
0010
1000
0001
0100
1000
0100
,
0001
0010
1000
0010
0001
0000
0101
0000
,
0000
0001
0101
0000
0100
0000
0110
0000
,
0000
0010
1010
0000
1000
0010
0001
0010
,
1000
0100
0001
0100
1000
0010
0100
0001
,
1000
0100
0010
0001
1001
0000
0001
0010
,
0100
0000
1100
0000
1001
0000
1000
0010
,
0100
0000
0101
0000
0001
0010
0001
0010
,
0001
0010
0001
0000
1000
0010
1000
0010
,
1000
0010
1000
0000
0001
0100
1000
0100
,
0001
0010
1000
0010
0001
0100
0010
1000
,
0000
1000
0001
0000
1000
0010
0100
0001
,
0000
0001
1000
0000
0001
0010
0100
1000
,
0000
1000
0001
0000
1000
1000
0010
0010
,
0100
0100
0001
0001
1000
0100
0010
0001
,
1000
0010
0100
0001
1000
0100
0001
1000
,
0000
1000
0010
0000
0001
0100
1000
0001
,
0000
0001
0010
0000
1000
0100
0001
0100
,
0000
0100
1000
0000
0001
0100
1000
0100
,
0000
0100
0001
0000
1000
0010
0100
0001
,
0000
0001
0100
0000
0001
0010
0100
1000
,
0000
1000
0010
0000
1000
0100
0010
0001
,
1000
0010
0100
0001
1000
0100
0001
0100
,
1000
0000
0010
0000
0001
0000
0010
0000
1000
0000
0000
0010
0000
0000
0100
0000
,
0002
0000
0000
0000
2000
0000
3003
0000
0001
0000
0000
0010
0000
0000
0100
0000
,
2000
0000
0002
3003
0011
0010
0100
1000
,
0001
0010
0100
1000
1100
0100
0010
0001
,
0101
0000
0100
0000
0110
0000
0010
0000
1010
0000
0000
1000
0000
0000
0010
0000
,
0100
0000
0000
0001
0000
0000
0001
0000
1000
0000
0000
1000
0000
0000
0001
0000
,
0010
0000
0000
0100
0000
0000
1000
0000
0001
0000
0000
0000
0010
0000
0000
0000
,
0100
0000
1000
0000
0001
0010
0100
1000
,
0001
0000
1000
0000
0001
0000
1000
0000
0001
1000
0001
1000
0001
1000
0001
1000
0001
0000
0100
0000
0001
0000
0000
0000
0100
0000
0010
0000
0100
0000
0000
0000
,
0010
1000
0010
0000
1000
0000
0001
0000
1000
0010
1000
0000
0010
0100
0010
0000
,
0100
0001
0100
0000
0001
0010
0001
0000
1000
0000
0100
0000
0001
0000
0100
0000
,
1000
0000
0001
0000
0100
0000
0001
0000
0010
0000
0001
0100
0001
0000
0100
0000
,
0000
0000
0010
0000
1000
0000
0100
0000
1000
0000
0010
1000
0010
0000
1000
0000
,
0000
0000
0100
0000
0001
0000
0100
0000
1000
0000
0100
0001
0100
0000
1000
0000
,
0000
0000
0010
0000
0001
0000
0010
0000
1000
0100
0000
0000
0100
0001
0000
0000
,
0001
0100
0000
0000
0100
1000
0000
0000
1000
0010
0000
0000
0010
0100
0000
0000
,
0100
0001
0000
0000
0001
1000
0000
0000
0001
0000
0100
1000
0100
0000
0001
0000
,
0010
1000
0010
0000
0001
0000
0010
0000
0100
0000
1000
0010
1000
0000
0001
0000
,
1000
0000
0001
0000
1000
0000
0001
0000
1000
0000
0100
0001
0100
0000
1000
0000
,
0010
0001
0010
0000
1000
0000
0010
0000
0100
0000
0001
0010
0001
0000
1000
0000
,
0001
0000
1000
0000
0001
0000
1000
0000
0001
0000
0100
1000
0100
0000
0001
0000
,
0010
1000
0010
0000
0001
0000
0010
0000
0100
0000
1000
0010
1000
0000
0001
0000
,
1000
0000
0001
0000
1000
0000
0001
0000
1000
0001
0000
0000
0001
0010
0000
0000
,
0010
0100
0000
0000
0100
1000
0000
0000
1000
0000
0100
0000
0010
0000
0001
0000
,
1000
0010
0100
0001
0000
0000
2002
0000
,
0000
0000
0000
0000
,
0000
3003
0000
0000
;

//---------------dance-single - ----------------
#NOTES:
     dance-single:
     :
     Medium:
     6:
     0.385,0.521,0.402,0.015,0.008,295.000,52.000,2.000,0.000,0.000,0.000,0.385,0.521,0.402,0.015,0.008,295.000,52.000,2.000,0.000,0.000,0.000:
0000
0000
0000
0000
,
0000
0000
0000
0000
,
0000
0000
0000
0000
,
0000
0000
0000
0000
,
1001
0000
0001
0010
,
0100
1000
0001
0010
,
0100
1000
0010
0100
0001
0010
0100
1000
,
0001
0010
0100
1000
,
1001
0000
1010
0000
,
0000
0000
0110
0000
,
0110
0000
0101
0000
,
0000
0000
0011
0000
,
0011
0000
0110
0000
,
0000
0000
1100
0000
,
1100
0000
1010
0000
,
0000
0000
0110
0000
,
0101
0000
0000
0000
0001
0010
0100
0000
,
1000
0010
0100
0000
0001
0010
1000
0010
,
0001
0010
1000
0010
0001
0000
0000
0000
,
0000
0000
1010
0000
,
0101
0000
0000
0000
1000
0100
0001
0000
,
1000
0100
0001
0000
1000
0100
0001
0100
,
1000
0100
0001
0100
1000
0000
0000
0000
,
0110
0000
0001
0000
,
0110
0000
1000
0000
,
0001
1000
0001
0000
,
1000
0001
1001
0001
,
1001
1000
0010
0100
,
0001
1000
1100
0100
,
0110
0010
0001
0100
,
0010
1000
1100
0100
,
0110
0010
0011
0001
,
0101
0100
0110
0010
,
1010
1000
1100
0110
,
0011
1001
0001
0100
,
0001
0100
0010
1000
,
0010
1000
1001
0000
,
0000
0000
1001
0000
,
0000
0000
0000
0000
0001
0010
0001
0000
,
0010
0100
0010
0000
0100
1000
0100
1000
,
0100
1000
0100
1000
0010
0000
0000
0000
,
0100
0000
0001
0000
,
1000
0000
0000
0000
0001
0010
0001
0010
,
0001
0000
0000
0000
0010
0100
0010
0100
,
0010
0000
0000
0000
0100
1000
0100
1000
,
0100
1000
0100
0000
1000
0000
0000
0000
,
0000
0000
0010
0000
,
0000
0000
0100
0000
,
0000
0000
0001
1000
,
0001
1000
0001
1000
,
0001
0000
1000
0000
0010
1000
0010
1000
,
0000
0010
1000
0000
0001
0100
0001
0100
,
0000
0001
0100
0000
0010
0100
0010
0100
,
0000
0010
0100
0000
0010
1000
0010
1000
,
0000
0010
1000
0000
0001
1000
0001
1000
,
0000
0001
1000
0000
0001
1000
0001
1000
,
0000
0001
1000
0000
0001
0000
1000
0000
,
0010
0100
0001
1000
,
0100
0000
0000
0000
0010
0000
0000
0000
0001
0000
0000
1000
0000
0000
0001
0000
,
1000
0000
0000
0000
0001
0000
0000
0000
1000
0000
0000
0001
0000
0000
1000
0000
,
0001
1000
0010
0100
,
0001
1000
0010
0100
,
0001
0010
0100
0000
,
1000
0000
0010
0000
,
0100
0000
0001
1000
,
0001
0000
1000
0000
0001
1000
0001
1000
,
0001
1000
0001
1000
1001
0000
0101
0000
,
0110
0110
1010
1100
,
0110
0110
0001
0100
,
0010
0000
1000
0000
1001
0000
0000
1001
,
0000
0000
1001
0000
1010
0000
0000
1010
,
0000
0000
1010
0000
0110
0000
0000
0110
,
0000
0110
0100
0001
,
0010
0100
1000
0010
,
0100
0001
1000
0001
,
0000
1000
0001
1000
,
0000
0001
1000
0001
,
0000
1000
0001
1000
,
0000
0001
1000
0001
,
0000
1000
0001
1000
,
0000
0001
1000
1000
,
0001
0001
1000
0010
,
0100
0001
0000
2002
,
0000
0000
0000
0000
,
0000
3003
0000
0000
;

//---------------dance-single - ----------------
#NOTES:
     dance-single:
     :
     Easy:
     4:
     0.289,0.455,0.533,0.015,0.000,191.000,69.000,2.000,0.000,0.000,0.000,0.289,0.455,0.533,0.015,0.000,191.000,69.000,2.000,0.000,0.000,0.000:
0000
0000
0000
0000
,
0000
0000
0000
0000
,
0000
0000
0000
0000
,
0000
0000
0000
0000
,
0001
0000
1000
0010
,
0100
0001
1000
0000
,
0001
0010
0100
1000
,
0001
0000
1000
0000
,
1001
0000
0001
0000
,
0001
0000
1000
0000
,
1000
0000
1001
0000
,
1001
0000
1001
0000
,
1001
0000
1000
0000
,
1000
0000
0001
0000
,
0001
0000
1001
0000
,
0110
0000
1001
0000
,
0110
0000
0010
0000
,
0100
0000
0010
0000
,
0100
0000
0110
0000
,
0000
0000
1001
0000
,
0000
0000
0001
0000
,
1000
0000
0001
0000
,
1000
0000
1001
0000
,
0000
0000
0110
0000
,
0000
0000
1001
0000
,
0000
0000
0001
0000
,
0000
0000
1000
0000
,
0001
0000
1000
0001
,
1000
0000
0001
0000
,
1000
0000
0001
1000
,
0001
0000
1000
0000
,
0010
0000
1000
0010
,
1000
0000
0001
0000
,
0100
0000
0001
0100
,
0001
0000
0001
0010
,
0100
1000
0001
0010
,
0100
1000
0001
0000
,
1000
0000
0001
0000
,
1000
0000
0001
1000
,
0001
1000
0001
1000
,
0001
1000
0001
0000
,
1001
0000
1000
0000
,
1001
0000
0001
0001
,
0001
0000
1000
1000
,
1000
0000
0010
0100
,
0010
0100
0110
0000
,
0000
0000
1001
0000
,
0000
0000
0110
0000
,
0000
0000
0001
1000
,
0010
0100
0001
0010
,
0100
1000
0001
0000
,
0001
0000
1000
0000
,
1000
0000
0001
0000
,
0001
0000
1000
0001
,
1000
0000
0001
1000
,
0001
1000
1000
1000
,
1000
1000
0001
1000
,
0001
1000
0001
1000
,
0001
1000
1001
0000
,
0000
0000
1001
0000
,
0000
0000
1001
0000
,
0000
0000
1001
0000
,
1001
1001
1001
0000
,
0000
0000
1001
0000
,
0000
0000
1001
1001
,
1001
0000
1001
0000
0001
0010
0100
1000
,
0001
0010
0100
1000
1001
0000
1001
0000
,
1001
0000
0110
0110
,
0110
0000
1001
1001
,
1001
1001
0011
0000
,
0000
0000
1100
0000
,
0000
0000
1010
0000
,
0000
0000
0101
0000
,
0011
0000
1001
0000
,
1010
0000
1100
0000
,
1010
0000
1100
1010
,
1100
0000
0011
0000
,
0101
0000
0011
0101
,
0011
0000
0011
0000
,
1100
0000
0011
1100
,
0011
0000
1010
0000
,
0101
0000
1010
0101
,
1010
0000
0000
2002
,
0000
0000
0000
0000
,
0000
3003
0000
0000
;

//---------------dance-single - ----------------
#NOTES:
     dance-single:
     :
     Beginner:
     2:
     0.200,0.260,0.363,0.015,0.000,132.000,47.000,2.000,0.000,0.000,0.000,0.200,0.260,0.363,0.015,0.000,132.000,47.000,2.000,0.000,0.000,0.000:
0000
0000
0000
0000
,
0000
0000
0000
0000
,
0000
0000
0000
0000
,
0000
0000
0000
0000
,
0001
0000
1000
0000
,
0001
0000
1000
0000
,
0001
0000
0010
0000
,
0100
0000
1000
0000
,
1001
0000
0001
0000
,
0000
0000
0001
0000
,
0000
0000
1000
0000
,
0000
0000
1000
0000
,
0000
0000
0010
0000
,
0000
0000
0010
0000
,
0000
0000
0100
0000
,
0000
0000
0100
0000
,
0000
0000
0001
0000
,
0001
0000
0001
0000
,
0000
0000
1000
0000
,
0000
0000
1000
0000
,
0000
0000
1000
0000
,
1000
0000
1000
0000
,
1000
0000
0010
0000
,
0000
0000
0100
0000
,
0000
0000
0001
0000
,
0000
0000
1000
0000
,
0000
0000
0001
0000
,
0001
0000
0001
0000
,
0001
0000
1000
0000
,
1000
0000
1000
0000
,
1000
0000
0010
0000
,
0010
0000
0010
0000
,
0010
0000
0100
0000
,
0100
0000
0100
0000
,
0100
0000
0001
0000
,
1000
0000
0001
0000
,
1000
0000
1001
0000
,
0000
0000
1001
0000
,
0000
0000
0001
0000
,
0000
0000
0001
0000
,
0000
0000
1001
0000
,
0000
0000
1001
0000
,
0000
0000
1000
0000
,
0000
0000
1000
0000
,
0000
0000
1000
0000
,
0000
0000
1001
0000
,
0000
0000
1001
0000
,
0000
0000
1001
0000
,
0000
0000
1001
0000
,
0110
0000
1001
0000
,
0110
0000
1001
0000
,
0001
0000
1001
0000
,
0001
0000
1001
0000
,
1000
0000
1001
0000
,
1000
0000
0110
0000
,
0010
0000
0110
0000
,
0010
0000
0110
0000
,
0100
0000
0110
0000
,
0100
0000
1001
0000
,
0000
0000
1001
0000
,
0000
0000
1001
0000
,
0000
0000
1001
0000
,
1001
0000
1001
0000
,
0000
0000
1001
0000
,
0000
0000
0001
0000
,
1000
0000
0001
0000
,
1000
0001
1000
0001
,
1000
0000
0001
1000
,
0001
0000
1000
0001
,
1000
0001
1001
0000
,
0000
0000
1001
0000
,
0000
0000
1001
0000
,
0000
0000
0001
0010
,
0100
1000
0001
0010
,
0100
1000
1001
0000
,
1001
0000
0110
0000
,
0110
0000
1001
0000
,
1001
0000
0110
0000
,
0110
0000
1001
0000
,
1001
0000
0110
0000
,
0110
0000
1001
0000
,
0110
0000
1001
0000
,
0110
0000
0000
2002
,
0000
0000
0000
0000
,
0000
3003
0000
0000
;
