#TITLE:Andei;
#SUBTITLE:;
#ARTIST:Lurdez da Luz;
#TITLETRANSLIT:;
#SUBTITLETRANSLIT:;
#ARTISTTRANSLIT:;
#GENRE:;
#CREDIT:;
#BANNER:[ROUND 10] - Andei.png;
#BACKGROUND:[ROUND 10] - Andei-bg.png;
#LYRICSPATH:;
#CDTITLE:;
#MUSIC:[ROUND 10] - Andei.mp3;
#OFFSET:-1.046;
#SAMPLESTART:18.216;
#SAMPLELENGTH:12.245;
#SELECTABLE:YES;
#BPMS:0.000=98.000
;
#STOPS:
;
#BGCHANGES:;
#KEYSOUNDS:;
#ATTACKS:;

//---------------dance-single - ----------------
#NOTES:
     dance-single:
     :
     Hard:
     8:
     0.435,0.471,0.056,0.047,0.309,314.000,6.000,5.000,0.000,0.000,0.000,0.435,0.471,0.056,0.047,0.309,314.000,6.000,5.000,0.000,0.000,0.000: // measure 0
0000
0000
0000
0000
,  // measure 1
0000
0000
0000
0000
,  // measure 2
1000
0010
0100
0010
1000
0000
0001
0000
,  // measure 3
1000
0000
0000
0001
0010
0001
0010
0001
0010
0000
0000
0001
0010
0000
0001
0000
,  // measure 4
0010
0000
0000
0100
0010
0100
0010
0100
0010
0000
0000
0100
1000
0000
0100
0000
,  // measure 5
1000
0000
0000
0010
0100
0000
0010
0000
0100
0000
0000
0001
0100
0000
0001
0000
,  // measure 6
0100
0000
0000
0010
1000
0000
0010
0000
1000
0000
0000
0001
1000
0000
0001
0000
,  // measure 7
1000
0010
0001
1000
0100
0000
0001
0000
,  // measure 8
0010
0001
0100
0010
0001
0000
1000
0100
,  // measure 9
0001
0100
0010
0001
1000
0000
0100
0001
,  // measure 10
1000
0100
0010
1000
0001
0000
0100
1000
,  // measure 11
0002
0000
0010
0000
0010
0010
0013
0000
,  // measure 12
0001
0000
0010
0000
0100
0000
1000
0000
0001
0000
0000
0000
0101
0000
0000
0001
,  // measure 13
0100
0000
0010
0000
1000
0000
0001
0000
0100
0000
0000
0000
1010
0000
0000
1000
,  // measure 14
0001
0000
0100
0000
0001
0000
0010
0000
0100
0000
0000
0000
1001
0000
0000
0001
,  // measure 15
0010
0100
1000
0001
1000
0000
0110
0000
,  // measure 16
2000
3100
0020
0130
,  // measure 17
2000
0000
0000
0000
3010
0000
0000
0000
0200
0000
0000
0000
0301
0000
0000
1000
,  // measure 18
0010
0000
0000
0010
0100
0000
0000
0100
0001
0000
0000
0001
0010
0000
0000
0010
,  // measure 19
0001
0000
0000
0001
0100
0000
0000
0100
0010
0000
0000
0010
1000
0000
0000
1000
,  // measure 20
0010
0000
0000
0010
1000
0000
0000
1000
0001
0000
0000
0001
0010
0000
0000
0010
,  // measure 21
0100
0000
0000
0100
0010
0000
0000
0010
0001
0000
0000
0001
1000
0000
0000
0001
,  // measure 22
1000
0000
0001
0100
0001
0000
0100
0010
,  // measure 23
1000
0000
0010
0100
0001
0000
0010
0100
,  // measure 24
1000
0000
0100
0010
0001
0000
0100
0001
,  // measure 25
0100
0000
0010
1000
0010
0000
0100
0010
,  // measure 26
1000
0000
0000
0001
1000
0000
0001
0000
0010
0000
0000
0100
0010
0000
0100
0000
,  // measure 27
0010
0000
0000
0001
0010
0000
0001
0000
0100
0000
0000
0010
0100
0000
0010
0000
,  // measure 28
1000
0000
0000
0010
1000
0000
0010
0000
1000
0000
0000
0001
1000
0000
0001
0000
,  // measure 29
1000
0000
0000
0001
0010
0000
0001
0000
0100
0000
0000
0010
0100
0000
0010
0000
,  // measure 30
1000
0000
0000
0001
1000
0000
0001
0010
0001
0010
0001
0000
0010
0000
0001
0010
,  // measure 31
0001
1001
1000
1001
,  // measure 32
1000
0001
0010
1000
0001
0100
1000
0010
,  // measure 33
0100
0010
1000
0100
0001
0100
0010
0001
,  // measure 34
1000
0010
0001
1000
0100
0001
0100
0000
,  // measure 35
0001
0000
0010
0000
1000
0000
0001
0000
0100
0000
1000
0000
0100
0000
1000
0010
,  // measure 36
1000
0000
0010
0001
0010
0000
0001
1000
0001
0000
1000
0100
1000
0000
0100
0001
,  // measure 37
0100
0000
0001
0010
0001
0000
0010
0100
1000
0000
0001
0100
0010
0000
1000
0010
,  // measure 38
1000
0000
0010
0001
0010
0000
0001
1000
0001
0000
1000
0100
1000
0000
0100
0001
,  // measure 39
0100
0000
0001
1000
0001
0000
1000
0001
1000
0000
0001
0000
0100
0000
0001
0010
,  // measure 40
0001
0000
0010
1000
0010
0000
1000
0001
1000
0000
0001
0100
0001
0000
0100
1000
,  // measure 41
0100
0000
1000
0001
1000
0000
0001
0010
1000
0000
0001
0000
0100
0000
1000
0000
;

//---------------dance-single - ----------------
#NOTES:
     dance-single:
     :
     Medium:
     5:
     0.298,0.275,0.150,0.047,0.000,202.000,16.000,5.000,0.000,0.000,0.000,0.298,0.275,0.150,0.047,0.000,202.000,16.000,5.000,0.000,0.000,0.000:
0000
0000
0000
0000
,
0000
0000
0000
0000
,
1000
0010
0110
0110
,
0100
0000
0010
1000
0010
0000
1000
0000
,
0001
0000
0010
0001
0010
0000
0001
0000
,
0101
0000
0100
0010
0100
0000
0010
0000
,
1000
0100
0010
0011
,
1100
0000
1000
0000
0010
0000
0100
0100
,
0100
0000
0010
0000
1000
0000
0001
0001
,
0001
0000
0010
0000
0001
0000
0100
0100
,
0100
0000
0010
0010
0010
0000
1000
1000
,
1000
0001
0100
0110
,
0001
0010
1000
0001
,
0100
1000
0001
0100
,
1000
0100
0001
1000
,
0010
0001
1000
0100
,
0001
0011
0100
1100
,
0010
0110
0010
1010
,
1000
0001
1000
0001
1000
0001
1000
0000
,
0100
0010
0100
0010
0100
0010
0100
0000
,
0010
0001
0010
0001
0010
0001
0010
0000
,
0100
1000
0100
1000
0100
1000
0100
0000
,
1100
0000
1000
0100
1000
0000
0010
0000
,
0110
0000
0100
0001
0100
0000
0001
0000
,
0011
0000
0100
1000
0100
0000
1000
0000
,
1001
0000
1000
0010
0100
0000
0010
0000
,
1010
0000
1000
0010
1000
0000
0010
0100
,
0010
0000
0100
0001
0100
0000
0001
0000
,
1001
0000
0001
0010
0001
0000
0010
0100
,
0010
0000
0100
1000
0100
0000
1000
0001
,
2000
0001
0001
3001
,
0002
0203
0320
2030
,
3010
0000
0100
0010
1000
0000
0010
0000
,
1000
0000
0001
0010
1000
0000
0001
0000
,
0100
0000
1000
0010
0001
0000
1000
0000
,
0100
0000
0001
0010
0100
0000
1000
0010
,
0100
0000
0010
0000
1000
0000
0010
1000
,
0010
0000
1000
0000
0001
0000
0010
0001
,
0010
0000
0100
0000
1000
0000
0100
1000
,
0100
0000
1000
0000
0001
0000
1000
0001
,
1000
0010
0001
1000
,
0001
0000
0010
0000
1000
0001
1000
0001
;

//---------------dance-single - ----------------
#NOTES:
     dance-single:
     :
     Easy:
     3:
     0.221,0.255,0.009,0.244,0.000,138.000,1.000,26.000,0.000,0.000,0.000,0.221,0.255,0.009,0.244,0.000,138.000,1.000,26.000,0.000,0.000,0.000:
0000
0000
0000
0000
,
0000
0000
0000
0000
,
1000
0010
0100
0001
,
1000
0000
0001
0001
,
0001
0000
0010
0000
,
0010
0000
0100
0100
,
0100
0000
1000
0000
,
0001
0000
1000
0001
,
1000
0000
0010
1000
,
0010
0000
0100
0010
,
0100
0000
0001
0000
,
1000
0000
0001
0000
,
1000
0001
0010
0001
,
0100
0010
1000
0010
,
1000
0100
0010
0100
,
0010
0001
1000
0001
,
2000
3010
0020
0031
,
0002
1003
2000
3100
,
0200
0301
0002
0013
,
0020
1030
2000
3001
,
0002
0103
0200
1300
,
2000
3020
0230
0301
,
2000
0000
0001
0001
,
3002
0000
0010
0000
,
0023
0000
0100
0100
,
0230
0000
1000
0000
,
1300
0010
0100
0010
,
1000
0001
0010
0100
,
0010
0001
0100
0010
,
0001
0010
1000
0001
,
2002
0000
0000
3003
,
2000
3002
2003
3002
,
1003
0010
0100
0010
,
1000
0100
0010
0001
,
0010
0100
1000
0010
,
1000
0001
1000
0001
,
0100
0100
0010
0010
,
1000
1000
0001
0001
,
0010
0010
0100
0100
,
1000
1000
0001
0002
,
1003
1000
0010
0010
,
0100
0000
0100
0000
0002
0000
2000
3003
;

//---------------dance-single - ----------------
#NOTES:
     dance-single:
     :
     Beginner:
     1:
     0.071,0.097,0.000,0.000,0.000,53.000,0.000,0.000,0.000,0.000,0.000,0.071,0.097,0.000,0.000,0.000,53.000,0.000,0.000,0.000,0.000,0.000:
0000
0000
0000
0000
,
0000
0000
0000
0000
,
0000
0000
0000
0000
,
1000
0000
0000
0000
,
0000
0000
0000
0000
,
0010
0000
0000
0000
,
0000
0000
0000
0000
,
0100
0000
0100
0000
,
0001
0000
0001
0000
,
1000
0000
1000
0000
,
0010
0000
0010
0000
,
1000
0000
0000
0000
,
0001
0000
0000
0000
,
1000
0000
0000
0000
,
0001
0000
0000
0000
,
1000
0000
0000
0000
,
0001
0000
0000
0000
,
1000
0000
0000
0000
,
0010
0000
0010
0000
,
0100
0000
0100
0000
,
0010
0000
0100
0000
,
0010
0000
0100
0000
,
0010
0000
0000
0000
,
0000
0000
0000
0000
,
1000
0000
0000
0000
,
0000
0000
0000
0000
,
0001
0000
0000
0000
,
1000
0000
0000
0000
,
0001
0000
0000
0000
,
1000
0000
0010
0000
,
0100
0000
0000
0000
,
0010
0010
0010
0010
,
0010
0000
0000
0000
,
1000
0000
0000
0000
,
0001
0000
0000
0000
,
0010
0000
0000
0000
,
0001
0000
0001
0000
,
1000
0000
1000
0000
,
0010
0000
0010
0000
,
0100
0000
0100
0000
,
0010
0000
0010
0000
,
1000
0000
1000
0000
;
