#VERSION:0.81;
#TITLE:Who's That Chick?;
#SUBTITLE:;
#ARTIST:David Guetta ft. Rihanna;
#TITLETRANSLIT:;
#SUBTITLETRANSLIT:;
#ARTISTTRANSLIT:;
#GENRE:;
#ORIGIN:;
#CREDIT:;
#BANNER:chick-banner.png;
#BACKGROUND:chick-bg.png;
#PREVIEWVID:;
#JACKET:chick-jacket.png;
#CDIMAGE:;
#DISCIMAGE:;
#LYRICSPATH:;
#CDTITLE:;
#MUSIC:[ROUND 1] - Who's That Chick.ogg;
#OFFSET:-0.061;
#SAMPLESTART:37.563;
#SAMPLELENGTH:16.875;
#SELECTABLE:YES;
#DISPLAYBPM:128.000;
#BPMS:0.000=128.000;
#STOPS:7.000=0.471;
#DELAYS:;
#WARPS:;
#TIMESIGNATURES:0.000=4=4,
4.000=3=4,
7.000=4=4;
#TICKCOUNTS:0.000=4;
#COMBOS:0.000=1;
#SPEEDS:0.000=1.000=0.000=0;
#SCROLLS:0.000=1.000;
#FAKES:;
#LABELS:0.000=Song Start;
#LASTSECONDHINT:3.342;
#BGCHANGES:;
#KEYSOUNDS:;
#ATTACKS:
;

//---------------dance-single - ----------------
#NOTEDATA:;
#CHARTNAME:;
#STEPSTYPE:dance-single;
#DESCRIPTION:;
#CHARTSTYLE:;
#DIFFICULTY:Hard;
#METER:8;
#RADARVALUES:0.567,0.495,0.170,0.636,0.195,373.000,20.000,75.000,0.000,0.000,0.000,0.000,0.000,0.567,0.495,0.170,0.636,0.195,373.000,20.000,75.000,0.000,0.000,0.000,0.000,0.000;
#CREDIT:;
#DISPLAYBPM:128.000;
#NOTES:
0000
0000
0000
0000
,
0000
0000
0000
0000
,
0000
0000
0000
0000
,
0000
0000
0000
2000
,
3020
0000
0130
0001
0200
0000
0302
0000
,
0013
0001
1000
0100
1000
0000
1020
0000
,
1030
0201
0301
2000
,
3010
0100
0001
0000
1001
0001
0101
0000
,
0100
0010
1000
0100
0020
0000
0230
0000
,
1300
0010
0100
0010
1000
0000
1010
0000
,
1001
0101
0110
0010
,
0100
0000
0010
0000
1000
0000
0010
0000
0100
0000
0001
0000
2000
0000
0000
3020
,
0000
0000
0230
0000
0000
0000
0001
0000
0301
0000
0001
0000
2000
0000
0000
3200
,
0000
0000
0310
0000
0001
0000
0100
0000
0010
0000
0100
0000
0002
0000
0000
0203
,
0000
0000
0320
0000
0000
0000
0100
0000
0130
0000
0100
0000
0020
0000
0000
2030
,
0000
0000
3001
0000
0100
0000
0001
0000
1000
0000
0010
0000
2000
0000
0000
3020
,
0000
0000
0230
0000
0000
0000
0301
0000
0001
0000
0001
0000
2000
0000
0000
3020
,
0000
0130
0010
1000
0100
0010
0200
0000
,
2300
0000
3020
0000
0130
0010
0100
0100
,
0001
1000
1000
0000
1001
0001
0101
0100
,
0110
0000
0010
0000
1000
0000
0100
1000
0000
0100
0000
0000
1100
0000
1000
0000
,
1001
0000
0001
0000
1000
0000
0010
0100
0000
0010
0000
0000
0200
0000
0000
0000
,
0302
0000
0103
0010
1000
0100
2000
0000
,
3002
0000
0000
0000
0203
0000
0000
0000
0310
0100
0010
0100
0010
0000
1000
0000
,
0100
0000
0010
0000
0100
0000
1000
0010
0000
0100
0000
0000
0010
0000
1000
0000
,
0010
0000
0100
0000
0001
0000
0010
0001
0000
0100
0000
0000
0020
0000
0000
0000
,
2030
0000
3200
0000
1300
0100
0020
0000
,
0032
0000
2003
0000
3001
1000
0010
0100
,
0010
1000
0020
0000
0130
0000
0001
0010
,
0100
1000
0010
0100
0010
1000
0020
0000
,
1030
0100
0020
0000
0230
0000
1300
0010
,
0100
0010
1000
0010
0200
0000
0302
0000
,
0013
0001
0100
0001
0200
0000
0310
1000
,
0010
0100
0020
0000
2030
0000
3020
0000
,
0130
0010
0100
0001
0010
0100
1000
1000
,
0010
0100
0001
0010
0200
0000
0310
0001
,
1000
0001
0100
0010
1000
0100
1000
0010
,
0100
0000
0010
0000
1000
0000
0001
0000
0100
0000
0001
0000
2000
0000
0000
3020
,
0000
0000
0230
0000
0000
0000
0301
0000
0010
0000
0001
0000
0200
0000
0000
0320
,
0000
0000
1030
0000
0100
0000
0001
0000
0100
0000
1000
0000
0020
0000
0000
0230
,
0000
0000
0320
0000
0000
0000
1030
0000
0010
0000
0100
0000
0002
0000
0000
0023
,
0000
0000
0031
0000
0100
0000
0010
0000
1000
0000
0010
0000
0200
0000
0000
0302
,
0000
0000
0023
0000
0000
0000
0031
0000
0100
0000
0001
0000
0020
0000
0000
0230
,
0000
1300
0010
0100
0010
1000
1001
0000
,
1100
0000
0110
0010
0011
0001
1000
0010
,
0100
0010
1000
0000
1001
0000
0001
0010
,
0001
0000
0100
0000
0001
0000
1000
0010
0000
0100
0000
0000
0010
0000
1000
0000
,
0100
0000
0001
0000
0100
0000
1000
0010
0000
0100
0000
0000
0010
0100
0000
0000
,
0100
0001
0000
0000
0001
0000
1000
0000
0100
0000
1000
0000
0001
1000
0000
0000
,
1000
0100
0000
0000
1000
0000
0010
0000
0100
0001
0100
0000
0010
0000
1000
0000
,
0010
0000
0100
0000
0010
0000
1000
0100
0000
0010
0000
0000
0100
0000
1000
0000
,
0010
0000
0100
0000
0001
0000
0010
0001
0000
0100
0000
0000
0010
0100
0000
0000
,
0100
0001
0000
0000
0001
0000
0010
0000
0100
0000
1000
0000
0100
1000
0000
0000
,
1000
0010
0000
0000
0010
0100
0000
0000
0010
0000
0100
0000
0010
0000
0000
1000
,
0000
0000
0100
0000
0000
0000
0010
0000
0100
0000
1000
0000
0010
0000
0000
0100
,
0000
0001
0200
0000
0302
0000
0023
0000
,
0230
1300
1010
0020
,
0230
0000
0000
0000
0301
0000
0000
0000
0101
0000
0000
0000
0100
0000
0000
0010
,
0000
0000
0100
0000
0000
0000
0001
0000
0010
0000
0100
0000
1000
0000
0000
0100
,
0000
0000
1000
0000
0020
0000
0000
0000
0230
0000
0000
0000
0310
0000
0000
1000
,
0000
0000
0100
0000
0010
0000
0000
0000
0200
0000
0000
0000
2300
0000
0000
0010
,
3000
0100
0002
0000
0003
0000
0000
0000
;

//---------------dance-single - ----------------
#NOTEDATA:;
#CHARTNAME:;
#STEPSTYPE:dance-single;
#DESCRIPTION:;
#CHARTSTYLE:;
#DIFFICULTY:Medium;
#METER:5;
#RADARVALUES:0.356,0.339,0.076,0.076,0.034,276.000,9.000,9.000,0.000,0.000,0.000,0.000,0.000,0.356,0.339,0.076,0.076,0.034,276.000,9.000,9.000,0.000,0.000,0.000,0.000,0.000;
#CREDIT:;
#DISPLAYBPM:128.000;
#NOTES:
0000
0000
0000
0000
,
0000
0000
0000
0000
,
0000
0000
0000
0000
,
0000
0000
0000
1000
,
1000
0000
0010
0100
0010
0000
0100
0000
,
0100
0000
0001
0100
0001
0000
0010
0000
,
0010
0100
0100
1000
,
1000
1001
1001
0001
,
0100
0000
0010
0100
0010
0000
0100
0000
,
0010
0000
1000
0010
1000
0000
0100
0000
,
0100
1000
1000
0010
,
0100
0000
0010
0100
0010
0000
1000
0000
,
0100
0000
0010
0000
0001
0010
0001
0000
,
0100
0000
0010
0000
1000
0010
1000
0000
,
0010
0000
0100
0000
0001
0100
0001
0000
,
0010
0000
0001
0010
0001
0000
1000
0000
,
0001
0000
0100
0000
0010
0100
0010
0000
,
1000
0000
0100
0000
0010
0100
0010
0000
,
0001
0100
0010
1000
,
0010
1000
0001
0000
1000
0000
0002
0000
,
0100
0010
0103
0020
,
1000
0000
1000
0000
0100
0030
0100
0000
,
0001
0000
0010
0000
0100
1000
0001
0000
,
0010
0000
0001
0000
0100
0010
1000
0000
,
0001
0000
0100
0000
0001
0000
0100
0010
,
1000
0010
0100
0000
0010
0000
1000
0000
,
0100
0000
0010
0000
0001
0000
0100
0010
,
0100
0010
1000
0000
0010
0100
0001
0000
,
1000
0200
0310
0001
,
0100
0020
0130
0010
,
1000
0100
1000
0010
,
0100
0000
0010
0100
0010
0000
0100
0000
,
0001
0000
0010
0001
0010
0000
0001
0000
,
1000
1100
1100
1000
,
0010
0000
0100
0000
0001
0000
0100
0001
,
0100
0001
1000
0010
,
0100
0000
0001
0100
0001
0000
0100
0000
,
0010
0000
1000
0010
1000
0000
0001
0000
,
1000
0000
0010
0000
0100
0010
0100
0000
,
0001
0000
0010
0000
0100
0010
0100
0000
,
1000
0000
0010
0000
0100
0010
0100
0000
,
0010
0000
1000
0000
0001
1000
0001
0000
,
0100
0000
0010
0000
1000
0010
1000
0000
,
0100
0000
0010
0000
0001
0010
0001
0000
,
0100
0000
0010
0000
1000
0010
1000
0000
,
0001
1000
0001
0000
1001
0000
1000
0000
,
0010
0000
0000
0000
0100
0000
0000
0001
0000
0100
0000
0000
0001
0000
0000
0000
,
0010
0000
0000
0000
0100
0000
0000
1000
0000
0100
0000
0000
1000
0000
0000
0000
,
0010
0000
0100
0000
0010
0100
0010
0000
,
0100
0000
0001
0000
1000
0001
1000
0000
,
0010
0000
0000
0000
0100
0000
0000
0010
0000
0100
0000
0000
0010
0000
0000
0000
,
1000
0000
0000
0000
0100
0000
0000
1000
0000
0010
0000
0000
1000
0000
0000
0000
,
0001
0000
0100
0000
0010
0100
0010
0000
,
0100
0000
0001
0000
0100
0001
0100
0000
,
0010
0000
1000
0000
0010
1000
0100
0000
,
0010
0001
0010
0000
0001
0000
0100
0000
,
0010
0210
0310
1000
,
0001
0000
2001
0000
3001
1000
0001
0000
,
0100
0000
0010
0000
1000
0010
1000
0000
,
0100
0010
0100
0000
0010
0000
0001
0000
,
0100
0102
0103
0010
,
1000
2002
3003
0000
;

//---------------dance-single - ----------------
#NOTEDATA:;
#CHARTNAME:;
#STEPSTYPE:dance-single;
#DESCRIPTION:;
#CHARTSTYLE:;
#DIFFICULTY:Easy;
#METER:3;
#RADARVALUES:0.243,0.338,0.110,0.000,0.000,188.000,13.000,0.000,0.000,0.000,0.000,0.000,0.000,0.243,0.338,0.110,0.000,0.000,188.000,13.000,0.000,0.000,0.000,0.000,0.000,0.000;
#CREDIT:;
#DISPLAYBPM:128.000;
#NOTES:
0000
0000
0000
0000
,
0000
0000
0000
0000
,
0000
0000
0000
0000
,
0000
0000
0000
1000
,
0010
0100
0010
0100
,
0001
0010
0001
0010
,
0100
1000
1000
0010
,
0100
0001
0001
0100
,
0010
1000
0010
1000
,
0001
0010
0001
1001
,
1001
0110
0110
1001
,
0110
0001
1000
0001
,
0100
0010
1000
0010
,
0100
0001
0001
0010
,
0100
1000
0010
0100
,
0001
1000
1000
0010
,
0100
0001
0010
0100
,
1000
0010
0010
0100
,
0100
0001
0001
1000
,
0001
1001
0000
1000
,
1000
0010
0010
0100
,
0100
0100
0100
0001
,
0001
0001
0000
1000
,
1000
1000
0000
0010
,
0000
0010
0000
0100
,
0000
0100
0000
0001
,
0001
0001
0000
1000
,
1000
1000
0000
0010
,
0100
0001
0010
0001
,
0100
0010
1000
0010
,
0010
0100
0100
0001
,
0100
0010
1000
0001
,
0001
0100
0100
0001
,
0001
0010
0010
0100
,
0010
0100
1000
0010
,
1000
0010
0100
0001
,
0001
1000
1000
0001
,
0100
0010
0000
0100
,
0000
0100
0000
0001
,
0000
0001
0000
1000
,
0000
1000
0000
0010
,
0000
0010
0000
0100
,
0000
0100
0000
0001
,
0000
0001
0000
0110
,
0110
0110
0110
0110
,
0000
1001
0000
1000
,
0000
1000
0000
0001
,
0000
0001
0000
0100
,
0100
0100
0000
0010
,
0010
0010
0000
1000
,
0100
0010
0100
0010
,
0001
0100
0010
0100
,
0010
0100
0000
0001
,
1000
0001
0000
0100
,
0000
0100
0000
0010
,
0000
0010
0000
1000
,
1000
1000
0000
0001
,
0001
0001
0000
0010
,
0000
0001
0000
1000
,
0000
0010
0000
0100
,
0100
0100
0000
0001
,
1000
0001
0000
0000
;

//---------------dance-single - ----------------
#NOTEDATA:;
#CHARTNAME:;
#STEPSTYPE:dance-single;
#DESCRIPTION:;
#CHARTSTYLE:;
#DIFFICULTY:Beginner;
#METER:2;
#RADARVALUES:0.143,0.182,0.025,0.000,0.000,115.000,3.000,0.000,0.000,0.000,0.000,0.000,0.000,0.143,0.182,0.025,0.000,0.000,115.000,3.000,0.000,0.000,0.000,0.000,0.000,0.000;
#CREDIT:;
#DISPLAYBPM:128.000;
#NOTES:
// measure 0
0000
0000
0000
0000
,  // measure 1
0000
0000
0000
0000
,  // measure 2
0000
0000
0000
0000
,  // measure 3
0000
0000
0000
1000
,  // measure 4
0000
1000
0000
0010
,  // measure 5
0000
0010
0000
0100
,  // measure 6
0000
0000
0000
0010
,  // measure 7
0000
0000
0000
0001
,  // measure 8
0000
0001
0000
0100
,  // measure 9
0000
0100
0000
0010
,  // measure 10
0000
0000
0000
1000
,  // measure 11
0000
0000
0000
0001
,  // measure 12
0000
0001
0000
0100
,  // measure 13
0000
0100
0000
0010
,  // measure 14
0000
0010
0000
1000
,  // measure 15
0000
1000
0000
0001
,  // measure 16
0000
0001
0000
1000
,  // measure 17
0000
1000
0000
1001
,  // measure 18
1001
1001
0000
0001
,  // measure 19
0000
0001
0000
0100
,  // measure 20
0000
0100
0000
0010
,  // measure 21
0000
0010
0000
1000
,  // measure 22
1000
1000
0000
0001
,  // measure 23
0001
0001
0000
0100
,  // measure 24
0000
0100
0000
0010
,  // measure 25
0000
0010
0000
1000
,  // measure 26
1000
1000
0000
0100
,  // measure 27
0100
0100
0000
0010
,  // measure 28
0000
0010
0000
0001
,  // measure 29
0000
0001
0000
1000
,  // measure 30
0000
1000
0000
0010
,  // measure 31
0000
0010
0000
0100
,  // measure 32
0100
0100
0000
0010
,  // measure 33
0010
0010
0000
1000
,  // measure 34
0000
0001
0000
0010
,  // measure 35
0010
0010
0000
0001
,  // measure 36
0000
0100
0000
0010
,  // measure 37
0000
0010
0000
1000
,  // measure 38
0000
1000
0000
0001
,  // measure 39
0000
0100
0000
0001
,  // measure 40
0000
0100
0000
0001
,  // measure 41
0000
0100
0000
0010
,  // measure 42
0000
1000
0000
0010
,  // measure 43
0000
1000
0000
0010
,  // measure 44
0000
0010
0000
0100
,  // measure 45
0100
0100
0000
0001
,  // measure 46
0000
0001
0000
1000
,  // measure 47
0000
1000
0000
0010
,  // measure 48
0000
0000
0000
0100
,  // measure 49
0000
0000
0000
0001
,  // measure 50
0000
0001
0000
1000
,  // measure 51
0000
1000
0000
0010
,  // measure 52
0000
0010
0000
0100
,  // measure 53
0000
0100
0000
0001
,  // measure 54
0000
0000
0000
1000
,  // measure 55
0000
1000
0000
1000
,  // measure 56
0000
0000
0000
0010
,  // measure 57
0000
0000
0000
0100
,  // measure 58
0000
0000
0000
0010
,  // measure 59
0000
0010
0000
0100
,  // measure 60
0000
0100
0000
0010
,  // measure 61
0000
0010
0000
0000
;
