#TITLE:ウトゥルサヌ;
#SUBTITLE:;
#ARTIST:オレンジレンジ;
#TITLETRANSLIT:Uturusanu;
#SUBTITLETRANSLIT:;
#ARTISTTRANSLIT:Orange Range;
#GENRE:;
#CREDIT:;
#MENUCOLOR:#58798a;
#METERTYPE:DDR;
#BANNER:[ROUND 1] - Uturusanu.png;
#BACKGROUND:[ROUND 1] - Uturusanu-bg.png;
#LYRICSPATH:;
#CDTITLE:;
#MUSIC:[ROUND 1] - Uturusanu.mp3;
#OFFSET:-0.660;
#SAMPLESTART:32.388;
#SAMPLELENGTH:19.720;
#SELECTABLE:YES;
#LISTSORT:;
#BPMS:0.000=143.000,192.000=214.500,198.000=286.000,324.000=143.000;
#STOPS:;
#BGCHANGES:;
#ATTACKS:;

//---------------dance-single - ----------------
#NOTES:
     dance-single:
     :
     Hard:
     8:
     0.522,0.827,0.443,0.008,0.076: // measure 1
0000
0000
0000
0000
,  // measure 2
0000
0000
0000
0000
,  // measure 3
0000
0000
0000
0000
,  // measure 4
0000
0000
0000
0000
,  // measure 5
0000
0000
0000
0000
,  // measure 6
0000
0000
0000
0000
,  // measure 7
0000
0000
0000
0000
,  // measure 8
0000
0000
0000
0000
,  // measure 9
0001
0010
0001
0010
0100
0000
0100
0010
,  // measure 10
0100
1000
0010
1000
0100
0010
0001
0001
,  // measure 11
0100
0010
0010
1000
0100
1000
1000
0001
,  // measure 12
0100
0100
0010
1000
0010
0000
0000
0000
,  // measure 13
1000
0000
0010
0100
1000
0000
0100
0000
,  // measure 14
0001
0000
0010
0100
1000
0001
1000
0010
,  // measure 15
0001
0001
1000
0100
0001
0001
1000
0100
,  // measure 16
0001
0100
0100
1000
1000
0000
0010
1000
,  // measure 17
0210
0000
0000
0000
,  // measure 18
0300
0000
0010
0000
0010
0000
0000
0000
1000
0000
0001
0000
1000
0001
1000
0000
,  // measure 19
0001
0001
0010
0010
0100
0100
1000
0000
,  // measure 20
0001
0101
1000
1100
,  // measure 21
0011
0101
0110
1000
,  // measure 22
0001
0011
1000
1010
,  // measure 23
0100
0100
0010
0010
1000
0001
1001
0000
,  // measure 24
0001
0011
0100
1100
,  // measure 25
1001
0000
0010
0001
0010
1000
0010
0000
,  // measure 26
0100
1100
0010
1010
,  // measure 27
0001
1000
0110
1001
,  // measure 28
0100
0000
0000
1000
0100
0010
0100
1000
,  // measure 29
0001
0000
0000
0010
0001
1000
0010
1000
,  // measure 30
0001
0000
0000
0001
0100
0001
1000
0100
,  // measure 31
0010
0000
0100
0000
1001
0010
0100
0000
,  // measure 32
0000
1000
0000
0001
,  // measure 33
0000
0100
0000
0010
,  // measure 34
1000
0001
0000
0010
,  // measure 35
0100
1000
0100
0000
0010
0001
0010
0000
,  // measure 36
0001
0000
0000
0100
0001
0000
0000
0000
1000
0000
0100
0000
0010
0000
0000
0000
,  // measure 37
0100
1000
0100
0000
0010
0000
0000
0001
0100
0000
0010
0000
0100
0000
0000
0000
,  // measure 38
0001
0000
0000
1000
0100
0000
0000
0000
0001
0000
0000
1000
0100
0000
0000
0000
,  // measure 39
0010
0100
0010
0000
0001
1000
0001
0000
0100
0000
0010
0100
0010
0000
0000
0000
,  // measure 40
1000
0001
0100
0000
0001
1000
0100
0000
0010
0001
0100
0000
0010
0000
0110
0000
,  // measure 41
1000
0001
0010
0000
0001
1000
0010
0000
1000
0000
1001
0000
0010
0000
0110
0000
,  // measure 42
0001
0000
0010
0001
0100
0000
0010
0000
1000
0000
0100
0000
0010
0000
0001
0000
,  // measure 43
1000
1100
0001
0101
0000
0000
0010
0010
,  // measure 44
0001
1000
1000
0100
0001
0000
0110
0000
,  // measure 45
0001
1000
1000
0010
0001
0000
0110
0000
,  // measure 46
1000
0001
0001
0010
1000
0000
0110
0000
,  // measure 47
1000
0001
0001
0100
1000
0000
0110
0000
,  // measure 48
1000
1000
0100
0100
0010
0010
0001
0000
,  // measure 49
0100
0000
0000
0100
0000
0000
0010
0000
0000
0010
0000
0000
1000
0000
0000
1000
,  // measure 50
0000
0001
0000
0000
0001
0000
0000
0000
,  // measure 51
0101
0000
1000
0000
,  // measure 52
1010
0000
0100
0000
,  // measure 53
0110
0000
1100
0000
,  // measure 54
1001
0000
0100
0000
,  // measure 55
0101
0000
0010
0000
,  // measure 56
1010
0000
1001
0010
,  // measure 57
0100
1000
0010
0100
,  // measure 58
0001
0000
1000
0000
,  // measure 59
1100
0000
0010
0000
,  // measure 60
0011
0000
1100
0010
,  // measure 61
0001
1000
0101
0010
,  // measure 62
1000
0000
0001
0000
,  // measure 63
0101
0000
0010
0000
,  // measure 64
1010
0000
1001
1000
,  // measure 65
0100
0010
1001
0001
,  // measure 66
0010
0000
0000
0000
0100
0000
1000
0001
,  // measure 67
1000
0000
0001
0100
,  // measure 68
1000
0000
0000
0000
0100
0000
0001
1000
,  // measure 69
0001
0000
1000
0100
,  // measure 70
0001
0000
0000
0000
0100
0000
1000
0001
,  // measure 71
1000
0000
0001
0100
,  // measure 72
1000
0000
0100
0000
0001
0000
1000
0001
,  // measure 73
1000
0010
0100
0001
,  // measure 74
1000
0000
0000
0000
0100
0000
1000
0010
,  // measure 75
0100
0001
1000
0100
,  // measure 76
0001
0000
0100
0000
1000
0000
0001
0100
,  // measure 77
0010
1000
0001
0100
,  // measure 78
1000
0000
0100
0000
0010
0000
1000
0100
,  // measure 79
0010
0001
1000
0100
,  // measure 80
0001
0100
1000
0001
,  // measure 81
0101
1000
1100
1001
,  // measure 82
0101
0010
0110
1000
,  // measure 83
1001
0000
0010
0000
1000
0100
0001
0100
,  // measure 84
1000
0100
0010
0000
0011
0000
0100
0000
,  // measure 85
0101
0000
0010
0000
1000
0010
0001
0000
,  // measure 86
0001
0010
0100
0000
0101
0000
0010
0000
,  // measure 87
1010
0000
1000
0000
0100
0010
0001
0010
,  // measure 88
0100
1000
0001
0000
0101
0000
1000
0000
,  // measure 89
1010
0000
0110
0000
0001
1000
0001
0001
,  // measure 90
1000
0100
0010
0000
0100
0000
0100
0000
0000
0000
0000
0000
0000
0000
0000
0000
;

//---------------dance-single - ----------------
#NOTES:
     dance-single:
     :
     Medium:
     7:
     0.417,0.576,0.298,0.153,0.000: // measure 1
0000
0000
0000
0000
,  // measure 2
0000
0000
0000
0000
,  // measure 3
0000
0000
0000
0000
,  // measure 4
0000
0000
0000
0000
,  // measure 5
0000
0000
0000
0000
,  // measure 6
0000
0000
0000
0000
,  // measure 7
0000
0000
0000
0000
,  // measure 8
0000
0000
0000
0000
,  // measure 9
1000
0010
0100
0000
0010
0000
1000
0000
,  // measure 10
0001
0010
0100
0000
0010
0000
0100
0000
,  // measure 11
1000
0100
1000
0000
1000
0001
1000
0000
,  // measure 12
1000
0010
1000
0001
0100
0000
0000
0000
,  // measure 13
0001
0010
0100
0000
0010
0000
0001
0000
,  // measure 14
1000
0010
0100
0000
0010
0000
1000
0000
,  // measure 15
0001
0010
1000
0000
1000
0010
0001
0000
,  // measure 16
0001
0100
1000
0100
0001
0000
0010
0000
,  // measure 17
0200
0000
0010
0000
0010
0000
0300
0100
,  // measure 18
0000
0100
0000
1000
0001
0000
1001
0000
,  // measure 19
0002
0000
0023
0000
0031
1000
0001
0000
,  // measure 20
0100
0101
0100
0110
,  // measure 21
0010
1010
0010
0110
,  // measure 22
1000
1100
1000
1100
,  // measure 23
0001
0000
0001
0000
0001
0010
0100
0000
,  // measure 24
1000
1010
0010
0110
,  // measure 25
0001
0011
0010
0110
,  // measure 26
0001
1001
0001
1001
,  // measure 27
1000
0000
1000
0000
1000
0010
0100
0000
,  // measure 28
0000
0002
0100
0003
0000
0000
0000
0000
,  // measure 29
0000
2000
0100
3000
0000
0000
0000
0000
,  // measure 30
0000
0020
0100
0030
0000
0000
0000
0000
,  // measure 31
0000
2000
0100
3000
0000
0000
0000
0000
,  // measure 32
0001
0000
1001
0000
0001
1000
0001
0000
,  // measure 33
1000
0100
1000
0000
0010
1000
0010
0000
,  // measure 34
0100
0000
0110
0000
0100
0001
0100
0000
,  // measure 35
0001
1000
0001
0000
0010
0001
0010
0000
,  // measure 36
0100
0000
0100
0000
1000
0001
0100
0001
,  // measure 37
1000
0000
1000
0000
0001
0100
0001
0000
,  // measure 38
0010
1100
0010
1100
,  // measure 39
0001
0100
0010
0100
0001
0100
0010
0100
,  // measure 40
0001
0000
1001
0000
1000
0100
0010
0100
,  // measure 41
1000
0001
1000
0001
1000
0010
1000
0010
,  // measure 42
0100
0000
0110
0000
0001
1000
0001
0000
,  // measure 43
1000
0010
0100
0001
2000
0000
3002
0000
,  // measure 44
1003
0000
0001
0100
0001
0000
0000
0000
,  // measure 45
1000
0000
0001
0100
0001
0000
0010
0000
,  // measure 46
1000
0000
0001
0100
0001
0000
0000
0000
,  // measure 47
1000
0000
0001
0100
0001
0000
0010
0000
,  // measure 48
0002
0000
0000
0003
,  // measure 49
2000
0000
0000
0000
,  // measure 50
0000
3000
0000
0000
0001
0000
0000
0000
,  // measure 51
0001
0000
1000
0000
,  // measure 52
1000
0000
0001
0000
,  // measure 53
0101
0000
1000
0000
,  // measure 54
1100
0000
0010
0000
,  // measure 55
0010
0000
0100
0000
,  // measure 56
0100
0000
0001
0000
,  // measure 57
0001
0000
1000
0001
,  // measure 58
1000
0000
0010
0000
,  // measure 59
1010
0000
0010
0000
,  // measure 60
1010
0000
0100
0000
,  // measure 61
0101
0000
0100
0000
,  // measure 62
0101
0000
0001
0000
,  // measure 63
0011
0000
1000
0000
,  // measure 64
1100
0000
1001
0000
,  // measure 65
0110
0000
0001
1000
,  // measure 66
0001
0000
1000
0200
,  // measure 67
0010
0300
1000
0000
,  // measure 68
0000
0000
0001
0200
,  // measure 69
0010
0300
0001
0000
,  // measure 70
0000
0000
1000
0020
,  // measure 71
0100
0030
1000
0000
,  // measure 72
0000
0000
0001
0020
,  // measure 73
0100
0030
0001
1000
,  // measure 74
0001
0000
1000
0020
,  // measure 75
0100
0030
1000
0100
,  // measure 76
0010
0000
0001
0200
,  // measure 77
0010
0300
0001
0010
,  // measure 78
0100
0000
1000
0020
,  // measure 79
0100
0030
1000
0100
,  // measure 80
0010
0000
0001
0020
,  // measure 81
0100
0030
0001
0100
,  // measure 82
0010
1000
1100
0001
,  // measure 83
0101
0000
1000
0000
0001
0100
0001
0000
,  // measure 84
1000
0100
0010
0000
0011
0000
0100
0000
,  // measure 85
1100
0000
0001
0000
1000
0001
0100
0000
,  // measure 86
0001
1000
0001
0000
0011
0000
1000
0000
,  // measure 87
1010
0000
0001
0000
1000
0010
1000
0000
,  // measure 88
0001
0010
0100
0000
1100
0000
0010
0000
,  // measure 89
0011
0000
1000
0000
0001
1000
0010
1000
,  // measure 90
0001
1000
0100
0100
0000
0000
0000
0000
;

//---------------dance-single - ----------------
#NOTES:
     dance-single:
     :
     Easy:
     5:
     0.323,0.468,0.008,0.330,0.000: // measure 1
0000
0000
0000
0000
,  // measure 2
0000
0000
0000
0000
,  // measure 3
0000
0000
0000
0000
,  // measure 4
0000
0000
0000
0000
,  // measure 5
0000
0000
0000
0000
,  // measure 6
0000
0000
0000
0000
,  // measure 7
0000
0000
0000
0000
,  // measure 8
0000
0000
0000
0000
,  // measure 9
0010
0010
0010
0000
,  // measure 10
0100
0100
0100
0000
,  // measure 11
0001
0001
1000
1000
,  // measure 12
0100
0000
0100
0010
0100
0000
0000
0000
,  // measure 13
0100
0100
0100
0000
,  // measure 14
0010
0010
0010
0000
,  // measure 15
1000
1000
0001
0001
,  // measure 16
0010
0000
0010
0100
0010
0000
0000
0000
,  // measure 17
1001
0000
0000
0000
,  // measure 18
1000
0001
0100
0000
,  // measure 19
0020
0000
0030
0000
,  // measure 20
1000
1000
0100
0100
,  // measure 21
0010
0010
0001
0001
,  // measure 22
0200
1300
0200
0310
,  // measure 23
0200
0000
0301
0000
0100
0010
0100
0000
,  // measure 24
0001
0001
0010
0010
,  // measure 25
0100
0100
1000
1000
,  // measure 26
0020
0130
0020
0031
,  // measure 27
0020
0000
1030
0000
0010
0100
0010
0000
,  // measure 28
2000
3000
0100
0010
,  // measure 29
0002
0003
0100
0010
,  // measure 30
2000
3000
0100
0010
,  // measure 31
0001
0001
1000
1000
,  // measure 32
0002
0103
0200
0310
,  // measure 33
0020
1030
2000
3100
,  // measure 34
2000
3100
0200
0310
,  // measure 35
0020
0031
0002
1003
,  // measure 36
0001
0001
0100
0010
,  // measure 37
1000
0100
0010
0100
,  // measure 38
1000
1000
0010
0100
,  // measure 39
0001
1000
0100
0010
,  // measure 40
0100
0100
1000
0001
,  // measure 41
0100
0010
1000
0001
,  // measure 42
0010
0010
0001
1000
,  // measure 43
0100
0010
0001
1000
,  // measure 44
0001
0000
0001
0100
0001
0000
0000
0000
,  // measure 45
1000
0000
1000
0100
1000
0000
0000
0000
,  // measure 46
0001
0000
0001
0010
0001
0000
0000
0000
,  // measure 47
1000
0000
1000
0010
1000
0000
0001
0000
,  // measure 48
2000
0000
0000
3000
,  // measure 49
0002
0000
0000
0000
,  // measure 50
0000
0003
0000
0000
1000
0000
0000
0000
,  // measure 51
1000
0000
0001
0000
,  // measure 52
0001
0000
0100
0000
,  // measure 53
0100
0000
0010
0000
,  // measure 54
0010
0000
1000
0000
,  // measure 55
1000
0000
0001
0000
,  // measure 56
0001
0000
0010
0000
,  // measure 57
0010
0000
0100
0010
,  // measure 58
0100
0000
1000
0000
,  // measure 59
1000
0000
0100
0000
,  // measure 60
0100
0000
0010
0000
,  // measure 61
0010
0000
0001
0000
,  // measure 62
0001
0000
0100
0000
,  // measure 63
0100
0000
0010
0000
,  // measure 64
0010
0000
1000
0000
,  // measure 65
1000
0000
0001
1000
,  // measure 66
0001
0000
2000
0000
,  // measure 67
3100
0000
0001
0000
,  // measure 68
0100
0000
0002
0000
,  // measure 69
0103
0000
1000
0000
,  // measure 70
0100
0000
2000
0000
,  // measure 71
3100
0000
0001
0000
,  // measure 72
0100
0000
0001
0000
,  // measure 73
1000
0000
0002
0000
,  // measure 74
1003
0000
0002
0000
,  // measure 75
0013
0000
1000
0000
,  // measure 76
0010
0000
2000
0000
,  // measure 77
3010
0000
0001
0000
,  // measure 78
0010
0000
0002
0000
,  // measure 79
0013
0000
1000
0000
,  // measure 80
0010
0000
2000
0000
,  // measure 81
3010
0000
0001
0000
,  // measure 82
1000
0002
0003
2000
,  // measure 83
3000
0000
0020
0000
0030
0100
0001
0000
,  // measure 84
0010
0200
0300
2000
,  // measure 85
3000
0000
0002
0000
0003
1000
0100
0000
,  // measure 86
0010
0200
0300
2000
,  // measure 87
3000
0000
0002
0000
0003
0100
0010
0000
,  // measure 88
1000
0200
0300
2000
,  // measure 89
3000
0000
0002
0000
0003
0000
1000
0001
,  // measure 90
1000
0001
0020
0030
0000
0000
0000
0000
;
