#TITLE:Supergirl;
#SUBTITLE:Team 33 Radio Edit;
#ARTIST:Miss Papaya;
#CREDIT:Lisek;
#BANNER:bn.png;
#BACKGROUND:bg.png;
#LYRICSPATH:;
#CDTITLE:Lisek.png;
#MUSIC:[ROUND 1] - Supergirl (Team 33 Radio Edit).ogg;
#OFFSET:-0.455;
#SAMPLESTART:59.970;
#SAMPLELENGTH:14.480;
#SELECTABLE:YES;
#BPMS:0.000=132.000;

//---------------dance-single - ----------------
#NOTES:
     dance-single:
     Lisek:
     Hard:
     8:
     0.434,0.430,0.224,0.187,0.126:
0000
0000
0000
0000
,
0000
0000
0000
0000
,
0000
0000
0000
0000
,
0000
0000
0000
0000
,
1000
0100
0010
0000
,
0001
0010
0100
0000
,
1000
0000
0001
0000
,
1000
0000
0000
0000
,
2002
0000
0000
3003
,
1000
0000
0000
0000
0100
0000
0001
0100
0000
0000
1000
0000
0000
0001
0000
0000
,
0100
0000
0000
0000
1000
0000
0100
0001
0000
0000
0100
0000
0000
0010
0000
0000
,
1000
0000
0000
0000
0100
0000
0010
0100
0000
0000
1000
0000
0000
0010
0000
0000
,
0100
0000
0000
0000
0001
0000
0010
0100
0000
0000
0010
0000
0001
0000
0100
0000
,
0001
0000
0000
0000
1000
0000
0010
0001
0000
0000
0010
0000
0000
1000
0000
0000
,
0001
0000
0000
0000
0100
0000
1000
0100
0000
0000
0001
0000
0000
0010
0000
0000
,
1001
0000
0000
0000
1000
0000
0001
0010
0000
0000
0001
0000
0000
1000
0000
0000
,
0010
0000
0000
0000
0100
0000
1000
0100
0000
0000
0001
0000
0100
0000
0010
0000
,
1000
0010
0100
0010
1000
0000
0100
0010
,
0001
1000
0000
0001
0000
1000
0100
0010
,
0001
0100
0010
0100
0001
0000
0010
0100
,
0000
1000
0000
0100
0000
0010
0000
0001
,
0010
0000
0001
0100
0000
0010
1000
0100
,
0010
0100
0000
1000
0000
0001
0010
0100
,
1000
0001
0100
0010
0100
0001
0010
0100
,
0000
1000
0000
0001
0000
0100
0000
0000
,
1001
0001
1000
0100
1000
0010
0100
0001
,
0010
0000
0100
1000
0000
1000
0100
0010
,
0001
0100
0010
0100
0001
1000
0000
0100
,
0000
0010
0000
0001
0000
1000
0000
0001
,
0100
0010
1000
0100
1000
0010
0100
0010
,
1000
0000
0001
1000
0000
0001
0010
0100
,
1000
0000
0001
0100
1000
0000
0100
0002
,
0000
2000
0000
0000
0000
3003
0000
0000
,
2100
0000
0010
0000
3001
0000
0100
0010
,
2000
0000
0100
0000
3001
0000
0100
0001
,
0011
0000
0101
0000
0010
0100
0001
1000
,
0000
2002
0000
0000
3003
0000
0010
0100
,
0002
0000
0010
0000
1003
0000
0010
0100
,
0002
0000
1000
0000
0013
0000
1000
0100
,
1100
1001
0011
0110
,
2002
0000
0000
3003
,
1000
0100
1000
0010
1000
0100
1000
0000
,
1000
0100
0010
0001
0020
0000
003M
0000
,
0001
0010
0001
0100
0001
0010
0001
0000
,
0011
0110
2002
3003
,
0100
0010
0100
1000
0100
0010
0100
0000
,
0001
0010
0100
1000
0200
0000
M300
0000
,
1000
0010
0100
0010
1000
0010
0100
0000
,
0110
1010
2002
3003
,
0001
0000
0000
0000
0010
0000
0100
1000
0000
0000
0100
0000
0000
0010
0000
0000
,
0001
0000
0000
0000
0100
0000
1000
0100
0000
0000
0001
0000
0000
0100
0000
0000
,
0010
0000
0000
0000
1000
0000
0100
0001
0000
0000
0100
0000
0000
1000
0000
0000
,
1100
0000
1001
0000
0101
0001
0100
0010
,
1000
0000
0000
0000
0100
0000
0010
0001
0000
0000
1000
0000
0000
0001
0000
0000
,
1000
0000
0000
0000
0001
0000
0100
1000
0000
0000
0100
0000
0000
0001
0000
0000
,
1001
0000
0000
0000
1000
0000
0010
0001
0000
0000
0010
0000
0000
1000
0000
0000
,
1001
0000
0000
0000
0001
0000
0010
1000
0000
0000
0010
0000
0001
0000
1000
0000
,
2002
0000
3003
0000
;

//---------------dance-single - ----------------
#NOTES:
     dance-single:
     Lisek:
     Beginner:
     1:
     0.069,0.106,0.009,0.037,0.000:
0000
0000
0000
0000
,
0000
0000
0000
0000
,
0000
0000
0000
0000
,
0000
0000
0000
0000
,
0000
0000
0000
0000
,
0000
0000
0000
0000
,
0000
0000
0000
0000
,
0000
0000
0000
0000
,
0000
0000
0000
0000
,
1000
0000
0000
0000
,
0001
0000
0000
0000
,
0100
0000
0000
0000
,
0001
0000
0000
0000
,
1000
0000
0000
0000
,
0010
0000
0000
0000
,
0100
0000
0000
0000
,
0010
0000
0000
0000
,
1000
0000
0000
0000
,
0001
0000
0000
0000
,
1000
0000
0000
0000
,
0001
0000
0000
0000
,
0100
0000
0000
0000
,
0010
0000
0000
0000
,
0100
0000
0000
0000
,
0010
0000
0000
0000
,
1000
0000
0000
0000
,
0100
0000
0000
0000
,
1000
0000
0000
0000
,
0100
0000
0000
0000
,
0010
0000
0000
0000
,
0001
0000
0000
0000
,
0010
0000
0000
0000
,
0001
0000
0000
0000
,
1000
0000
0000
0000
,
0001
0000
0000
0000
,
1000
0000
0001
0000
,
1000
0000
0000
0000
,
0001
0000
0000
0000
,
1000
0000
0000
0000
,
0001
0000
1000
0000
,
0001
0000
0000
0000
,
2000
0000
0000
3000
,
0000
0000
0000
0000
,
0002
0000
0000
0003
,
0000
0000
0000
0000
,
0200
0000
0000
0300
,
0000
0000
0000
0000
,
0020
0000
0000
0030
,
0000
0000
0000
0000
,
1000
0000
0000
0000
,
0001
0000
0000
0000
,
0100
0000
0000
0000
,
0010
0000
0000
0000
,
1000
0000
0000
0000
,
0100
0000
0000
0000
,
0010
0000
0000
0000
,
0001
0000
0000
0000
,
1001
0000
0000
0000
;

//---------------dance-single - ----------------
#NOTES:
     dance-single:
     Lisek:
     Medium:
     4:
     0.270,0.293,0.159,0.215,0.000: // measure 1
0000
0000
0000
0000
,  // measure 2
0000
0000
0000
0000
,  // measure 3
0000
0000
0000
0000
,  // measure 4
0000
0000
0000
0000
,  // measure 5
1000
0000
0010
0000
,  // measure 6
0100
0000
0001
0000
,  // measure 7
0010
0000
0001
0000
,  // measure 8
1000
0000
0000
0000
,  // measure 9
2002
0000
0000
3003
,  // measure 10
1000
0100
2000
0000
,  // measure 11
3001
0010
0002
0000
,  // measure 12
0103
0010
0200
0000
,  // measure 13
0310
0100
0020
0000
,  // measure 14
1030
0100
0020
0000
,  // measure 15
0031
0100
0020
0000
,  // measure 16
1030
0001
0200
0000
,  // measure 17
0310
1000
0020
0000
,  // measure 18
1030
0100
1000
0010
,  // measure 19
0100
0001
2000
0000
,  // measure 20
3010
1000
0001
0100
,  // measure 21
0010
1000
0000
0100
,  // measure 22
1000
0010
0100
0001
,  // measure 23
1000
0010
2000
0000
,  // measure 24
3010
0100
0010
1000
,  // measure 25
0001
0100
0000
0010
,  // measure 26
0100
0001
1000
0010
,  // measure 27
0100
0010
2000
0000
,  // measure 28
3010
1000
0001
0100
,  // measure 29
0010
0100
0000
0010
,  // measure 30
1000
0001
0100
0001
,  // measure 31
1000
0010
0200
0000
,  // measure 32
0310
1000
0001
1000
,  // measure 33
2002
0000
0000
3003
,  // measure 34
1100
0000
1010
0000
,  // measure 35
1100
0000
1010
0000
,  // measure 36
1000
0001
1000
0001
,  // measure 37
2000
0000
3000
0000
,  // measure 38
0011
0000
0101
0000
,  // measure 39
0011
0000
0101
0000
,  // measure 40
0001
1000
0001
1000
,  // measure 41
0001
0000
0000
0000
,  // measure 42
1000
0100
1000
0010
,  // measure 43
1000
0001
1000
0001
1000
0000
0000
0000
,  // measure 44
0001
0010
0001
0100
,  // measure 45
0101
0101
0101
0000
,  // measure 46
0001
1000
0010
1000
,  // measure 47
0001
1000
0001
1000
0001
0000
0000
0000
,  // measure 48
1000
0010
1000
0100
,  // measure 49
1100
1100
1100
0000
,  // measure 50
1000
0001
0200
0000
,  // measure 51
0310
1000
0200
0000
,  // measure 52
1300
0001
0200
0000
,  // measure 53
0301
1000
0001
0000
,  // measure 54
1000
0100
2000
0000
,  // measure 55
3010
0100
0002
0000
,  // measure 56
1003
0001
0200
0000
,  // measure 57
0301
1000
0001
1000
,  // measure 58
1001
0000
0000
0000
;

//---------------dance-single - ----------------
#NOTES:
     dance-single:
     Lisek:
     Easy:
     2:
     0.149,0.211,0.009,0.103,0.000: // measure 1
0000
0000
0000
0000
,  // measure 2
0000
0000
0000
0000
,  // measure 3
0000
0000
0000
0000
,  // measure 4
0000
0000
0000
0000
,  // measure 5
1000
0000
0000
0000
,  // measure 6
0001
0000
0000
0000
,  // measure 7
0100
0000
0000
0000
,  // measure 8
0010
0000
0000
0000
,  // measure 9
2002
0000
0000
3003
,  // measure 10
1000
0000
0100
0000
,  // measure 11
1000
0000
0010
0000
,  // measure 12
0100
0000
0010
0000
,  // measure 13
1000
0000
0200
0000
,  // measure 14
1300
0000
0010
0000
,  // measure 15
0100
0000
0001
0000
,  // measure 16
0010
0000
0001
0000
,  // measure 17
0100
0000
0002
0000
,  // measure 18
1003
0000
0100
0000
,  // measure 19
1000
0001
1000
0000
,  // measure 20
0001
0000
0100
0000
,  // measure 21
0001
0000
0000
0000
,  // measure 22
1000
0000
0010
0000
,  // measure 23
1000
0001
1000
0000
,  // measure 24
0001
0000
0010
0000
,  // measure 25
0001
0000
0000
0000
,  // measure 26
1000
0000
0001
0000
,  // measure 27
0100
0000
0010
0000
,  // measure 28
0100
0000
0001
0000
,  // measure 29
2000
0000
3000
0000
,  // measure 30
0001
0000
0010
0000
,  // measure 31
0001
0000
1000
0000
,  // measure 32
0010
0000
0100
0000
,  // measure 33
0020
0000
0030
0000
,  // measure 34
1000
1000
1000
0000
,  // measure 35
0001
0001
0001
0000
,  // measure 36
0100
0010
0100
0010
,  // measure 37
0100
0000
0000
0000
,  // measure 38
0001
0001
0001
0000
,  // measure 39
1000
1000
1000
0000
,  // measure 40
0010
0100
0010
0100
,  // measure 41
0010
0000
0000
0000
,  // measure 42
2000
0000
0000
3000
,  // measure 43
0001
0000
0001
0000
,  // measure 44
0002
0000
0000
0003
,  // measure 45
1000
0000
1000
0000
,  // measure 46
2000
0000
0000
3000
,  // measure 47
0001
0000
0001
0000
,  // measure 48
0002
0000
0000
0003
,  // measure 49
1000
0000
1000
0000
,  // measure 50
0001
0000
0100
0000
,  // measure 51
0010
0000
0100
0000
,  // measure 52
0001
0000
1000
0000
,  // measure 53
0200
0000
0300
0000
,  // measure 54
1000
0000
0001
0000
,  // measure 55
0100
0000
0001
0000
,  // measure 56
1000
0000
0010
0000
,  // measure 57
0100
0000
0010
0000
;
