#TITLE:STARS (Ryu☆Remix RRVer.);
#SUBTITLE:;
#ARTIST:Another infinity feat. Mayumi Morinaga;
#TITLETRANSLIT:STARS (RyuRemix RRVer.);
#SUBTITLETRANSLIT:;
#ARTISTTRANSLIT:;
#GENRE:;
#CREDIT:;
#BANNER:Stars.bn.png;
#BACKGROUND:Stars.bg.png;
#LYRICSPATH:;
#CDTITLE:cdtitle.png;
#MUSIC:[ROUND 1] - STARS (RyuRemix RRver.).mp3;
#OFFSET:-0.006;
#SAMPLESTART:32.494;
#SAMPLELENGTH:14.586;
#SELECTABLE:YES;
#BPMS:0.000=181.000
;
#STOPS:
;
#BGCHANGES:;
#KEYSOUNDS:;
#ATTACKS:;

//---------------dance-single - ----------------
#NOTES:
     dance-single:
     :
     Hard:
     9:
     0.584,0.756,0.239,0.225,0.425,516.000,34.000,32.000,12.000,0.000,0.000,0.584,0.756,0.239,0.225,0.425,516.000,34.000,32.000,12.000,0.000,0.000:
0000
0000
0000
0000
,
0000
0000
0000
0000
,
0000
0000
0000
0000
,
0000
0000
0000
0000
,
0000
0000
0000
0000
0000
0000
0000
0000
1000
0000
0000
0100
0000
0000
1000
0000
,
0010
0000
0000
0100
0000
0000
0010
0000
0100
0000
0000
0001
0000
0000
0100
0000
,
0010
0000
0000
1000
0000
0000
0010
0000
1000
0000
0000
0001
0000
0000
0010
0000
,
0001
0000
0000
1000
0000
0000
0010
0000
0100
0000
0000
0000
0000
0000
1000
0100
,
1000
0000
0000
0010
0000
0000
0100
0000
0002
0000
0000
0000
0000
0000
0000
0000
,
0000
0000
0000
0000
,
0000
0003
0000
0000
1000
0000
1100
0000
,
0010
0000
0000
0001
0000
0000
1000
0000
0000
0000
0010
0000
0000
1000
0000
0000
,
0100
0000
0000
0010
0000
0000
0001
0000
0010
0000
0000
0000
0110
0000
0000
0000
,
1000
0000
0000
0001
0000
0000
0100
0000
0000
0000
0010
0000
0000
1000
0000
0000
,
0001
0000
0000
0010
0000
0000
1000
0000
0010
0000
0000
0000
0011
0000
0000
0000
,
0100
0000
0000
0001
0000
0000
1000
0000
0000
0000
0010
0000
0000
0100
0000
0000
,
1000
0000
0000
0100
0000
0000
0001
0000
0100
0000
0000
0000
0101
0000
0000
0000
,
0010
0000
0000
1000
0000
0000
0001
0000
0000
0000
0010
0000
0000
1000
0000
0000
,
0010
0000
0110
0000
0100
0000
1000
0010
,
0100
0000
0001
0000
0100
0000
0000
0000
0010
0000
1000
0010
0000
0100
0010
0000
,
0100
0001
0011
0000
0110
0000
1000
0100
,
0001
0000
0100
0000
1000
0000
0000
0000
0010
0000
0100
0001
0000
0100
0010
0000
,
1000
0100
1000
0000
0110
0000
0001
0010
,
1000
0000
0010
0000
0001
0000
0000
0000
1000
0000
0010
0100
0000
0010
1000
0000
,
0100
0010
0001
0000
0101
0000
0100
0010
,
1000
0000
0001
0000
1000
0000
0000
0000
0010
0000
0100
0001
0000
1000
0001
0000
,
0010
0100
0010
0001
2000
0000
0010
0000
,
0010
0000
3000
0000
MMMM
0000
0000
0000
0100
0000
0000
0001
0000
0000
0100
0000
,
0010
0000
0000
1000
0000
0000
0001
0000
0010
0000
0000
1000
0000
0000
0010
0000
,
0001
0000
0000
1000
0000
0000
0010
0000
0100
0000
0000
0010
0000
0000
1000
0000
,
0100
0000
0000
0001
0000
0000
0100
0000
1000
0000
0000
0010
0000
0000
0100
0000
,
0001
0000
0000
0000
1001
0000
0000
0000
1000
0000
0000
0100
0000
0000
0010
0000
,
0100
0000
0000
1000
0000
0000
0010
0000
0100
0000
0000
0001
0000
0000
0010
0000
,
1000
0000
0000
0010
0000
0000
0100
0000
0010
0000
0000
0001
0000
0000
1000
0000
,
0010
0000
0000
1000
0000
0000
0001
0000
0020
0000
0000
0000
0030
0000
0100
0000
,
1000
0000
0000
0010
0000
0000
1000
0000
0002
0000
0000
0000
0000
0000
0000
0000
,
0000
0000
0000
0000
0000
0000
0003
0000
0010
0000
0001
0010
0000
0100
0010
0000
,
0100
0000
1000
0000
1010
0000
0000
0000
0010
0000
0000
0100
0000
0000
0001
0000
,
0100
0000
0000
0010
0000
0000
1000
0000
0001
0000
0000
0010
0000
0000
0100
0000
,
0010
0000
0000
0001
0000
0000
1000
0000
0010
0000
0000
0100
0000
0000
0010
0000
,
1000
0000
0000
0100
0000
0000
0001
0000
0100
0000
0000
1000
0000
0000
0001
0000
,
0100
0000
0000
0000
0101
0000
0000
0000
0001
0000
0000
1000
0000
0000
0100
0000
,
1000
0000
0000
0010
0000
0000
0100
0000
0010
0000
0000
1000
0000
0000
0001
0000
,
0010
0000
0000
1000
0000
0000
0010
0000
0001
0000
0000
0100
0000
0000
0010
0000
,
1000
0000
0000
0100
0000
0000
0001
0000
0200
0000
0000
0000
0010
0000
0000
0000
,
0010
0000
0300
0000
MMMM
0000
0000
0000
0010
0000
0000
0001
0000
0000
1000
0000
,
0001
0000
0000
0100
0000
0000
0010
0000
0100
0000
0000
1000
0000
0000
0100
0000
,
0010
0000
0000
1000
0000
0000
0100
0000
0001
0000
0000
0100
0000
0000
1000
0000
,
0010
0000
0000
1000
0000
0000
0001
0000
0010
0000
0000
1000
0000
0000
0010
0000
,
0001
0000
0000
0000
1001
0000
0000
0000
1000
0000
0000
0010
0000
0000
1000
0000
,
0001
0000
0000
0010
0000
0000
0100
0000
1000
0000
0000
0010
0000
0000
0001
0000
,
0010
0000
0000
0100
0000
0000
0010
0000
1000
0000
0000
0001
0000
0000
1000
0000
,
0100
0000
0000
0001
0000
0000
0100
0000
2000
0000
0000
3000
0020
0000
0000
0030
,
0200
0000
0000
0300
0002
0000
0000
0000
2000
0000
0000
0000
0000
0000
0000
0000
,
0000
3003
MMMM
0000
1020
0000
0130
0001
,
1000
0001
0010
0000
0100
1000
0100
0010
,
0001
1000
0010
0000
0210
0000
0301
1000
,
0100
1000
0010
0000
0100
0010
1000
0001
,
0010
1000
0010
0000
0012
0000
0103
0010
,
1000
0001
1000
0000
0100
1000
0010
1000
,
0001
0010
0100
0000
2100
0000
3001
1000
,
0010
1000
0100
0000
0010
0001
0100
1000
,
0100
0001
1000
0100
0020
0000
0000
0000
,
0000
0000
0002
0000
,
0000
0000
0000
0033
1000
0000
1010
0000
,
0110
0000
0000
0100
0000
0000
0001
0000
0000
0000
1000
0000
0000
0001
0000
0000
,
0010
0000
0000
1000
0000
0000
0010
0000
0001
0000
0000
0000
0101
0000
0000
0000
,
0110
0000
0000
0100
0000
0000
0001
0000
0000
0000
1000
0000
0000
0100
0000
0000
,
0001
0000
0000
0100
0000
0000
1000
0000
0010
0000
0000
0000
1010
0000
0000
0000
,
1001
0000
0000
0001
0000
0000
0010
0000
0000
0000
0001
0000
0000
0100
0000
0000
,
1000
0000
0000
0100
0000
0000
0001
0000
1000
0000
0000
0000
1100
0000
0000
0000
,
0110
0000
0000
1000
0000
0000
0100
0000
0000
0000
1000
0000
0000
0010
0000
0000
,
0001
0000
0000
0010
0000
0000
1000
0000
0001
0000
0000
0000
0101
0000
0000
0000
,
0110
0000
0000
0010
0000
0000
1000
0000
0000
0000
0001
0000
0000
1000
0000
0000
,
0100
0000
0000
0001
0000
0000
0100
0000
1000
0000
0000
0000
1010
0000
0000
0000
,
0110
0000
0000
0010
0000
0000
1000
0000
0000
0000
0001
0000
0000
0010
0000
0000
,
1000
0000
0000
0010
0000
0000
0001
0000
0100
0000
0000
0000
0101
0000
0000
0000
,
1001
0000
0000
1000
0000
0000
0100
0000
0000
0000
1000
0000
0000
0010
0000
0000
,
0001
0000
0000
0010
0000
0000
1000
0000
0001
0000
0000
0000
0011
0000
0000
0000
,
0110
0000
0000
0100
0000
0000
1000
0000
0000
0000
0001
0000
0000
0100
0000
0000
,
0020
0000
0000
0000
0000
0000
0030
0000
1000
0000
0000
0100
0000
0000
1000
0000
,
0001
0000
0000
0100
0000
0000
0001
0000
1000
0000
0000
0100
0000
0000
0010
0000
,
0001
0000
0000
0100
0000
0000
0010
0000
1000
0000
0000
0001
0000
0000
0010
0000
,
0001
0000
0000
1000
0000
0000
0010
0000
1000
0000
0000
0100
0000
0000
0001
0000
,
0200
0000
0000
0300
0010
0000
0001
1000
,
0010
0000
0100
0001
1000
0000
0100
0010
,
0001
0000
1000
0010
0100
0000
0001
1000
,
0100
0000
0010
0001
1000
0000
0010
0001
,
0010
0000
0000
0000
1000
0000
0100
0000
0020
0000
0030
0002
0000
0003
2000
3000
,
0020
0000
0030
2000
0000
3000
0002
0003
0020
0000
0030
0200
0000
0300
2000
3000
,
0020
0000
0030
0200
0000
0300
0002
0003
1000
0000
0000
0010
0000
0000
0001
0000
,
0010
0000
0000
0100
0000
0000
0010
0000
1000
0000
0000
0001
0000
0000
0010
0000
,
0100
0000
0000
0000
0110
0000
0000
0000
0010
0000
0000
0001
0000
0000
0100
0000
,
0010
0000
0000
1000
0000
0000
0100
0000
0001
0000
0000
0100
0000
0000
0010
0000
,
0001
0000
0000
1000
0000
0000
0001
0000
0100
0000
0000
0010
0000
0000
1000
0000
,
0001
0000
0000
1000
0000
0000
0100
0000
0020
0000
0000
0000
0030
0000
0001
0000
,
1000
0000
0000
0010
0000
0000
0100
0000
0001
0000
1000
0000
0000
0100
0000
0000
,
0001
0000
0000
0100
0000
0000
1000
0000
0000
0000
0001
0000
0000
0100
0000
0000
,
1000
0000
0000
0100
0000
0000
0001
0000
0000
0000
1000
0000
0000
0010
0000
0000
,
0001
0000
0000
0010
0000
0000
1000
0000
0000
0000
0001
0000
0000
0010
0000
0000
,
1000
0000
0000
0010
0000
0000
0001
0000
0200
0000
0000
0000
0000
0000
0000
0000
,
0000
0000
0000
0000
,
0000
0000
0300
0000
;

//---------------dance-single - ----------------
#NOTES:
     dance-single:
     :
     Medium:
     8:
     0.533,0.719,0.218,0.309,0.084,456.000,31.000,44.000,0.000,0.000,0.000,0.533,0.719,0.218,0.309,0.084,456.000,31.000,44.000,0.000,0.000,0.000:
0000
0000
0000
0000
,
0000
0000
0000
0000
,
0000
0000
0000
0000
,
0000
0000
0000
0000
,
0000
0000
0000
0000
0001
0000
1000
0001
,
0100
0000
0010
0000
1000
0000
0100
1000
,
0001
0000
0100
0000
0010
0000
0100
0001
,
0010
0000
1000
0000
0010
0000
0001
1000
,
0010
0100
0202
0000
,
0000
0000
0000
0000
,
0000
0303
0000
0000
1000
0000
1100
0000
,
0010
0000
0100
1000
0001
0000
0100
0000
,
0010
0000
1000
0001
0010
0000
0110
0000
,
1000
0000
0010
0001
0010
0000
1000
0000
,
0100
0000
0010
0001
0100
0000
0101
0000
,
0001
0000
1000
0100
0010
0000
0100
0000
,
1000
0000
0010
0100
0001
0000
0011
0000
,
0010
0000
0001
0100
1000
0000
0100
0000
,
0020
0030
1000
0001
,
1000
0000
0010
0000
0100
0000
0000
0000
0010
0000
0000
1000
0000
0000
0001
0000
,
0010
1000
0010
0000
0110
0000
0100
1000
,
0010
1000
0001
0000
0100
0010
1000
0100
,
0001
0100
1000
0000
1010
0000
0010
0100
,
0001
1000
0001
0000
0010
0100
1000
0010
,
0001
0010
1000
0000
1001
0000
0001
0010
,
0001
0100
0010
0000
0100
0001
1000
0001
,
0010
0100
1000
0010
2000
0000
0100
0000
,
0100
3000
0000
0000
0010
0000
0100
0001
,
1000
0000
0100
0010
0001
0000
1000
0010
,
0001
0000
0010
1000
0001
0000
0010
1000
,
0010
0000
0001
1000
0010
0000
0100
0010
,
1000
0000
0100
0000
1000
0000
0010
0100
,
0001
0000
1000
0001
0010
0000
1000
0010
,
0001
0000
1000
0010
0100
0000
0010
1000
,
0001
0000
0010
0100
2000
0000
0000
3000
,
0010
1000
2002
0000
,
0000
0000
0000
0000
0000
0000
3003
0000
0010
0000
0000
0001
0000
0000
1000
0000
,
0010
0000
1000
0000
0001
0000
0000
0000
0010
0000
0000
0100
0000
0000
1000
0000
,
0010
0000
0000
0100
0000
0000
0001
0000
1000
0000
0000
0000
0100
0000
0010
0000
,
0001
0000
0000
0000
1000
0000
0010
0000
0001
0000
0000
0010
0000
0000
0100
0000
,
0010
0000
0000
1000
0000
0000
0001
0000
0010
0000
0000
0100
0000
0000
1000
0000
,
0002
0000
0000
0000
0000
0000
0003
0000
0100
0000
0000
0010
0000
0000
1000
0000
,
0100
0000
0000
0001
0000
0000
0100
0000
1000
0000
0000
0000
0010
0000
0100
0000
,
0001
0000
0000
0000
1000
0000
0100
0000
0010
0000
0000
0100
0000
0000
1000
0000
,
0010
0000
0000
0001
0000
0000
0010
0000
2000
0000
0000
0000
0000
0000
0000
0000
,
0200
0000
0000
0000
0000
0000
3300
0000
0010
0000
0000
0001
0000
0000
1000
0000
,
0001
0000
0000
0100
0000
0000
0010
0000
1000
0000
0000
0000
0100
0000
1000
0000
,
0010
0000
0000
0000
0001
0000
0010
0000
1000
0000
0000
0100
0000
0000
0010
0000
,
0001
0000
0000
1000
0000
0000
0001
0000
0100
0000
0000
0010
0000
0000
0100
0000
,
0002
0000
0000
0000
0000
0000
0003
0000
1000
0000
0000
0100
0000
0000
1000
0000
,
0010
0000
0000
0100
0000
0000
0001
0000
1000
0000
0000
0000
0100
0000
0001
0000
,
0100
0000
0000
0000
1000
0000
0010
0000
0100
0000
0000
0010
0000
0000
1000
0000
,
0001
0000
0000
0010
0000
0000
1000
0000
0020
0000
0000
0000
0000
0000
0000
0000
,
0000
0000
0200
0000
,
0000
0330
0000
0000
1000
0000
0010
1000
,
0100
0001
0100
0000
0010
0001
1000
0001
,
0100
0010
1000
0000
0001
0010
0100
0010
,
0001
1000
0010
0000
0100
0010
1000
0001
,
1000
0100
0010
0000
0100
1000
0010
1000
,
0001
0010
0100
0000
0010
0001
0100
1000
,
0100
0010
1000
0000
0001
1000
0100
0001
,
0100
0010
0001
0000
1000
0010
1000
0100
,
0010
0001
0100
0010
2000
0000
0000
0000
,
0000
0000
0000
0000
,
0000
0000
0000
3000
0010
0000
0100
0000
,
0101
0000
1000
0100
0010
0000
0100
0000
,
1100
1001
0100
0010
,
1010
0000
0001
0010
0100
0000
0010
0000
,
0011
0101
0010
1000
,
1100
0000
1000
0010
0100
0000
0001
0000
,
1001
1100
0010
0001
,
1001
0000
0010
0100
0002
0000
0000
0000
,
2000
0000
0000
3003
0010
0000
1000
0000
,
1010
0000
0001
0010
0100
0000
0010
0000
,
0011
1001
0010
0100
,
0101
0000
1000
0100
0010
0000
0100
0000
,
1100
1010
0100
0001
,
0011
0000
0001
0100
0010
0000
1000
0000
,
1001
0011
0100
1000
,
1001
0000
0100
0010
2000
0000
0000
0000
,
0200
0000
0000
3300
0010
0000
0001
0000
,
1000
0001
0100
0010
,
1000
0100
0001
0100
,
1000
0010
0100
0001
,
0020
0000
0000
0030
1000
0000
0010
0000
,
0001
1000
0001
0100
,
0010
1000
0100
0010
,
0100
0000
1000
0000
0020
0000
0000
0030
,
0100
0000
0000
0000
0001
0000
0000
0000
2000
0000
3000
0200
0000
0300
2000
3000
,
0020
0000
0030
0200
0000
0300
0020
0030
0200
0000
0300
0002
0000
0003
0200
0300
,
0020
0000
0030
2000
0000
3000
0002
0003
1000
0000
0000
0000
0010
0000
1000
0000
,
0001
0000
0010
1000
0010
0000
0001
0100
,
0010
0000
1000
0000
1010
0000
0010
0100
,
0001
0000
1000
0100
0010
0000
0100
1000
,
0001
0000
0100
1000
0100
0000
0010
1000
,
0001
0000
1000
0100
0020
0000
0000
0030
,
0002
0003
2000
3000
1020
0000
0000
0030
,
0200
0000
0000
0300
0002
0000
0000
0003
,
2000
0000
0000
3000
0200
0000
0000
0300
,
0020
0000
0000
0030
0002
0000
0000
0003
,
2000
0000
0000
3000
0002
0000
0000
0000
,
0000
0000
0000
0000
,
0000
0000
0000
0003
0000
0000
0000
0000
;

//---------------dance-single - ----------------
#NOTES:
     dance-single:
     :
     Easy:
     6:
     0.348,0.504,0.141,0.267,0.000,289.000,20.000,38.000,0.000,0.000,0.000,0.348,0.504,0.141,0.267,0.000,289.000,20.000,38.000,0.000,0.000,0.000:
0000
0000
0000
0000
,
0000
0000
0000
0000
,
0000
0000
0000
0000
,
0000
0000
0000
0000
,
0000
0000
0001
0100
,
0010
0000
1000
0100
,
0010
0000
0001
1000
,
0010
0100
0001
0000
,
1000
0100
0220
0000
,
0000
0000
0000
0000
,
0000
0330
0000
0000
0001
0000
0100
0000
,
0101
0000
1000
0010
,
1000
0010
0100
0010
,
0110
0000
0100
0001
,
0100
0001
1000
0100
,
1100
0000
0010
1000
,
0010
1000
0001
0010
,
0011
0000
1000
0100
,
0020
0030
0001
0100
,
0010
0000
1000
0100
,
0010
0001
0010
0000
0001
0000
1000
0000
,
0010
0000
0100
0010
,
1000
0001
1000
0100
,
0010
0000
0001
1000
,
0100
1000
0010
0100
,
0001
0000
1000
0100
,
0001
0100
0020
0000
,
0000
0030
0000
0000
0100
0000
1000
0000
,
0100
0000
1000
0001
,
1000
0010
0100
0001
,
1000
0100
0010
0100
,
1000
0000
0010
0100
,
0001
0010
1000
0010
,
0001
1000
0100
0010
,
0001
0000
0010
0000
0200
0000
0000
0300
,
0010
0001
2000
0000
,
0000
0000
0000
3000
0010
0000
0100
0000
,
0220
0330
0000
0000
1000
0000
0010
0000
,
0100
0000
0010
0100
,
0001
1000
0001
0010
,
0100
0000
0010
0001
,
0202
0000
0000
0303
0100
0000
0010
0000
,
1000
0000
0001
0010
,
1000
0010
0001
1000
,
0010
0100
0002
0000
,
0020
0000
0000
0033
0100
0000
1000
0000
,
0001
0000
1000
0010
,
0100
0010
1000
0001
,
0010
0000
0100
1000
,
0020
0000
0000
0030
1000
0000
0001
0000
,
0010
0000
0001
0100
,
1000
0100
0001
1000
,
0001
0010
0200
0000
,
0000
0000
0020
0000
,
0000
0330
0000
0000
0001
0000
0010
0000
,
0001
0000
1000
0010
,
0100
0001
0100
0000
0010
0000
1000
0000
,
0100
0000
0010
0001
,
1000
0010
1000
0000
0010
0000
1000
0000
,
0001
0000
0010
0100
,
1000
0100
1000
0000
0010
0000
0100
0000
,
0001
0000
0010
0100
,
0010
0001
1000
0001
2000
0000
0000
0000
,
0000
0000
0000
0000
,
0000
3000
0000
0000
0001
0000
0010
0000
,
0011
0000
0100
1000
,
0001
0000
1000
0010
,
1010
0000
1000
0001
,
0010
0000
0100
1000
,
1100
0000
0010
0001
,
1000
0000
0010
0100
,
0110
0000
2000
0000
,
0200
0000
0000
3300
0010
0000
0100
0000
,
0110
0000
1000
0010
,
1000
0000
0001
0100
,
0101
0000
0010
0100
,
0010
0000
1000
0001
,
1001
0000
0010
0100
,
1000
0000
0001
0010
,
0011
0000
2000
0000
,
0020
0000
0000
3030
0100
0000
0000
0000
,
0001
0000
1000
0000
,
0100
0000
0001
0000
,
0100
0000
1000
0000
,
0002
0000
0000
0003
1000
0000
0010
0000
,
1000
0010
0100
0001
,
0100
0001
1000
0100
,
0010
0000
0100
0000
2000
0000
0000
3000
,
0010
0000
0100
0000
0002
0003
0020
0030
,
0200
0300
0020
0030
2000
3000
0020
0030
,
0200
0300
0020
0030
0001
0000
1000
0000
,
1010
0000
0000
0000
0200
0000
0000
0300
,
0110
0000
0100
0001
,
0011
0000
0000
0000
0200
0000
0000
0300
,
1100
0000
1000
0010
,
1000
0000
0001
0000
0200
0000
0000
0300
,
0001
0010
0210
0000
,
0000
0000
0000
0300
2000
0000
0000
0000
,
0000
0000
0000
3000
0002
0000
0000
0000
,
0000
0000
0000
0003
0200
0000
0000
0000
,
0000
0000
0000
0300
0020
0000
0000
0000
,
0000
0000
0000
0000
,
0000
0000
0000
0030
0000
0000
0000
0000
;

//---------------dance-single - ----------------
#NOTES:
     dance-single:
     :
     Beginner:
     2:
     0.125,0.212,0.063,0.098,0.000,102.000,9.000,14.000,0.000,0.000,0.000,0.125,0.212,0.063,0.098,0.000,102.000,9.000,14.000,0.000,0.000,0.000: // measure 0
0000
0000
0000
0000
,  // measure 1
0000
0000
0000
0000
,  // measure 2
0000
0000
0000
0000
,  // measure 3
0000
0000
0000
0000
,  // measure 4
0000
0000
1000
0000
,  // measure 5
0000
0000
1000
0000
,  // measure 6
0000
0000
0001
0000
,  // measure 7
0000
0000
0001
0000
,  // measure 8
0100
0000
0020
0000
,  // measure 9
0000
0000
0000
0000
,  // measure 10
0000
0030
0000
0000
0100
0000
0000
0000
,  // measure 11
0000
0000
0100
0000
,  // measure 12
0000
0000
0010
0000
,  // measure 13
0000
0000
0010
0000
,  // measure 14
0000
0000
1000
0000
,  // measure 15
0000
0000
1000
0000
,  // measure 16
0000
0000
0001
0000
,  // measure 17
0000
0000
0001
0000
,  // measure 18
0000
0000
1000
0000
,  // measure 19
0000
0000
0100
0000
,  // measure 20
0010
0000
0100
0000
,  // measure 21
0000
0000
1000
0000
,  // measure 22
0000
0000
0001
0000
,  // measure 23
0000
0000
1000
0000
,  // measure 24
0000
0000
0010
0000
,  // measure 25
0000
0000
0100
0000
,  // measure 26
0000
0000
0220
0000
,  // measure 27
0000
0330
0000
0000
0010
0000
0000
0000
,  // measure 28
0000
0000
0010
0000
,  // measure 29
0000
0000
1000
0000
,  // measure 30
0000
0000
1000
0000
,  // measure 31
0001
0000
1000
0000
,  // measure 32
0000
0000
1000
0000
,  // measure 33
0000
0000
0100
0000
,  // measure 34
0000
0000
0100
0000
,  // measure 35
0010
0000
0022
0000
,  // measure 36
0000
0000
0000
0000
,  // measure 37
0000
0033
0000
0000
1000
0000
0000
0000
,  // measure 38
0000
0000
1000
0000
,  // measure 39
0000
0000
0010
0000
,  // measure 40
0000
0000
0010
0000
,  // measure 41
0100
0000
0010
0000
,  // measure 42
0000
0000
0010
0000
,  // measure 43
0000
0000
0100
0000
,  // measure 44
0000
0000
0110
0000
,  // measure 45
0000
0000
0001
0000
,  // measure 46
0000
0000
0001
0000
,  // measure 47
0000
0000
0010
0000
,  // measure 48
0000
0000
0010
0000
,  // measure 49
0100
0000
0010
0000
,  // measure 50
0000
0000
0010
0000
,  // measure 51
0000
0000
0001
0000
,  // measure 52
0000
0000
2000
0000
,  // measure 53
0000
0000
0000
3000
0000
0000
0000
0000
,  // measure 54
0000
0000
1001
0000
,  // measure 55
0000
0000
1000
0000
,  // measure 56
0000
0000
1010
0000
,  // measure 57
0000
0000
0010
0000
,  // measure 58
0000
0000
0110
0000
,  // measure 59
0000
0000
0100
0000
,  // measure 60
0000
0000
0101
0000
,  // measure 61
0000
0000
0001
0000
,  // measure 62
0000
0000
0022
0000
,  // measure 63
0000
0000
0000
0033
0000
0000
0000
0000
,  // measure 64
0000
0000
0100
0000
,  // measure 65
0000
0000
0100
0000
,  // measure 66
0000
0000
1000
0000
,  // measure 67
0000
0000
1000
0000
,  // measure 68
0000
0000
0001
0000
,  // measure 69
0000
0000
0001
0000
,  // measure 70
0000
0000
0100
0000
,  // measure 71
0000
0000
0100
0000
,  // measure 72
0110
0000
0010
0000
,  // measure 73
0000
0000
0010
0000
,  // measure 74
0000
0000
1000
0000
,  // measure 75
0000
0000
1000
0000
,  // measure 76
0000
0000
0001
0000
,  // measure 77
0000
0000
0001
0000
,  // measure 78
0000
0000
0010
0000
,  // measure 79
0000
0000
0010
0000
,  // measure 80
0000
0000
0100
0000
,  // measure 81
0000
0000
0100
0000
,  // measure 82
0000
0000
0010
0000
,  // measure 83
0000
0000
0010
0000
,  // measure 84
0000
0000
0001
0000
,  // measure 85
0000
0000
0001
0000
,  // measure 86
0000
0000
1000
0000
,  // measure 87
0000
0000
1000
0000
,  // measure 88
0010
0000
2000
0000
,  // measure 89
0000
3000
0002
0000
,  // measure 90
0000
0003
1000
0000
,  // measure 91
0000
0000
1000
0000
,  // measure 92
0000
0000
0100
0000
,  // measure 93
0000
0000
0100
0000
,  // measure 94
0000
0000
0010
0000
,  // measure 95
0000
0000
0010
0000
,  // measure 96
0001
0000
2000
0000
,  // measure 97
0000
3000
0002
0000
,  // measure 98
0000
0003
0200
0000
,  // measure 99
0000
0300
0020
0000
,  // measure 100
0000
0030
1000
0000
;
