#TITLE:Round and Round;
#SUBTITLE:;
#ARTIST:Masayoshi Minoshima feat. 綾倉盟;
#TITLETRANSLIT:;
#SUBTITLETRANSLIT:;
#ARTISTTRANSLIT:Masayoshi Minoshima feat. Mei Ayakura;
#CREDIT:;
#BANNER:[ROUND 1] - Round and Round.png;
#BACKGROUND:[ROUND 1] - Round and Round-bg.png;
#LYRICSPATH:;
#CDTITLE:;
#MUSIC:[ROUND 1] - Round and Round.mp3;
#OFFSET:-0.387;
#SAMPLESTART:81.460;
#SAMPLELENGTH:12.000;
#SELECTABLE:YES;
#BPMS:0.000=145.000,128.000=72.500,144.000=145.000;
#STOPS:;
#BGCHANGES:;

//---------------dance-single - ----------------
#NOTES:
     dance-single:
     :
     Hard:
     8:
     0.613,0.660,0.309,0.285,0.170:
0000
0000
0000
0000
,
0000
0000
0000
0000
,
0000
0000
0000
0000
,
0000
0000
0000
0000
,
1000
0100
1000
0100
0001
0100
0001
0100
,
1000
0010
1000
0010
0001
0010
0001
0010
,
1000
0010
0100
0001
0100
0010
1000
0001
,
2001
0000
0000
0000
3100
0000
1000
0001
1000
0000
0010
0000
0100
0010
0100
0000
,
0002
0000
0103
0000
0000
0001
0100
0000
0020
0000
1030
0000
0000
0010
1000
0000
,
0002
0000
0013
0000
0000
0001
0010
0000
0200
0000
1300
0000
0000
0100
1000
0000
,
0002
0000
1003
0000
0000
0001
1000
0000
0020
0000
0130
0000
0000
0010
0100
0000
,
0002
0000
0103
0000
0000
0010
1000
0000
0001
0000
0010
0000
1000
0000
0010
0000
,
0002
0000
1003
0000
0000
0100
1000
0000
0002
0000
0103
0000
0000
0001
1000
0000
,
0020
0000
1030
0000
0000
0001
1000
0000
0002
0000
0013
0000
0000
0001
1000
0000
,
0200
0000
0310
0000
0000
0001
0100
0000
0020
0000
1030
0000
0000
0100
0010
0000
,
0002
0000
1003
0000
0000
0010
0100
0000
0001
0000
0010
0000
1000
0000
0010
0000
,
0002
0000
0203
0000
0320
0000
1000
1030
,
0000
0010
1000
0100
0000
1000
0100
0010
,
0000
0100
0010
0001
0000
0010
0001
1000
,
0000
0001
1000
0100
0010
0010
0010
0000
,
0002
0000
0023
0000
0230
0000
1000
1300
,
0000
0100
1000
0010
0000
1000
0010
0100
,
0000
0010
0100
0001
0000
0100
0001
0010
,
0000
0000
0001
0000
0010
0000
0100
0000
1000
0001
1000
0001
0000
0001
1000
0001
,
0200
0000
0320
0000
2030
0000
0001
3001
,
0000
1000
0001
0100
0000
0001
0100
1000
,
0000
0100
1000
0010
0000
1000
0010
0001
,
0000
0010
0001
0100
0010
0010
0110
0000
,
0002
0000
2003
0000
3200
0000
0010
0310
,
0000
0100
0010
0001
0000
0010
0001
1000
,
0000
0001
1000
0100
0000
0100
0001
0010
,
0000
0001
0010
1000
0001
0100
0010
1000
,
0001
0000
1000
0100
1000
0000
0001
0000
1000
0010
1000
0000
0001
0000
0100
0010
,
0100
0000
0001
0000
0010
0100
0010
0000
0001
0100
0001
0000
0100
0010
0100
0000
,
0010
0000
1000
0100
1000
0000
0010
0000
1000
0001
1000
0000
0010
0000
0100
0001
,
0100
0000
0010
0000
1000
0001
1000
0000
0001
0100
0001
0000
1000
0100
1000
0001
,
1000
0100
0001
0100
0110
0000
0001
0100
,
1000
0100
0110
0000
0001
0010
1000
0010
,
0110
0000
1000
0010
0001
0010
0110
0000
,
0010
1000
0100
0001
0100
0100
1000
1000
,
0001
0100
1000
0100
1001
0000
1000
0100
,
0001
0100
1001
0000
0001
0010
1000
0010
,
1001
0000
1000
0010
0001
0010
1001
0000
,
1000
0100
0001
0100
1000
0010
0001
0010
,
2000
0000
0000
0000
0000
0000
0000
0000
0000
3000
0000
0000
0001
0000
0100
0000
0010
0000
1000
0000
0010
0000
0100
0000
,
0001
0100
0101
0000
1000
0100
1100
0000
,
0001
0010
0011
0000
0001
0100
0010
1000
,
0001
0010
0011
0000
0010
0100
0110
0000
,
0100
1000
1100
0000
1000
0010
0100
0001
,
1000
0010
1010
0000
0001
0010
0011
0000
,
1000
0100
1100
0000
0001
0100
1000
0100
,
0020
0100
0130
1001
,
1000
0000
0010
0000
0000
0100
0000
0001
0000
0100
0000
0010
2000
0000
3001
0000
,
1000
0010
0101
0000
0001
0010
1100
0000
,
0100
0010
1001
0000
0001
0100
0010
1000
,
0001
0100
1010
0000
0001
0010
1100
0000
,
0010
0100
1001
0000
1000
0100
0001
0100
,
1000
0010
1100
0000
0001
0010
0101
0000
,
1000
0001
0110
0000
1000
0010
0001
0010
,
0200
0010
0310
1001
,
0120
2030
3002
0203
,
0301
0010
1000
0010
0100
1000
0001
0001
,
1000
0010
0001
0010
0100
0001
1000
1000
,
0001
0010
1000
0010
0001
0100
0010
0010
,
1000
0100
0001
0100
1000
0010
0100
0100
,
0101
0100
0010
0100
0101
0001
0010
0100
,
0110
0010
0001
0100
0110
0010
1000
0100
,
1100
0100
0001
0100
1100
1000
0010
0001
,
0011
0000
0010
0000
1000
0000
0100
0000
1100
0000
0001
0100
0001
0000
1000
0100
,
2000
0000
3000
0000
;

//---------------dance-single - ----------------
#NOTES:
     dance-single:
     :
     Easy:
     4:
     0.277,0.275,0.024,0.055,0.000: // measure 1
0000
0000
0000
0000
,  // measure 2
0000
0000
0000
0000
,  // measure 3
0000
0000
0000
0000
,  // measure 4
0000
0000
0000
0000
,  // measure 5
1000
1000
1000
1000
,  // measure 6
0001
0001
0001
0001
,  // measure 7
0100
0100
0010
0010
,  // measure 8
2002
0000
0000
3003
,  // measure 9
1000
0100
0010
0100
,  // measure 10
1000
0100
0010
0100
,  // measure 11
1000
0010
0100
0010
,  // measure 12
1000
0010
0100
0010
,  // measure 13
1000
0001
0010
0001
,  // measure 14
1000
0001
0010
0001
,  // measure 15
0100
0010
0100
0001
,  // measure 16
0010
0100
1000
0001
,  // measure 17
1000
0000
1000
0000
,  // measure 18
0001
0000
0001
0000
,  // measure 19
0100
0000
0100
0000
,  // measure 20
0010
0000
0100
0100
,  // measure 21
0001
0000
0001
0000
,  // measure 22
0010
0000
0010
0000
,  // measure 23
0100
0000
0100
0000
,  // measure 24
1000
0000
0001
0001
,  // measure 25
1000
0010
0100
0001
,  // measure 26
1000
0100
0010
0001
,  // measure 27
1000
0010
0001
0010
,  // measure 28
0100
0001
1000
1000
,  // measure 29
0001
0010
0100
0010
,  // measure 30
1000
0010
0001
0100
,  // measure 31
0010
1000
0100
0010
,  // measure 32
0001
0100
0010
0010
,  // measure 33
1000
0000
0000
0100
0000
0000
0010
0000
,  // measure 34
0000
0001
0000
0000
0100
0000
0100
0000
,  // measure 35
0010
0000
0000
1000
0000
0000
0100
0000
,  // measure 36
0000
0010
0000
0000
0001
0000
1000
0000
,  // measure 37
0001
0001
0001
0100
,  // measure 38
0100
0100
0010
0010
,  // measure 39
0010
1000
1000
1000
,  // measure 40
0001
0010
0100
1000
,  // measure 41
0001
0001
0001
0100
,  // measure 42
0100
0100
1000
1000
,  // measure 43
1000
0100
0100
0100
,  // measure 44
0001
0010
0100
1000
,  // measure 45
0002
0003
1000
1001
,  // measure 46
1000
0010
1000
0010
,  // measure 47
0001
0010
0001
0010
,  // measure 48
1000
0100
1000
0100
,  // measure 49
0001
0100
0001
0100
,  // measure 50
1000
0010
0100
0001
,  // measure 51
1000
0100
0010
0001
,  // measure 52
2000
0000
3000
0001
,  // measure 53
1000
0100
0010
0001
,  // measure 54
1000
0010
1000
0010
,  // measure 55
0001
0010
0001
0010
,  // measure 56
1000
0100
1000
0100
,  // measure 57
0001
0100
0001
0100
,  // measure 58
1000
0010
0100
0001
,  // measure 59
1000
0100
0010
0001
,  // measure 60
2000
0000
3000
0001
,  // measure 61
1000
0100
0010
0001
,  // measure 62
1000
0100
0001
0100
,  // measure 63
1000
0100
0001
0100
,  // measure 64
1000
0010
0001
0010
,  // measure 65
1000
0010
0001
0010
,  // measure 66
1000
0100
0001
0100
,  // measure 67
1000
0010
0001
0010
,  // measure 68
1000
0100
0010
0001
,  // measure 69
0010
0100
1000
0001
,  // measure 70
2002
0000
3003
0000
;

//---------------dance-single - ----------------
#NOTES:
     dance-single:
     :
     Medium:
     6:
     0.475,0.468,0.238,0.222,0.000: // measure 1
0000
0000
0000
0000
,  // measure 2
0000
0000
0000
0000
,  // measure 3
0000
0000
0000
0000
,  // measure 4
0000
0000
0000
0000
,  // measure 5
1000
1100
0001
0101
,  // measure 6
1000
1010
0001
0011
,  // measure 7
1000
0001
1000
0001
1000
0001
1000
0001
,  // measure 8
0020
0030
0100
1001
,  // measure 9
2000
3010
0000
0000
0200
0301
0000
0000
,  // measure 10
0020
0130
0000
0000
2000
3001
0000
0000
,  // measure 11
2000
3100
0000
0000
0020
0031
0000
0000
,  // measure 12
0200
0310
0000
0000
1000
0001
1000
0001
,  // measure 13
0200
0301
0000
0000
0020
0130
0000
0000
,  // measure 14
2000
3001
0000
0000
0200
0310
0000
0000
,  // measure 15
2000
3100
0000
0000
0020
0031
0000
0000
,  // measure 16
0200
0310
0000
0000
1000
0100
0010
0001
,  // measure 17
1000
1000
0010
0110
,  // measure 18
0001
0001
0010
0110
,  // measure 19
1000
1000
0001
0110
,  // measure 20
0001
0100
0001
0000
1000
0100
1000
0000
,  // measure 21
0001
0001
0010
1100
,  // measure 22
1000
1000
0010
0101
,  // measure 23
0010
0010
0100
1001
,  // measure 24
1000
0100
0001
0000
0001
0100
1000
0001
,  // measure 25
1000
0010
0100
0101
,  // measure 26
0001
0010
0100
1100
,  // measure 27
0010
0100
0001
1001
,  // measure 28
1000
0010
0100
0000
0100
0010
1000
0000
,  // measure 29
0001
0010
0100
1001
,  // measure 30
0100
0010
0001
1001
,  // measure 31
0001
0100
0010
1010
,  // measure 32
1000
0100
0001
0000
0001
0100
1000
0001
,  // measure 33
0100
0010
0010
0100
0001
0001
0100
1000
,  // measure 34
1000
0100
0010
0010
0100
0001
0010
0100
,  // measure 35
1000
0010
0010
1000
0001
0001
1000
0100
,  // measure 36
0100
1000
0001
0001
1000
0010
0100
0001
,  // measure 37
1000
0100
1000
0100
1000
0000
0100
1000
,  // measure 38
0100
1000
0100
0000
0010
0001
0010
0001
,  // measure 39
0010
0000
0001
0010
0001
0010
0001
0000
,  // measure 40
1000
0001
1000
0000
0100
0010
0100
0000
,  // measure 41
0001
0100
0001
0100
0001
0000
0100
0001
,  // measure 42
0100
0001
0100
0000
0010
1000
0010
1000
,  // measure 43
0010
0000
1000
0010
1000
0010
1000
0000
,  // measure 44
0001
0010
0001
0010
0100
1000
0100
1000
,  // measure 45
0002
1003
0101
1100
,  // measure 46
0001
0100
0010
0000
0100
0010
1000
0000
,  // measure 47
0010
1000
0100
0000
1000
0000
1001
0000
,  // measure 48
0001
0010
0100
0000
0010
0100
1000
0000
,  // measure 49
0100
1000
0001
0000
0100
0000
0110
0000
,  // measure 50
0010
1000
0001
0000
1000
0001
0100
0000
,  // measure 51
0001
0100
0010
0000
1000
0000
1001
0000
,  // measure 52
0102
0010
0103
1001
,  // measure 53
0002
0203
0320
2030
,  // measure 54
3001
0010
0100
0000
0010
0100
1000
0000
,  // measure 55
0100
1000
0001
0000
0100
0000
1010
0000
,  // measure 56
0001
0010
0100
0000
0010
0100
1000
0000
,  // measure 57
0100
1000
0001
0000
0100
0000
1010
0000
,  // measure 58
0001
0010
0100
0000
0010
0100
1000
0000
,  // measure 59
0100
1000
0001
0000
0100
0000
1010
0000
,  // measure 60
1002
0100
0103
1001
,  // measure 61
0002
0023
0230
2300
,  // measure 62
3001
0100
0001
0100
0001
0100
0001
0000
,  // measure 63
1000
0100
1000
0100
1000
0100
1000
0000
,  // measure 64
0001
0010
0001
0010
0001
0010
0001
0000
,  // measure 65
1000
0010
1000
0010
1000
0010
1000
0000
,  // measure 66
0001
1000
0001
1000
0010
0100
0010
0100
,  // measure 67
1000
0001
1000
0001
0100
0010
0100
0010
,  // measure 68
1000
0001
0100
0010
1000
0001
0100
0010
,  // measure 69
1000
0001
0010
0100
1000
0001
0010
0100
,  // measure 70
2002
0000
3003
0000
;
