#TITLE:ローゼンさとりん;
#SUBTITLE:;
#ARTIST:Drop;
#TITLETRANSLIT:Rosen Satorin;
#SUBTITLETRANSLIT:;
#ARTISTTRANSLIT:;
#CREDIT:;
#BANNER:;
#BACKGROUND:;
#LYRICSPATH:;
#CDTITLE:;
#MUSIC:[ROUND 1] - Rosen Satorin.mp3;
#OFFSET:-0.620;
#SAMPLESTART:40.425;
#SAMPLELENGTH:12.000;
#SELECTABLE:YES;
#BPMS:0.000=151.000;
#STOPS:31.500=1.589
;
#BGCHANGES:;

//---------------dance-single - ----------------
#NOTES:
     dance-single:
     :
     Hard:
     11:
     0.930,1.000,0.390,0.121,0.847:
0000
0000
0000
0000
,
1001
0000
0001
0000
1000
0000
0100
0010
0100
0000
0010
0000
0001
0000
1000
0000
,
0001
0000
0100
0000
0010
0000
1000
0000
0002
0000
0000
0100
0000
0000
1000
0000
,
1003
0000
0010
0000
1000
0000
0001
0100
0001
0000
1000
0010
1000
0000
0001
0000
,
0101
0000
0000
0000
0100
0000
0010
1000
0020
0000
0000
1000
0000
0000
0100
0000
,
0130
0000
0010
0000
1000
0000
0001
1000
0010
0000
1000
0000
0001
0000
1000
0000
,
1001
0000
0001
0000
0100
0000
0010
0000
1000
0000
0001
0010
0100
1000
0100
0010
,
0100
0000
0010
0000
0001
0000
1000
0010
0100
0001
1000
0000
0010
0000
1000
0000
,
1001
0000
0001
0000
0101
0000
0100
0010
1000
0001
1000
0000
0001
0000
0100
0000
,
0010
0000
1000
0000
0001
0000
1000
0100
0010
0000
0010
0000
0001
0000
0100
0000
,
0010
0000
0000
0000
1001
0000
1000
0100
1000
0000
0001
0000
0100
0000
0010
0000
,
1000
0000
0001
0000
0010
0000
0100
1000
0001
0100
0010
0000
1000
0000
0001
0000
,
1001
0000
1000
0000
0001
0000
0100
0010
0100
0010
0100
0000
0001
0000
1000
0000
,
0100
0000
0010
0000
0001
0000
1000
0010
1000
0000
0001
0000
0100
0000
0010
0000
,
1000
0001
0100
0010
1010
1000
0001
0100
,
0010
0000
1000
0001
2000
0000
0000
0000
3001
0100
0010
1000
0010
1000
0001
1000
,
0002
0000
0100
0000
0103
0000
0010
1000
0010
0000
0100
0000
0002
0000
1000
0000
,
1003
0000
0010
0000
1010
0000
1000
0001
1000
0000
0001
0000
0100
0000
0010
0000
,
1000
0000
1000
0000
0100
0000
0010
0001
1000
0000
0000
0100
0000
0000
0001
0000
,
0100
0000
0000
0000
0000
0000
1000
0001
1000
0000
0001
0100
0001
0000
0000
0000
,
1001
0000
0000
0000
0001
0000
1000
0001
0100
0000
0000
0010
0000
0000
0001
0000
,
0010
0000
0100
0000
0001
0000
1000
0010
1000
0000
0001
0000
0100
0000
0010
0000
,
1010
0000
1000
0000
0001
0000
0100
0010
0100
0000
0010
1000
0001
0010
0001
1000
,
0001
0010
0001
0010
0100
1000
0100
1000
0001
0100
0001
0100
0010
1000
0010
1000
,
0001
0000
0010
0100
1000
0000
0001
0100
0010
0000
1000
0100
0010
0000
0001
0000
,
0100
0000
0010
0000
1010
0000
1000
0001
1000
0000
0001
0000
1000
0000
0010
0000
,
1000
0000
0001
0000
1001
0000
1000
0001
0100
0000
0000
0010
0000
0000
1000
0000
,
0001
0000
0000
0000
0000
0000
1000
0001
1000
0000
0001
0100
0001
0000
0000
0000
,
1001
0000
1000
0001
1000
0000
0001
0100
0001
0000
1000
0100
1000
0000
0001
0000
,
0100
0000
0010
0000
1000
0000
0001
0010
0001
0000
1000
0000
0100
0000
0010
0000
,
0011
0000
0001
0000
0100
0000
0010
0000
1010
0000
1000
0100
1000
0100
0010
0001
,
1000
0100
1000
0100
0010
0001
0010
0001
1000
0001
0010
0100
1000
0100
0010
0001
,
2000
0000
0000
0000
0000
0000
0000
0000
3001
0000
0000
0000
0000
0000
0000
1000
0100
0000
0000
0000
0000
0000
0000
1000
0001
0000
0000
0000
0000
0000
0000
0000
,
0001
0000
0000
0000
0010
0000
0000
0000
0100
0000
0000
0000
0000
0000
0000
0100
1000
0000
0000
0000
0000
0000
0000
0000
0001
0000
0000
0000
1000
0000
0000
0000
,
0001
0000
0000
0000
0000
0000
0000
1000
0010
0000
0000
0000
0100
0000
0000
0000
0002
0000
0000
0000
0000
0000
0000
0000
0203
0000
0000
0000
0000
0000
0000
0000
,
0320
0000
0000
0000
1030
0000
0001
0100
0001
0000
0100
0000
0010
0000
1000
0000
,
1010
0000
1000
0100
1000
0000
0001
0100
0001
0000
1000
0100
0010
0000
0001
0000
,
1000
0000
0001
0100
0001
0000
0100
0001
0100
0000
0001
0100
0001
1000
0010
1000
,
0002
0000
1003
0010
0210
0000
0301
0000
,
0001
0010
0100
1000
0001
0100
0010
1000
0100
0010
0100
1000
0001
0100
0010
1000
,
0001
0000
0010
0000
0011
0000
0001
0100
0001
0000
0101
0000
0010
0000
1000
0000
,
0010
0000
0100
0000
0101
0000
0010
1000
0010
0000
1010
0000
0100
0000
0001
0000
,
0100
0000
0010
0000
1010
0000
1000
0001
1000
0000
1001
0000
0001
0000
0100
0000
,
0010
0000
1000
0000
1010
0000
1000
0001
0100
0000
0101
0000
0010
0000
1000
0000
,
1001
0000
0001
0100
0001
0000
1000
0010
1000
0000
0001
0010
0100
0000
1000
0000
,
1010
0000
0100
0001
0100
0000
0010
1000
0010
0000
0100
0001
0100
0000
0010
0000
,
1000
0100
1000
0100
0010
0001
0010
0001
1000
0010
1000
0010
0100
0001
0100
0001
,
0101
0000
0000
0000
0000
0000
0000
0000
0000
1010
0000
0000
0000
0000
0000
0000
0000
0000
0101
0000
0000
0000
0000
0000
0000
0000
0000
1010
0000
0000
0000
0000
0000
0000
0000
0000
1001
0000
0000
0000
0000
0000
0001
0000
0010
0000
0001
0000
,
0010
0100
1000
0100
0010
0001
0100
0010
1000
0100
0010
0100
1000
0001
0100
0010
,
1000
0000
0000
0100
0000
0000
0010
0000
0000
0100
0000
0000
1000
0000
0000
0001
0000
0000
0100
0000
0000
0001
0000
0000
1000
0000
0000
0010
0000
0000
1000
0000
0000
0001
0000
0000
1000
0000
0000
0000
0000
0000
0001
0000
0100
0000
0001
0000
,
1000
0000
0010
0000
0000
0000
0010
0100
0010
0000
1000
0000
0001
0000
0100
0000
,
0020
0000
0000
0000
0000
0000
0031
0100
0001
0000
0100
0000
0010
0000
1000
0000
,
0010
0100
0100
0100
0001
0100
0100
0100
,
0010
0000
0000
1000
0000
0000
0010
0100
0001
0000
0100
0010
1000
0000
0000
0000
,
0002
0000
0000
0000
1003
0000
0010
0100
0010
0000
0000
1000
0000
0000
0001
0000
,
1000
0000
0100
0000
0001
0000
0100
0010
0001
0000
1000
0000
0100
0000
0010
0000
,
0100
0000
1000
0000
0100
0000
0010
0000
0001
0000
1000
0010
0100
0001
0100
0010
,
1000
0000
0000
1001
0000
0000
0001
0100
0010
1000
0100
0010
0100
0000
0010
0001
,
0010
0000
0001
1000
0001
0000
1000
0010
1000
0000
0001
1000
0001
0000
1000
0000
,
0010
0000
0100
0000
0110
0000
0100
0001
0100
0000
0010
0000
1000
0000
0001
0000
,
0100
0000
0010
0000
0010
0000
1000
0001
1000
0000
0000
0100
0000
0000
0010
0000
,
0001
0000
0000
0000
0000
0000
1000
0010
1000
0000
0001
0100
0001
0000
0000
0000
,
1001
0000
1000
0100
0010
0000
0001
0010
0100
0000
1000
0010
1000
0000
0001
0000
,
0100
0000
0010
0000
1000
0000
0001
0100
0001
0000
0010
0000
0100
0000
1000
0000
,
1001
0000
0001
0000
0100
0000
0010
0000
1010
0000
1000
0100
1000
0001
0010
0001
,
1000
0100
1000
0000
0001
0000
0100
0010
1000
0010
1000
0010
0100
0001
0100
0001
,
1000
0000
0000
0000
0001
0000
0100
0000
0001
0000
0000
0000
1000
0000
0010
0000
1000
0000
0000
0000
0000
0000
0000
0001
0100
0000
0000
0000
1000
0000
0010
0000
,
1000
0000
0001
0100
0001
0000
1000
0010
1000
0000
0001
0000
0100
0000
0100
0000
,
0100
0000
0000
0000
0000
0000
0000
0010
1000
0000
0000
0000
0001
0000
0000
0000
1000
0000
0000
0000
0000
0000
0000
0000
1010
0000
0000
0000
1000
0000
0001
0000
,
0100
0000
0010
1000
0001
0000
1000
0010
0100
0000
0001
0000
1000
0000
0010
0000
,
1010
0000
1000
0001
1000
0000
0001
0100
0001
0000
1000
0010
1000
0000
0001
0000
,
0100
0000
0010
1000
0010
0000
0100
0001
0100
0000
0001
0010
0001
1000
0010
1000
,
0001
0000
0000
0000
1000
0000
0010
1000
1010
0000
0000
0000
1000
0000
0000
0000
,
0001
0000
0000
0100
0000
0000
0001
0000
0000
0000
0000
0000
1000
0000
0000
0000
0000
0000
0001
0000
0100
0000
0010
0000
1000
0000
0000
0010
0000
0000
1000
0000
0000
0010
0000
0000
0100
0000
0000
0001
0000
0000
0100
0000
0010
0000
0100
0000
,
0010
0000
0000
0000
1000
0000
0010
0000
1000
0000
0000
0000
0001
0000
0100
0001
0100
0000
0000
0000
0010
0000
0000
0000
0000
0000
0000
0000
1000
0000
0100
0000
,
1000
0000
0001
0010
0001
0000
1000
0010
1000
0000
0001
0000
1000
0000
0100
0000
,
0010
0000
0000
0000
0000
0000
0000
0001
0100
0000
0000
0000
0010
0000
0000
1000
0010
0000
0000
0000
0000
0000
0000
0000
1001
0000
0000
0000
0000
0000
0000
0000
,
0101
0000
0100
0010
0100
0000
0010
1000
0010
0000
0100
0000
0001
0000
0001
0100
,
0001
0000
1000
0100
1000
0000
0001
0100
0001
0000
1000
0100
0010
0000
0000
0000
,
1001
0000
0001
1000
0001
0000
0100
0001
0100
0000
0010
1000
0010
0000
1000
0000
,
0001
0010
0001
0010
0100
1000
0100
1000
0001
0100
0001
0100
0001
1000
0010
1000
,
1010
0000
0000
0000
0000
0000
0000
0000
0000
0101
0000
0000
0000
0000
0000
0000
0000
0000
1001
0000
0000
0000
0000
0000
0000
0000
0000
1010
0000
0000
0000
0000
0000
0000
0000
0000
1001
0000
0000
0000
0000
0000
1000
0000
0001
0000
0100
0000
,
0001
0000
0001
0000
0001
0000
0100
0010
0100
0000
0010
0000
0010
0000
0010
0000
,
1000
0000
1000
0000
1000
0000
0001
0100
0001
0000
0100
0000
0100
0000
0100
0000
,
2010
0000
0000
0000
3001
0000
0010
0001
0010
0000
0100
0000
1000
0000
0001
0000
,
0102
0000
0000
0000
1003
0000
0100
0010
0001
0100
0010
0000
1000
0000
0001
0100
,
0020
0000
1000
0000
1030
0000
0001
0100
0010
1000
0001
0000
1000
0000
1000
0000
,
0001
0010
0100
1000
0001
0010
0001
1000
0010
0100
0001
0100
0010
1000
0100
0010
,
0100
1000
0001
0100
0010
1000
0100
0010
0001
0100
0010
1000
0100
0010
0100
1000
,
1100
0000
0000
1010
0000
0000
0101
0000
1001
0000
0000
1010
0000
0000
0101
0000
,
0100
0001
0100
0001
0100
0000
0001
0000
2002
0000
0000
0000
0000
0000
0000
0000
3003
0000
0000
0000
0000
0000
0000
0000
0000
0000
0000
0000
0000
0000
0000
0000
;

//---------------dance-single - ----------------
#NOTES:
     dance-single:
     :
     Medium:
     8:
     0.584,0.576,0.262,0.249,0.192:
0000
0000
0000
0000
,
1000
0000
0001
0100
,
0010
0000
1000
0000
0010
0000
1000
0000
0001
0000
0000
0100
0000
0000
0010
0000
,
1000
0000
0000
0001
0010
0100
1000
0000
,
1001
0000
0000
0000
0001
0000
0100
0000
1000
0000
0000
0100
0000
0000
0001
0000
,
1000
0100
0010
0001
2000
0000
3000
0000
,
0001
0000
0100
0000
0010
1000
0010
0100
,
0010
0000
0000
1000
0100
0010
0001
1000
,
0001
0010
0001
0010
0100
1000
0100
1000
,
0001
0100
0001
0100
0010
1000
0010
1000
,
0002
0000
0000
0000
0003
1000
0010
0100
,
0001
0010
0100
1000
0010
0100
0001
1000
,
0001
0010
0100
1000
0100
0001
0100
1000
,
0010
0100
0001
1000
0100
0010
0100
1000
,
1100
0000
1001
0000
,
1001
0000
0100
0000
0010
1000
0001
0000
,
1001
0000
0000
0000
0000
0000
0001
1000
0001
0000
0100
0000
0010
0000
1000
0000
,
0001
0100
0010
1000
0100
0000
0000
0010
,
0001
0000
0001
0000
0100
0000
0100
0000
0010
0000
0000
0010
0000
0000
0010
0000
,
1000
0000
0000
0001
0100
0010
1010
0000
,
1000
0000
0000
0000
0001
0000
0100
0000
0010
0000
0000
1000
0000
0000
0001
0000
,
1000
0100
0010
0100
1000
0100
0010
0001
,
1000
0000
0001
0000
0100
0010
1000
0100
,
0010
0000
0000
0001
0100
0010
1000
1000
,
1001
0000
0000
0001
1000
0000
0000
1000
0010
0000
0000
0010
0100
0000
0001
0000
,
0100
0000
0010
0000
1000
0000
0001
1000
0001
0000
1000
0000
0010
0000
0100
0000
,
0001
0000
1000
0000
0001
0000
1000
0000
0100
0000
0000
0010
0000
0000
0001
0000
,
0010
0000
0000
0010
0100
1000
0001
0000
,
1001
0000
0000
0001
0100
0000
0000
0100
0010
0000
0000
0001
1000
0000
0100
0000
,
0010
0001
0010
0100
1000
0001
0100
0010
,
1010
0000
1000
0000
1001
0000
0001
0100
,
0020
0000
0000
0030
,
1002
0000
2003
3002
,
0203
0000
0000
0000
0000
0000
0310
1000
,
0020
0000
0130
0001
0100
0000
1010
0000
,
1001
0000
0000
0001
0100
0010
1000
0001
,
1001
0000
0000
1000
0100
0000
0000
1000
0100
0000
0000
1000
0100
0000
0010
0000
,
0001
0000
0000
0100
0010
0000
0000
0001
0010
0000
0000
0100
0010
0000
0001
0000
,
1001
0000
1000
0010
0101
0000
0001
0000
,
2000
0000
0000
3001
0100
0000
0010
1000
,
1002
0000
0203
0000
,
0320
0000
0000
0000
0030
0000
0001
0100
,
1000
0000
1000
0100
0002
0000
0023
0000
,
2030
0000
3010
0001
0100
0010
1000
0001
,
0100
0000
0000
0100
0010
0000
0000
0010
1000
0000
0000
1000
0001
0000
1000
0000
,
0001
0000
0000
0001
0100
0000
0000
0100
1000
0000
0000
1000
0100
0000
0001
0000
,
1000
0000
0100
0001
0100
0000
0010
1000
,
1010
0000
0000
1001
0000
0000
0110
0000
0000
1001
0000
0000
0000
0000
0000
0000
,
0101
0001
0100
0001
0100
0010
1000
0010
,
1000
0001
0010
0100
1000
0001
0100
0000
,
1001
0000
0001
0000
0000
0000
0010
0100
0010
0000
0100
0000
1000
0000
0100
0000
,
0020
0000
0000
0000
0000
0000
0031
0100
0001
0000
0100
0000
0010
0000
1000
0000
,
0010
0100
0100
0100
0001
0100
0100
0100
,
0010
0000
0000
1000
0000
0000
0010
0000
0100
0000
0001
0000
1000
0000
0000
0000
,
0002
0000
0000
0000
1003
0000
0010
0100
0010
0000
0000
1000
0000
0000
0001
0000
,
1000
0100
0001
0100
1000
0100
0010
0000
,
0100
1000
0100
0000
0010
0001
1000
0000
,
0001
0000
0000
0001
0000
0000
0001
0000
0010
0000
0100
0000
1000
0000
0000
0001
,
0100
0000
0000
0001
0100
0000
0000
0010
1000
0000
0000
0010
1000
0000
0001
0000
,
0010
0100
1000
0100
0100
0010
0001
0010
,
0100
0000
1000
0000
0010
0000
1000
0000
0001
0000
0000
0100
0000
0000
0010
0000
,
1000
0000
0000
1000
0100
1000
0001
0000
,
1001
0000
0000
0100
0010
0000
0000
0010
0100
0000
0000
1000
0100
0000
0010
0000
,
0001
0010
0100
1000
0001
0010
0100
0000
,
1001
0000
0100
0000
1010
0000
1000
0002
,
2000
0000
0000
3003
,
2001
3200
0320
2030
,
0002
0000
3000
0000
0000
0000
1003
0010
,
0200
0000
0301
0100
0020
0000
2030
0000
,
3002
0000
1003
0000
0000
1000
0000
0001
,
1001
0000
0000
1000
0010
0000
0000
1000
0010
0000
0000
0100
0001
0000
0100
0000
,
0010
0000
0000
0010
1000
0000
0000
1000
0001
0000
0000
0001
1000
0000
0001
0000
,
1000
0000
0001
0100
0101
0000
0010
0000
,
2020
0000
3030
0001
,
2010
0000
0002
3000
,
2000
0000
0000
0000
0003
0000
3010
0100
,
0001
0000
1000
0100
0002
0000
0203
0000
,
2300
0000
3001
0000
0100
0100
0000
0010
,
1010
0000
0000
1000
0001
0000
0000
1000
0001
0000
0000
1000
0010
0000
0100
0000
,
0001
0000
0000
0001
0100
0000
0000
0100
0010
0000
0000
0010
1000
0000
0001
0000
,
1000
0000
0001
0001
0000
1000
1000
0000
,
0101
0000
0000
1010
0000
0000
1001
0000
0000
0101
0000
0000
1010
0000
0000
0000
,
1000
0100
1000
0100
0001
0100
0001
0100
,
1000
0100
1000
0001
0010
0001
0010
1000
,
0020
0000
0000
0000
0000
0031
1000
0100
,
0010
0001
0100
0010
1000
0100
0010
0001
,
1000
0001
0100
1000
0100
0001
0010
1000
,
0010
0001
0100
0010
1000
0100
0001
0100
,
1000
0010
0101
0010
,
1000
0000
0000
1000
0000
0000
1000
0000
0001
0000
0000
0001
0000
0000
0001
0000
,
0000
1001
0000
0000
;

//---------------dance-single - ----------------
#NOTES:
     dance-single:
     :
     Easy:
     4:
     0.259,0.334,0.060,0.034,0.013: // measure 1
0000
0000
0000
0000
,  // measure 2
0000
0000
0000
0000
,  // measure 3
1000
0000
0001
0000
,  // measure 4
1000
0000
0010
0010
,  // measure 5
1000
0000
0001
0000
,  // measure 6
0100
0000
0010
0000
,  // measure 7
1000
0001
1000
0000
,  // measure 8
0010
0000
1000
0001
,  // measure 9
1001
1000
0010
0100
,  // measure 10
0001
0010
0100
1000
,  // measure 11
0002
0000
0000
1003
,  // measure 12
0010
0100
0001
0010
,  // measure 13
0100
1000
0100
1000
,  // measure 14
0001
0010
0001
1000
,  // measure 15
0002
0000
0000
0003
,  // measure 16
1001
0000
0010
0000
,  // measure 17
1000
0000
0001
1000
,  // measure 18
0001
0000
1000
0000
,  // measure 19
0010
0100
0010
0000
,  // measure 20
1000
0000
0001
0001
,  // measure 21
1001
0000
1000
0010
,  // measure 22
0100
0000
0001
0010
,  // measure 23
0100
0000
1000
0001
,  // measure 24
1000
0000
0010
0100
,  // measure 25
0010
0000
1000
0000
,  // measure 26
0001
1000
0010
0000
,  // measure 27
0100
0001
1000
0000
,  // measure 28
0001
0000
1000
0001
,  // measure 29
1001
0000
0010
0000
,  // measure 30
1000
0001
0100
0000
,  // measure 31
0010
1000
0001
0100
,  // measure 32
0100
0000
0010
1000
,  // measure 33
0001
1000
0010
1000
,  // measure 34
0001
0000
0000
1000
,  // measure 35
1000
0001
0100
0010
,  // measure 36
1000
0000
0000
0000
,  // measure 37
0001
0000
1000
0000
,  // measure 38
0010
0000
1000
0000
,  // measure 39
0001
0000
0100
0000
,  // measure 40
0010
0000
1000
0000
,  // measure 41
0001
1000
0010
0100
,  // measure 42
0001
0010
0000
0100
,  // measure 43
1000
0001
1000
0010
,  // measure 44
0100
0001
0000
0000
,  // measure 45
1000
0001
1000
0001
,  // measure 46
0100
0010
0100
0010
,  // measure 47
1000
0001
1000
0010
,  // measure 48
1000
0000
0000
0001
0000
0000
1000
0000
0000
0001
0000
0000
1000
0000
0000
0000
,  // measure 49
1001
0100
0010
1000
,  // measure 50
0001
0010
0100
1000
,  // measure 51
0001
0000
1000
0000
,  // measure 52
0001
0000
0100
0000
,  // measure 53
0010
0000
1000
0000
,  // measure 54
0001
0000
1000
1000
,  // measure 55
0001
1000
0010
0000
,  // measure 56
1000
0000
0001
0000
,  // measure 57
0100
0100
0010
0000
,  // measure 58
1000
0000
0001
0000
,  // measure 59
1001
0000
1000
1000
,  // measure 60
1000
0100
0100
0100
,  // measure 61
0010
0010
0010
0000
,  // measure 62
0001
0000
1000
0001
,  // measure 63
1000
0001
0100
0000
,  // measure 64
0010
1000
0001
0000
,  // measure 65
1000
1000
0001
1000
,  // measure 66
0001
0000
0000
0000
,  // measure 67
2000
0000
3001
0100
,  // measure 68
0020
0000
0000
1030
,  // measure 69
0001
0100
0100
0010
,  // measure 70
1000
0000
0001
0000
0000
1000
0000
0000
,  // measure 71
0001
0100
0010
1000
,  // measure 72
0000
0001
1000
0001
,  // measure 73
1000
1000
0010
0010
,  // measure 74
0100
0000
0100
0000
,  // measure 75
1001
0000
1000
0000
,  // measure 76
0001
0100
0000
0010
,  // measure 77
1000
1000
0001
1000
,  // measure 78
0010
0000
1000
0000
,  // measure 79
0001
1000
0001
1000
,  // measure 80
0001
1000
0010
1000
,  // measure 81
0001
0100
0001
0100
,  // measure 82
0001
0000
0000
1000
0000
0000
0000
0000
,  // measure 83
1001
0000
1000
0000
,  // measure 84
0010
0010
1000
0000
,  // measure 85
0002
0000
0000
1003
,  // measure 86
0000
0001
0000
0001
,  // measure 87
0000
1000
0000
1000
,  // measure 88
0000
0010
0000
0100
,  // measure 89
0001
0000
1000
0000
,  // measure 90
1000
0000
0000
1000
0000
0000
0000
0000
0001
0000
0000
0001
0000
0000
0000
0000
,  // measure 91
0000
1001
0000
0000
;
