#TITLE:Präludium;
#SUBTITLE:;
#ARTIST:Yuko Takahashi;
#TITLETRANSLIT:Praludium;
#SUBTITLETRANSLIT:;
#ARTISTTRANSLIT:;
#GENRE:;
#CREDIT:;
#BANNER:Praludium-banner.png;
#BACKGROUND:Praludium-bg.png;
#LYRICSPATH:;
#CDTITLE:cdtitle.png;
#MUSIC:[ROUND 1] - Praludium.mp3;
#OFFSET:-1.610;
#SAMPLESTART:15.856;
#SAMPLELENGTH:12.632;
#SELECTABLE:YES;
#BPMS:0.000=76.000
,2.000=152.000
,18.000=76.000
,26.000=152.000
,126.000=76.000
,138.000=152.000
;
#STOPS:
;
#BGCHANGES:;
#KEYSOUNDS:;
#ATTACKS:;

//---------------dance-single - Rygon----------------
#NOTES:
     dance-single:
     X-14:
     Hard:
     9:
     0.701,0.743,0.463,0.646,0.345,435.000,53.000,74.000,0.000,0.000,0.000,0.701,0.743,0.463,0.646,0.345,435.000,53.000,74.000,0.000,0.000,0.000:
0000
0000
0000
0000
0110
0000
0000
1000
,
0002
0000
0000
0000
0000
0000
0000
0000
0013
0000
0100
0000
0000
1000
0100
0000
,
1000
0000
0001
0100
0110
0000
0000
1000
,
0002
0000
0010
0010
0013
0001
0000
0101
,
1020
0000
0000
0000
0000
0000
0000
0000
0230
0000
0000
0000
0000
0000
0000
0000
0310
0000
0000
0010
1000
0000
0000
0001
1000
0000
0000
0100
1000
0000
0000
0001
,
1000
0100
0010
0001
0200
0000
0000
0000
1300
0100
0001
0010
0021
0000
0000
0000
,
0031
0010
1000
0010
0001
0100
0010
0100
0001
0000
0010
0000
0110
0000
1100
0000
,
1000
0010
0110
0101
0002
0000
0100
1003
,
2100
0000
0100
3001
1000
0100
0000
0110
,
1001
0000
0001
0000
2000
0010
3001
0011
,
0002
0010
1003
1010
1000
0100
0010
0011
,
1100
0000
0000
0000
0010
0000
0001
0100
0002
0000
0100
0000
1003
0000
0001
0000
,
2000
0100
3001
1000
0001
0010
0110
0100
,
1100
0000
0001
0000
2000
0100
3001
1000
,
0002
0100
1003
0001
1000
0010
0110
0100
,
0101
0000
0000
0000
1000
0000
0000
1000
0001
0000
0000
0000
0000
0000
0100
0010
,
0200
0000
0000
0310
1000
0100
0000
1100
,
1001
0000
0000
0000
0001
0000
0000
0000
1000
0000
0000
0100
0010
0000
0010
0000
,
0002
0000
0103
0010
2000
0100
0000
3001
,
1001
0000
0000
0000
0010
0000
1000
0002
1000
0000
0000
0000
0010
0000
0100
0000
,
1000
0000
2003
0000
0010
0000
0100
0000
3001
0000
0010
0001
0010
0000
0100
1000
,
0100
0000
0010
0000
0001
0100
0000
0200
0001
0000
0000
0000
0010
0000
0301
0000
,
0012
0000
0100
1003
1000
1001
0001
1001
,
1000
0000
1020
0230
,
2300
3020
0032
0203
,
1000
0302
0023
2030
,
3200
0302
0023
1000
,
0001
0000
0130
1000
0020
0100
0130
0001
,
0020
0100
0130
1000
0002
0100
0103
1000
,
0200
0001
0301
0010
0200
1000
1300
0010
,
0002
0010
0013
1000
0100
0001
0100
1000
,
0001
0000
0100
0000
0010
0100
0000
0010
0100
0000
0000
0000
0000
0000
0000
0010
,
0000
0000
0000
0000
0100
0000
0010
0000
0100
0000
0001
0000
0100
0000
0010
0000
1000
0000
0000
0000
0000
0000
0001
0000
0000
0000
0000
0000
0000
0010
0100
0000
,
0000
0000
0000
0000
0000
0000
0000
0000
1000
0000
0000
0001
0000
1000
0001
0000
0100
0000
0000
0000
0000
0000
0010
0000
0000
0000
0000
0000
0000
0000
1000
0000
,
0000
0000
0000
0000
0000
0000
0000
0000
0000
0001
0000
0001
,
0010
0000
0000
0000
0010
0000
0100
0000
0000
0000
0100
0000
2000
0000
0000
0001
0000
0000
0000
0000
0000
0001
0000
0000
,
0000
0000
3001
0010
0000
0100
0001
0100
1000
0000
0000
0000
1010
0000
0000
0010
,
0100
0000
0000
0000
0001
0000
0000
0000
0100
0000
0000
0000
1000
0000
0000
0000
0000
0000
0100
0000
0000
0001
0000
0000
0200
0000
0000
0000
0000
0000
0000
0000
0000
1000
0000
0000
0000
0000
0000
0000
0000
0000
0302
0000
0000
0000
0000
0000
,
0010
0000
0000
0000
0000
0000
0000
0000
0000
0000
0000
0000
1003
0000
0000
0000
0000
0000
0000
0000
0000
1000
0000
0000
0001
0000
0000
0000
0000
0000
0000
0000
0010
0000
0000
0000
0000
0000
0000
0000
0000
0000
0000
0000
0100
0000
0010
0000
,
0100
0000
0000
0000
1000
0000
0000
0000
0000
0010
0000
0000
0101
0000
0000
0000
0000
0000
0011
0000
0000
0000
0000
0000
,
1100
0000
0000
0000
1010
0000
0000
0000
0120
0000
0000
0000
2030
0000
0000
3001
,
1000
0000
0100
0000
0010
0000
0011
0000
0001
0000
0000
0100
0000
0000
1000
0000
,
1100
0000
0000
0000
0100
0000
0001
0000
0010
0000
0000
0000
0110
0000
0000
0000
0000
0000
1200
0000
0000
1000
0000
0000
,
2300
0010
3002
0010
0203
1000
0302
0010
,
0103
0000
0000
0010
0100
0010
0100
0000
0110
0000
0000
0000
1010
0000
0000
1000
,
0010
0100
0001
0100
1000
0001
0010
0000
1000
0001
0010
1000
,
0001
0000
0000
0000
0100
0000
0000
0000
1000
0000
0000
0000
0010
0000
0000
0000
0000
0000
0000
0000
0000
0010
0000
0000
0100
0000
0000
0000
0000
0000
0001
0000
0000
0000
0000
0000
1000
0000
0000
0000
0000
0000
0100
0000
0000
0010
0000
0000
,
0002
0000
1000
0000
0100
0000
0013
0000
1000
0000
0010
0100
0000
0001
0010
0000
,
0100
0001
0100
1000
0010
1000
2010
0000
0000
0100
0000
0000
,
0001
0000
0000
0000
3010
0000
0010
1000
0002
0000
0000
0000
0100
0000
0000
0000
,
1000
0000
0000
0000
0013
0000
0000
0001
2000
0000
0000
0000
3020
0000
0000
0000
,
0032
0203
2300
3200
,
0302
0000
0023
0000
1030
0000
0012
0100
,
0103
0000
2010
0100
3100
0000
0012
1000
,
1003
0000
2010
0001
3001
0000
2100
0010
,
3010
0000
0102
0010
0013
0000
2100
0001
,
3001
0000
0102
1000
1003
0100
0001
0100
,
1000
0020
0100
0001
0130
1000
0100
0001
,
0010
0200
1000
0010
1300
0010
0002
1000
,
1003
0001
0010
2000
0001
3001
1000
0100
,
0010
0000
0011
0000
0110
0000
1100
0000
0000
0000
0010
0100
0010
0000
0100
0000
,
0001
0010
0100
1000
0010
0001
0010
1000
,
0100
0001
0100
1000
0010
0000
0000
0000
,
0110
0000
2002
0000
,
0000
0000
0000
0000
,
0000
0000
3003
0000
;

//---------------dance-single - Rygon----------------
#NOTES:
     dance-single:
     X-12:
     Challenge:
     8:
     0.521,0.486,0.271,0.436,0.096,337.000,31.000,50.000,148.000,0.000,0.000,0.521,0.486,0.271,0.436,0.096,337.000,31.000,50.000,148.000,0.000,0.000:
0000
0000
0000
0000
0110
0000
0000
0001
,
2000
0000
0000
0000
3100
0010
0000
0010
,
0001
0000
MMMM
0000
0110
0000
0000
0001
,
2000
0000
0100
0000
3100
1000
0000
0010
,
0100
0000
MMMM
0000
0100
0001
1000
0001
,
0001
0000
1000
0010
0200
0000
0000
0000
0301
0000
0001
0000
0200
0000
0000
0000
,
1300
0000
0100
0000
0001
0000
0010
0001
1000
0000
0100
0000
0010
0000
0001
0000
,
0001
0100
0010
1000
2000
0000
3010
0100
,
0001
0000
MMMM
0000
0001
0010
0000
0100
,
1001
0000
MMMM
0000
0001
0100
1000
0001
,
1000
0100
0001
1000
0001
0010
0100
1000
,
1010
0000
MMMM
0000
1000
0010
0100
0001
,
0010
0001
0100
1000
0100
0001
0010
0100
,
1100
0000
MMMM
0000
0001
0010
0000
0100
,
1000
0010
0001
1000
0001
0010
1000
0100
,
0011
MMMM
1100
0000
0120
0000
0000
0000
,
0031
0000
0100
0000
0001
0010
0000
0011
,
1001
0000
0000
0000
MMMM
0000
0000
0000
0001
0000
0000
0010
0100
0000
0000
0000
,
2000
0000
3010
0100
0002
0010
0000
1003
,
1001
0000
MMMM
0000
1000
0000
0100
0010
,
0002
0000
0000
0000
0103
0000
0010
0000
1000
0000
0000
1000
0001
0000
0000
0001
,
0010
0100
1000
0020
1000
0000
0100
0030
,
0100
0001
0010
0000
1001
MMMM
0110
MMMM
,
1001
0000
2100
0001
,
3002
0100
0203
1000
,
0301
MMMM
0102
1000
,
2003
0100
3200
0001
,
1300
0000
MMMM
0000
1000
0100
0010
0001
,
0100
0010
0100
0001
1000
0100
0010
0001
,
MMMM
0000
1000
0001
0010
0100
1000
0010
,
0100
0001
0010
1000
0010
0001
0100
0010
,
1000
0000
0100
0000
0000
MMMM
0000
0000
0020
0000
0000
0032
0000
0000
0000
0000
,
0000
0000
0100
0000
0203
0000
0010
0000
0320
0000
0000
2030
0000
0000
0000
0002
,
0000
0000
3003
MMMM
0020
0000
2030
0000
,
3200
0320
0031
0010
,
0100
0000
1000
0000
0002
1000
0000
1000
,
0000
0000
1003
0000
0000
MMMM
0000
0000
0001
0000
0000
0000
0010
0000
0100
0000
,
2000
0000
0000
0010
0000
0000
3002
0000
0010
0000
0010
0000
,
0013
0000
0000
1100
0000
0000
1020
0000
0230
0000
0300
0000
,
0021
0000
0230
0000
0310
0000
0001
0000
0000
0011
0000
0000
,
1100
0000
0000
0000
MMMM
0000
0000
0000
1020
0000
0000
0000
0130
0000
0000
0100
,
0001
0000
0000
0010
0000
0000
0001
0000
0000
1000
0000
0000
0010
0000
0000
0000
0100
0000
0000
0000
MMMM
0000
0000
0000
,
0010
0000
0000
0000
0100
0000
0000
0000
MMMM
0000
0000
0000
1002
0000
0000
0000
0000
0000
0013
0000
0000
1000
0000
0000
,
0010
0001
0100
1000
0001
0010
1000
0100
,
0010
0001
MMMM
1000
1002
0000
0203
0000
,
0320
2030
3100
0011
,
1100
0000
MMMM
0000
1010
1000
0001
0000
,
0011
0001
1000
0000
0010
1000
0100
0010
,
0001
1000
MMMM
1000
0002
0000
0010
0000
,
1000
0000
0103
0001
2000
0000
0010
0000
,
0001
0000
0000
0000
3100
0000
0000
1000
0002
0000
0000
0000
0203
0000
0000
0000
,
2300
3200
0302
0023
,
2030
0000
3010
0000
MMMM
0000
1000
0100
,
0010
MMMM
0001
0100
0010
MMMM
1000
0010
,
0100
MMMM
0001
0010
0100
MMMM
1000
0100
,
0001
MMMM
0001
0100
1000
MMMM
1000
0010
,
0001
MMMM
0001
0010
1000
0010
0100
0001
,
0010
0100
0010
1000
0010
0001
0100
1000
,
0100
0001
MMMM
1000
MMMM
0001
1000
0010
,
0001
0010
1000
0100
0001
0100
MMMM
1000
,
0100
0000
0010
0000
1001
0000
0000
MMMM
0000
0000
0100
0000
0100
0000
0010
0000
,
1000
0100
0010
0001
0100
1000
0100
0001
,
0010
1000
0010
0001
0100
0000
MMMM
0000
,
0110
MMMM
2002
0000
,
0000
0000
0000
0000
,
0000
0000
3003
0000
;

//---------------dance-single - Rygon----------------
#NOTES:
     dance-single:
     X-11:
     Medium:
     8:
     0.565,0.486,0.306,0.480,0.096,363.000,35.000,55.000,0.000,0.000,0.000,0.565,0.486,0.306,0.480,0.096,363.000,35.000,55.000,0.000,0.000,0.000:
0000
0000
0000
0000
0110
0000
0000
0001
,
2000
0000
0000
0000
3100
0010
0000
0010
,
0001
0000
0000
0000
0110
0000
0000
0001
,
2000
0000
0100
0000
3100
1000
0000
0010
,
0100
0000
1001
0000
0100
0001
1000
0001
,
0001
0000
1000
0010
0200
0000
0000
0000
0301
0000
0001
0000
0200
0000
0000
0000
,
1300
0000
0100
0000
0001
0000
0010
0001
1000
0000
0100
0000
0010
0000
0001
0000
,
0001
0100
0010
1000
2000
0000
3010
0100
,
0001
0000
1000
0000
0001
0010
0000
0100
,
1001
0000
0000
0000
0001
0100
1000
0001
,
1000
0100
0001
1000
0001
0010
0100
1000
,
1020
0000
0130
0001
1000
0010
0100
0001
,
0010
0001
0100
1000
0100
0001
0010
0100
,
2100
0000
3001
0000
0001
0010
0000
0100
,
1000
0010
0001
1000
0001
0010
1000
0100
,
0011
1100
0120
0000
,
0031
0000
0100
0000
0001
0010
0000
0011
,
1001
0000
0000
0000
1000
0000
0000
0000
0001
0000
0000
0010
0100
0000
0000
0000
,
2000
0000
3010
0100
0002
0010
0000
1003
,
1001
0000
0010
0010
1000
0000
0100
0010
,
0002
0000
0000
0000
0103
0000
0010
0000
1000
0000
0000
1000
0001
0000
0000
0001
,
0010
0100
1000
0020
1000
0000
0100
0030
,
0100
0001
0010
0000
1001
0000
0110
0000
,
1001
0000
2100
0001
,
3002
0100
0203
1000
,
0302
1003
0102
1000
,
2003
0100
3200
0001
,
2300
0000
3002
0000
1003
0100
0010
0001
,
0100
0010
0100
0001
1000
0100
0010
0001
,
0100
0001
1000
0001
0010
0100
1000
0010
,
0100
0001
0010
1000
0010
0001
0100
0010
,
1000
0000
0100
0000
0010
0000
0000
0001
0020
0000
0000
0032
0000
0000
0000
0000
,
0000
0000
0100
0000
0203
0000
0010
0000
0320
0000
0000
2030
0000
0000
0000
0002
,
0000
3003
0020
2030
,
3200
0320
0031
0010
,
0100
0000
1000
0000
0002
1000
0000
1000
,
0000
1003
0001
1000
0001
0000
0010
0100
,
2000
0000
0000
0010
0000
0000
3002
0000
0010
0000
0010
0000
,
0013
0000
0000
1100
0000
0000
1020
0000
0230
0000
0300
0000
,
0021
0000
0230
0000
0310
0000
0001
0000
0000
0011
0000
0000
,
1100
0000
0000
0000
0101
0000
0000
0000
1020
0000
0000
0000
0130
0000
0000
0100
,
0001
0000
0000
0010
0000
0000
0001
0000
0000
1000
0000
0000
0010
0000
0000
0000
0100
0000
0000
0000
0001
0000
0000
0000
,
0010
0000
0000
0000
0100
0000
0000
0000
1000
0000
0000
0000
1002
0000
0000
0000
0000
0000
0013
0000
0000
1000
0000
0000
,
0010
0001
0100
1000
0001
0010
1000
0100
,
0010
0001
0000
1000
1002
0000
0203
0000
,
0320
2030
3100
0011
,
1100
0000
1001
0000
1010
1000
0001
0000
,
0011
0001
1000
0000
0010
1000
0100
0010
,
0001
0000
0001
1000
0000
1000
0002
0000
0000
0010
0000
0000
,
1000
0000
0103
0001
2000
0000
0010
0000
,
0001
0000
0000
0000
3100
0000
0000
1000
0002
0000
0000
0000
0203
0000
0000
0000
,
2300
3200
0302
0023
,
2030
0000
3010
0000
1001
0000
1000
0100
,
0010
0000
0001
0100
0010
0000
1000
0010
,
0100
0000
0001
0010
0100
0000
1000
0100
,
0001
0000
0001
0100
1000
0000
1000
0010
,
0001
0000
0001
0010
1000
0010
0100
0001
,
0010
0100
0010
1000
0010
0001
0100
1000
,
0100
0001
0010
1000
0010
0001
1000
0010
,
0001
0010
1000
0100
0001
0100
1000
0100
,
0010
0001
1000
1001
0000
0100
0100
0010
,
1000
0100
0010
0001
0100
1000
0100
0001
,
0010
1000
0010
0001
0100
0000
0000
0000
,
0110
0000
2002
0000
,
0000
0000
0000
0000
,
0000
0000
3003
0000
;

//---------------dance-single - Rygon----------------
#NOTES:
     dance-single:
     X-6:
     Easy:
     4:
     0.304,0.314,0.175,0.271,0.000,193.000,20.000,31.000,0.000,0.000,0.000,0.304,0.314,0.175,0.271,0.000,193.000,20.000,31.000,0.000,0.000,0.000:
0000
0000
0010
0000
,
1000
0000
0001
0000
,
0010
0010
0100
0000
,
1000
0000
0001
0000
,
0100
0100
0020
0000
,
1030
0001
1000
0100
,
0001
0100
1000
0000
,
1001
1001
1001
0000
,
0200
0000
0310
0010
,
0100
0001
1000
0001
,
1000
0100
0001
0100
,
1000
0000
0110
0000
,
2000
0000
3001
0001
,
1000
0001
0010
1000
,
0010
0001
0100
0010
,
1000
0000
0102
0000
,
1003
0000
2100
0000
,
3001
0000
1000
0010
,
0001
0010
1000
0100
,
0010
0000
0012
0000
,
1003
0000
2010
0000
,
3001
0000
1000
0100
,
0001
0100
1000
1001
,
1001
0000
0100
0000
,
0100
0000
0010
0000
,
0010
0000
1100
0000
,
0110
0000
0011
0000
,
1001
0000
0020
0000
,
0230
0000
0302
0000
,
2003
0000
3200
0000
,
0320
0000
0032
0000
,
2003
0001
3001
0000
,
0000
0000
0100
0000
,
0000
0000
0010
0000
,
0000
0000
1000
0000
,
0000
0000
0001
1000
,
0001
1000
0001
0000
,
1000
0010
0001
0010
,
1000
0100
0002
0100
,
0203
1000
2300
0010
,
3010
0000
0100
0001
,
0010
1000
0010
0001
,
0100
0010
2000
0100
,
3200
0010
0320
0001
,
0032
1000
1003
0000
,
0011
0100
1001
0000
,
1010
0100
1001
0000
,
0001
1000
0010
0100
,
0010
1000
0001
0001
,
0010
0010
0100
0100
,
1000
1000
0001
0001
,
0100
0100
0010
0010
,
1000
1000
0002
0010
,
0103
1000
2000
0010
,
3100
0001
0002
0100
,
0013
1000
2000
0100
,
3010
0001
0001
1000
,
0010
0100
0001
0010
,
0001
0010
0100
1000
,
0010
0100
0001
1000
,
0001
0000
1000
0000
0000
0020
0000
0000
,
0000
0130
0200
0001
,
0302
1000
1003
0000
,
0110
0000
2002
0000
,
0000
0000
0000
0000
,
0000
0000
3003
0000
;

//---------------dance-single - Rygon----------------
#NOTES:
     dance-single:
     X-3:
     Beginner:
     1:
     0.176,0.229,0.140,0.157,0.000,107.000,16.000,18.000,0.000,0.000,0.000,0.176,0.229,0.140,0.157,0.000,107.000,16.000,18.000,0.000,0.000,0.000: // measure 0
0000
0000
0010
0000
,  // measure 1
0000
0000
1000
0000
,  // measure 2
1000
0000
0001
0000
,  // measure 3
0000
0000
0010
0000
,  // measure 4
0010
0000
0100
0000
,  // measure 5
0100
0000
1000
0000
,  // measure 6
1000
0000
0001
0000
,  // measure 7
1001
0000
2000
0000
,  // measure 8
3000
0000
0100
0000
,  // measure 9
0010
0000
0002
0000
,  // measure 10
0003
0000
0100
0000
,  // measure 11
0010
0000
2000
0000
,  // measure 12
3000
0000
0010
0000
,  // measure 13
0100
0000
0002
0000
,  // measure 14
0003
0000
0010
0000
,  // measure 15
0100
0000
2000
0000
,  // measure 16
3000
0000
1000
0000
,  // measure 17
0110
0000
0002
0000
,  // measure 18
0003
0000
0001
0000
,  // measure 19
0110
0000
2000
0000
,  // measure 20
3000
0000
0100
0000
,  // measure 21
1001
0000
0002
0000
,  // measure 22
0003
0000
0100
0000
,  // measure 23
1001
0000
1000
0000
,  // measure 24
0000
0000
0010
0000
,  // measure 25
0000
0000
0001
0000
,  // measure 26
0000
0000
0100
0000
,  // measure 27
0000
0000
1000
0000
,  // measure 28
0000
0000
0010
0000
,  // measure 29
0000
0000
0001
0000
,  // measure 30
0000
0000
0100
0000
,  // measure 31
0000
0000
1000
0000
,  // measure 32
0000
0000
0100
0000
,  // measure 33
0000
0000
0010
0000
,  // measure 34
0000
0000
0001
0000
,  // measure 35
0000
0000
1000
0000
,  // measure 36
1001
0000
0001
0000
,  // measure 37
0001
0000
0100
0100
,  // measure 38
0100
0000
0010
0000
,  // measure 39
0010
0000
1000
1000
,  // measure 40
1000
0000
0100
0000
,  // measure 41
0100
0000
1000
1000
,  // measure 42
1000
0000
0010
0000
,  // measure 43
0100
0000
0001
0001
,  // measure 44
0001
0000
1000
0000
,  // measure 45
0100
0000
0010
0010
,  // measure 46
0010
0000
0001
0000
,  // measure 47
0100
0000
0010
0010
,  // measure 48
0010
0000
1001
0000
,  // measure 49
0000
0000
0110
0000
,  // measure 50
0000
0000
1001
0000
,  // measure 51
0000
0000
0110
0000
,  // measure 52
0000
0000
2002
3003
,  // measure 53
0000
0000
0220
0330
,  // measure 54
0000
0000
2002
3003
,  // measure 55
0000
0000
0220
0330
,  // measure 56
0000
0000
1000
1000
,  // measure 57
1000
0000
0001
0001
,  // measure 58
0001
0000
1000
1000
,  // measure 59
1000
0000
0001
0001
,  // measure 60
0001
0000
0000
0100
,  // measure 61
0000
0100
0000
0010
,  // measure 62
0000
0010
0010
0000
,  // measure 63
0110
0000
2002
0000
,  // measure 64
0000
0000
0000
0000
,  // measure 65
0000
0000
3003
0000
;
