#TITLE:PLASMA SURGE;
#SUBTITLE:;
#ARTIST:Rygon;
#TITLETRANSLIT:;
#SUBTITLETRANSLIT:;
#ARTISTTRANSLIT:;
#CREDIT:;
#BANNER:banner.png;
#BACKGROUND:background.png;
#LYRICSPATH:;
#CDTITLE:;
#MUSIC:[ROUND 1] - PLASMA SURGE.mp3;
#OFFSET:-0.025;
#SAMPLESTART:30.025;
#SAMPLELENGTH:12.000;
#SELECTABLE:YES;
#BPMS:0.000=200.000,172.000=100.000,206.000=200.000;
#STOPS:;
#BGCHANGES:;

//---------------dance-single - TaroNuke----------------
#NOTES:
     dance-single:
     TaroNuke:
     Hard:
     9:
     0.712,0.763,0.416,0.234,0.274:
0000
0000
0000
0000
,
1000
0100
0020
0000
0001
0000
0130
0000
,
0001
0100
0020
0000
1000
0000
0130
0000
,
1000
0010
0200
0000
0001
0000
0310
0000
,
0001
0010
0200
0000
1000
0000
0310
0000
,
0011
0000
0000
0012
0000
0000
0103
0000
,
1010
0000
2010
0000
0000
3100
0000
0000
,
1000
0001
0010
0001
1000
0100
1000
0001
,
0100
0100
0010
0010
1000
1000
0001
0001
,
0100
0000
0000
0000
,
0001
0010
0100
1000
0010
0100
0001
0010
,
0100
1000
0100
0010
0001
1000
0010
0000
,
1000
0000
0000
1000
0100
0000
0000
0100
0010
0000
0000
0010
0001
0000
0000
0001
,
0010
0000
0000
0100
1000
0000
0000
0010
0100
0000
0000
0001
0010
0000
0000
0001
,
1000
0100
0010
0001
0100
0010
1000
0100
,
0001
0100
1000
0010
0100
0001
0010
0000
,
0001
0000
0000
0001
0100
0000
0000
0100
0010
0000
0000
0010
1000
0000
0000
1000
,
0100
0000
0000
0010
0001
0000
0000
0100
0010
0000
0000
1000
0100
0000
0000
1000
,
0001
0010
0100
0010
0001
1000
0010
0100
,
0010
1000
0001
0100
0010
1000
0100
0000
,
1000
0000
0000
1000
0001
0000
0000
0001
0010
0000
0000
0010
0001
0000
0000
0001
,
1000
0000
0000
1000
0010
0000
0000
0010
0100
0000
0000
0100
0001
0000
0000
1000
,
0001
0010
0001
0100
0010
1000
0100
1000
,
0010
0100
0001
0010
0001
0100
0010
0000
,
1000
0100
0010
0001
0000
1000
0010
0100
,
0001
0000
0000
0010
0001
0000
0000
0001
1000
0000
0000
1000
0020
0000
0000
0000
,
1030
0000
1000
0100
0001
0000
1000
0100
,
0001
0000
1000
0100
0001
0000
1000
0100
,
0002
0103
2000
3010
,
0011
0110
1100
1001
,
0001
0000
0001
0100
1000
0000
0001
0100
,
1000
0000
0001
0100
1000
0000
0001
0100
,
2000
3100
0002
0013
,
1010
0000
0110
0000
0201
0301
0000
0001
,
1000
0000
1000
0010
0001
0000
1000
0010
,
0001
0000
1000
0010
0001
0000
1000
0010
,
0001
1000
0010
0100
0001
0010
0100
1000
,
1100
0000
0110
0000
0011
0001
1001
0000
,
1000
0100
0010
0001
1000
0010
0100
0001
,
0010
0100
1000
0001
0100
0010
1000
0100
,
0010
0000
0000
0010
0001
0000
0000
0001
1000
0000
0000
1000
0010
0000
0000
0010
,
0200
0000
0000
0000
,
0000
0000
0000
0000
,
0302
0000
0003
1000
0100
1000
0000
0000
0200
0000
0300
0100
0001
0100
0000
0000
,
0002
0000
0003
0001
0010
0001
0000
0000
0020
0000
0030
0010
1000
0010
0000
0000
,
2000
3010
0020
0031
,
0002
0103
0200
1300
,
1000
0100
0010
0100
1000
0001
0100
0000
0001
0100
0010
0100
0001
1000
0100
0000
,
1000
0010
0100
0010
1000
0001
0010
0000
0001
0010
0100
0010
0001
1000
0010
0100
,
0101
0000
1100
0000
,
0110
0000
1001
0110
,
0100
0000
0100
0100
0100
0100
0100
0000
1001
0000
0000
0000
1100
0000
0000
0000
,
1001
0101
1001
1100
,
1001
0000
0101
0000
1000
0100
0010
0000
,
0100
0010
0001
0000
0010
0001
1000
0000
,
0001
1000
0100
0010
0011
0000
1001
0000
,
1010
1001
0011
1001
,
1010
0000
1001
0000
0001
0100
0010
0000
,
0100
0010
1000
0000
0010
1000
0001
0000
,
1000
0001
0100
0100
0001
0100
0001
0100
,
0010
1000
0010
1000
0100
0010
0100
0010
,
0001
0100
0001
0100
0010
0010
1000
0100
,
0010
0010
0001
0100
0010
0010
1000
0001
,
0010
0010
0001
1000
0010
0100
0001
1000
,
0010
0100
0001
1000
0100
0010
0001
1000
,
0100
0010
0001
1000
1010
0010
0010
0010
,
0110
0010
0010
0010
1010
0010
0010
0010
,
0110
0010
0010
0010
2020
0000
0000
0000
,
0000
0000
0000
0000
,
0000
0000
3000
0000
,
0000
0000
0000
0000
,
0000
0000
0030
0000
;

//---------------dance-single - Ama-tan----------------
#NOTES:
     dance-single:
     Ama-tan:
     Challenge:
     12:
     1.000,1.000,0.254,0.315,0.914:
0000
0000
0000
0000
,
1000
0000
0100
0000
0010
0000
0001
0010
0001
0010
0001
0010
0001
0000
0100
0000
,
0001
0000
0100
0000
0010
0000
1000
0010
1000
0010
1000
0010
1000
0000
0001
0000
,
1000
0000
0010
0000
0100
0000
0001
0100
0010
0100
0001
0100
0010
0000
1000
0000
,
0001
0000
0010
0000
0100
0000
1000
0010
1000
0000
0010
0000
0100
0000
0001
0010
,
0001
0010
0001
0101
0100
0010
0110
0010
,
1010
1000
1100
0100
0010
0110
0010
0001
,
0011
0001
0010
0001
1000
0010
1000
0001
,
0100
0010
0100
0010
1000
0100
1000
0100
0010
0001
0010
0001
0100
0010
0100
0010
,
1000
0000
0000
0000
0000
0000
0000
0000
0000
0000
0000
0000
0001
1000
0001
1000
,
0001
0010
1000
0010
0001
0100
1000
0100
,
0010
1000
0100
0001
0100
0010
0001
0000
,
1000
0100
1000
0000
0100
0010
0100
0000
0010
0001
0010
0000
0001
1000
0001
0000
,
1000
0010
1000
0000
0010
0100
0010
0000
0100
0001
0100
0000
0001
1000
0001
0000
,
1000
0100
0001
0100
0010
0001
1000
0010
,
0001
0010
0100
0001
0010
0100
1000
0000
,
0001
0100
0001
0000
0100
0010
0100
0000
0010
1000
0010
0000
1000
0001
1000
0000
,
0001
0010
0001
0000
0010
0100
0010
0000
0100
1000
0100
0000
1000
0001
1000
0000
,
0001
0010
1000
0010
0100
1000
0010
0100
,
1000
0001
0010
0100
0001
0010
0100
0000
,
1000
0100
0010
0000
0001
1000
0100
0000
1000
0001
0100
0000
0001
0010
0100
0000
,
1000
0010
0100
0000
0001
1000
0010
0000
1000
0001
0010
0000
0001
0100
0010
1000
,
0001
0010
0110
0010
0100
1000
1100
1000
,
0010
0100
0110
0100
0001
0010
0110
0000
,
1000
1000
0010
0010
0000
0100
0100
0001
,
1000
0100
0010
0001
1000
0000
0010
0000
0000
0000
0100
0010
0100
0000
0001
0000
,
1001
0000
1000
0100
0002
0000
1003
0100
,
0002
0000
1003
0100
0002
0000
1003
0100
,
0002
0103
2000
3010
,
0011
0110
1100
1001
,
0001
0000
0001
0100
2000
0000
3001
0100
,
2000
0000
3001
0100
2000
0000
3001
0100
,
2000
3100
0002
0013
,
1010
0000
0110
0000
0201
0301
0000
0001
,
1000
0000
1000
0010
0002
0000
1003
0010
,
0002
0000
1003
0010
0002
0000
1003
0010
,
0001
0100
1000
0100
0001
0010
1000
0010
,
0011
0000
0110
0000
1100
1000
1001
0000
,
0001
0100
1000
0001
0010
1000
0100
0010
,
0001
0010
1000
0001
0100
1000
0010
0100
,
0001
0100
0001
0100
0001
1000
0001
1000
0100
1000
0100
1000
0010
0100
0010
0100
,
0002
0000
0000
0000
,
0000
0000
0000
0000
,
2003
0000
3000
0001
0100
0001
0000
0000
0200
0000
0300
0100
1000
0100
0000
0000
,
2000
0000
3000
1000
0010
1000
0000
0000
0020
0000
0030
0010
0001
0010
0000
0000
,
0001
0010
0100
1000
0010
0100
0001
0000
1000
0100
0001
0100
0010
1000
0010
0000
,
0001
0100
0010
1000
0100
0010
0001
0000
1000
0010
0001
0010
0100
1000
0100
0000
,
0001
0000
0010
0000
0100
0000
1000
0100
1000
0100
1000
0100
1000
0000
1000
0000
0001
0000
0100
0000
0010
0000
1000
0010
1000
0010
1000
0010
1000
0000
0001
0000
,
1000
0000
0100
0000
0010
0000
0001
0010
0001
0010
0001
0010
0001
0000
0001
0000
1000
0000
0010
0000
0100
0000
0001
0010
0001
0000
0100
0000
0010
0000
1000
0000
,
1001
1000
0100
0010
0001
0100
0010
1000
0100
0010
0100
1000
0010
0100
0001
1000
,
0001
1000
0001
1000
0001
1000
0001
1000
0001
1000
0001
1000
0001
1000
0001
1000
0001
1000
0001
1000
0001
1000
0001
1000
0001
1000
0001
1000
0001
1000
0001
1000
,
0001
0000
0000
0000
1000
0000
0010
0000
0100
0010
0100
0010
0100
0000
0000
0000
0001
0000
0000
0000
1000
0000
0020
0000
0100
0000
0000
0000
1030
0000
0000
0000
,
0001
0020
0100
0000
0031
0000
1000
0000
1010
0000
1000
0200
0010
0000
1300
0000
,
0001
0200
0010
0000
0301
0000
0100
0000
0010
0000
1000
0100
0010
0000
0100
1000
,
0001
0000
0100
0001
1000
0000
0100
0010
0001
0000
0100
0010
1000
0000
0001
0100
,
0010
0000
1000
0001
0200
0000
0010
0000
0301
0000
1000
0200
0001
0000
0310
0000
,
0001
0200
1000
0000
0310
0000
1000
0000
1001
0000
1000
0020
0001
0000
0130
0000
,
0001
0020
1000
0000
0130
0000
1000
0000
0001
0000
1000
0010
0100
0000
0010
1000
,
0001
0000
0010
0001
1000
0000
0010
0100
0001
0000
0010
0100
1000
0000
0001
0010
,
0100
0000
0000
0000
0000
0000
0000
0000
0000
0000
0000
0000
0000
0000
0000
0000
0000
0000
0000
0000
0000
0000
0000
0000
1000
0000
0000
0000
0000
0000
0000
0000
0000
0000
0000
0000
0001
0000
0000
0000
0000
0000
0000
0000
0000
0000
0000
0000
0200
0000
0000
0000
0000
0000
0000
0000
0000
0000
0000
0000
0000
0000
0000
0000
0000
0000
0000
0000
0000
0000
0000
0000
0010
0300
0000
0000
0000
0000
0000
0000
0000
0000
0000
0000
0000
0000
0000
0000
0000
0000
0000
0000
0000
0000
0000
0000
1000
0000
0000
0000
0000
0000
0000
0000
0000
0000
0000
0000
0000
0000
0000
0000
0000
0000
0000
0000
0000
0000
0000
0000
0100
0000
0000
0000
0000
0000
0000
0000
0000
0000
0000
0000
0000
0000
0000
0000
0000
0000
0000
0000
0000
0000
0000
0000
1000
0000
0000
0000
0000
0000
0000
0000
0000
0000
0000
0000
0000
0000
0000
0000
0000
0000
0000
0000
0000
0000
0000
0000
0100
0000
0000
0000
0000
0000
0000
0000
0000
0000
0000
0000
0000
0000
0000
0000
0000
0000
0000
0000
0000
0000
0000
0000
,
0010
0000
0001
0000
0010
0000
0001
1000
0010
0000
1000
0000
0010
0000
1000
0000
,
0001
0000
0100
0000
0001
0000
0100
0010
1000
0000
0100
0000
1000
0000
0100
0000
,
0010
0000
0001
0000
0010
0000
0001
1000
0001
0000
1000
0000
0001
0000
1000
0000
,
0010
0100
0010
0010
1000
1000
0010
0010
,
0100
0100
0001
0001
0010
0010
0100
0100
,
1000
0000
1000
0000
0001
0000
0001
0000
1000
0100
1000
0100
1000
0100
1000
0100
,
0010
0001
0010
0001
0010
0001
0010
0001
1000
0100
0010
0001
1000
0100
0010
0001
,
1000
0100
0010
0001
1000
0100
0010
0002
0200
0000
0000
0000
0000
0000
0000
0000
,
0000
0000
0000
0000
,
0000
0000
0300
0000
,
0000
0000
0000
0000
,
0000
0000
0003
0000
;

//---------------dance-single - TaroNuke----------------
#NOTES:
     dance-single:
     TaroNuke:
     Beginner:
     3:
     0.165,0.309,0.030,0.061,0.000:
0000
0000
0000
0000
,
1000
0000
0000
0000
,
0000
0000
0000
0000
,
0001
0000
0000
0000
,
0000
0000
0000
0000
,
0100
0000
0000
0000
,
0100
0000
0000
0000
,
0100
0000
0100
0000
,
0200
0000
0000
0000
,
0310
0000
0000
0000
,
1000
0000
0000
0000
,
0000
0000
0000
0000
,
0001
0000
0100
0000
,
1000
0000
0010
0000
,
0001
0000
0000
0000
,
0000
0000
0000
0000
,
1000
0000
0100
0000
,
0001
0000
0010
0000
,
1000
0000
0000
0000
,
0000
0000
0000
0000
,
0001
0000
0010
0000
,
1000
0000
0100
0000
,
0001
0000
0000
0000
,
0000
0000
0000
0000
,
1000
0000
0010
0000
,
0001
0000
0100
0000
,
1000
0000
0000
0000
,
0000
0000
0000
0000
,
1000
0000
1000
0000
,
1000
1000
1000
0000
,
0000
0000
0000
0000
,
0000
0000
0000
0000
,
0001
0000
0001
0000
,
0001
0001
0001
0000
,
0000
0000
0000
0000
,
0000
0000
0000
0000
,
0100
0000
0100
0000
,
0100
0100
0100
0000
,
0000
0000
0000
0000
,
0000
0000
0000
0000
,
0010
0000
0010
0000
,
0020
0000
0000
0000
,
0000
0000
0000
0000
,
1030
0000
1100
0000
,
0001
0000
0101
0000
,
1000
1000
0010
0010
,
0100
0100
0001
0001
,
1000
0100
0001
0100
,
1000
0010
0001
0010
,
2000
0000
3200
0000
,
0320
0000
0032
0000
,
1003
0000
1000
0000
,
0000
0000
1000
0000
,
0000
0000
0010
0000
,
0000
0000
0010
0000
,
0000
0000
0100
0000
,
0000
0000
0100
0000
,
0000
0000
0001
0000
,
0000
0000
0001
0000
,
0000
0000
0010
0000
,
0010
0000
0010
0000
,
0010
0000
0100
0000
,
0100
0000
0100
0000
,
0100
0000
1000
0001
,
1000
0001
1000
0001
,
1000
0001
1000
0001
,
1000
0001
1000
0001
,
1000
0001
1001
0000
;

//---------------dance-single - TaroNuke----------------
#NOTES:
     dance-single:
     TaroNuke:
     Easy:
     5:
     0.242,0.446,0.041,0.061,0.000:
0000
0000
0000
0000
,
1000
0000
0010
0000
,
0100
0000
0001
0000
,
0001
0000
0100
0000
,
0010
0000
1000
0000
,
0100
0000
0000
0100
0000
0000
0100
0000
,
0100
0000
0000
0000
,
0100
0000
0100
0000
,
0200
0000
0000
0000
,
0310
0000
0000
0000
,
0001
0000
1000
0000
,
0100
0000
1000
0000
,
0001
0000
0100
0000
,
1000
0000
0010
0000
,
0001
0000
0100
0000
,
0010
0000
1000
0000
,
1000
0000
0100
0000
,
0001
0000
0010
0000
,
1000
0000
0100
0000
,
0010
0000
0001
0000
,
0001
0000
0010
0000
,
1000
0000
0100
0000
,
0001
0000
0010
0000
,
0100
0000
1000
0000
,
1000
0000
0010
0000
,
0001
0000
0100
0000
,
1000
0000
0010
0000
,
0100
0000
0001
0000
,
1000
0000
1000
0000
,
1000
1000
1000
0000
,
0001
0000
0010
0000
,
0100
0000
1000
0000
,
0001
0000
0001
0000
,
0001
0001
0001
0000
,
1000
0000
0100
0000
,
0010
0000
0001
0000
,
0100
0000
0100
0000
,
0100
0100
0100
0000
,
0001
0000
0100
0000
,
0010
0000
1000
0000
,
0010
0000
0010
0000
,
0020
0000
0000
0000
,
0000
0000
0000
0000
,
1030
0001
1100
0000
,
0001
1000
0101
0000
,
1000
0100
0110
0000
,
0001
0100
0110
0000
,
1000
0100
0001
0000
,
1000
0010
0001
0000
,
2000
0000
3200
0000
,
0320
0000
0032
0000
,
1003
1000
1000
1000
1000
0000
0000
0000
,
0100
0000
1000
0000
,
0001
0000
0010
0000
,
0100
0000
0010
0000
,
0001
0000
0100
0000
,
0010
0000
0100
0000
,
0001
0000
1000
0000
,
0001
0000
0100
0000
,
0001
0000
0010
0000
,
0010
0000
0010
0000
,
0010
0000
0100
0000
,
0100
0000
0100
0000
,
0100
0000
1000
0001
,
1000
0001
1000
0001
,
1000
0000
0001
0000
1000
0001
1000
0001
,
1000
0001
1000
0001
1000
0001
1000
0001
,
1000
0001
1000
0001
1000
0000
0000
0000
;

//---------------dance-single - TaroNuke----------------
#NOTES:
     dance-single:
     TaroNuke:
     Medium:
     7:
     0.511,0.617,0.416,0.173,0.010: // measure 1
0000
0000
0000
0000
,  // measure 2
1000
0000
0011
0000
,  // measure 3
0100
0000
1010
0000
,  // measure 4
0001
0000
1010
0000
,  // measure 5
0100
0000
0011
0000
,  // measure 6
1000
0100
0010
0001
0000
0100
0010
0100
,  // measure 7
0010
0000
0100
0000
0001
0010
0100
1000
,  // measure 8
0001
0000
0100
0000
,  // measure 9
0010
0010
0010
0010
,  // measure 10
1010
0000
0000
0000
,  // measure 11
0001
0100
0010
1000
,  // measure 12
0100
0000
0010
0000
0001
0010
0001
0000
,  // measure 13
1100
1100
0101
0101
,  // measure 14
1001
1001
1100
1100
,  // measure 15
1000
0100
0010
0001
,  // measure 16
0100
0000
0010
0000
1000
0010
1000
0000
,  // measure 17
0101
0101
1100
1100
,  // measure 18
1001
1001
0101
0101
,  // measure 19
0001
0000
1000
0100
1000
0000
0001
0000
,  // measure 20
0100
0010
0100
0000
0001
0000
0010
0000
,  // measure 21
0011
0011
0110
0110
,  // measure 22
1100
1100
1001
1001
,  // measure 23
1000
0000
0001
0100
0001
0000
0010
0000
,  // measure 24
0100
0010
0100
0000
0010
0000
0001
0000
,  // measure 25
1000
0100
1000
0100
0000
0010
0001
0010
,  // measure 26
0100
1000
0001
0100
0010
1000
0100
0010
,  // measure 27
0001
0100
1000
0010
,  // measure 28
0001
0100
1000
0010
,  // measure 29
0001
0100
0010
1000
,  // measure 30
1001
0110
1001
0110
,  // measure 31
1000
0100
0001
0010
,  // measure 32
1000
0100
0001
0010
,  // measure 33
1000
0010
0100
0001
,  // measure 34
1000
0000
1000
0000
0001
0001
0000
0001
,  // measure 35
1000
0010
0100
0001
,  // measure 36
1000
0100
0010
0001
,  // measure 37
1000
0001
0100
0001
,  // measure 38
1001
0110
1001
0110
,  // measure 39
0001
0100
0010
1000
,  // measure 40
0001
0010
0100
1000
,  // measure 41
0001
0100
0001
0100
0010
1000
0010
1000
,  // measure 42
0200
0000
0000
0000
,  // measure 43
0000
0000
0000
0000
,  // measure 44
2300
3000
0020
0030
,  // measure 45
0200
0300
0002
0003
,  // measure 46
0020
0030
0200
0300
,  // measure 47
2000
3000
0020
0030
,  // measure 48
2000
3001
0020
0031
,  // measure 49
0200
0310
2000
3002
,  // measure 50
0203
0301
1100
1000
,  // measure 51
0110
0010
1001
0110
,  // measure 52
0001
0000
1000
0001
1000
0001
1000
0000
0001
0000
0000
0000
0100
0000
0000
0000
,  // measure 53
1000
0100
0001
0100
,  // measure 54
1000
0100
0001
0010
,  // measure 55
0100
1000
0001
0100
,  // measure 56
0010
1000
0001
0010
,  // measure 57
1000
0010
0001
0010
,  // measure 58
1000
0010
0001
0100
,  // measure 59
0010
1000
0100
0010
,  // measure 60
0001
0000
1000
0000
0001
0100
0010
0100
,  // measure 61
0001
0100
0010
0000
1000
0100
0010
0100
,  // measure 62
1000
0100
0010
0000
0001
1000
0010
1000
,  // measure 63
0001
1000
0010
0000
1000
0100
0010
0001
,  // measure 64
0010
0100
1000
0000
0001
0100
0001
0100
,  // measure 65
0001
0100
0001
0100
0010
0100
0010
0100
,  // measure 66
0010
0100
0010
0100
0010
1000
0010
1000
,  // measure 67
0010
1000
0010
1000
0100
0010
0100
0010
,  // measure 68
0100
0010
0100
0020
0002
0000
0000
0000
,  // measure 69
0000
0000
0000
0000
,  // measure 70
0000
0000
0030
0000
,  // measure 71
0000
0000
0000
0000
,  // measure 72
0000
0000
0003
0000
;
