#TITLE:PARANOiA KCET ~clean mix~;
#SUBTITLE:(FROM NONSTOP MEGAMIX);
#ARTIST:2MB;
#TITLETRANSLIT:;
#SUBTITLETRANSLIT:;
#ARTISTTRANSLIT:;
#GENRE:;
#CREDIT:;
#BANNER:[ROUND 1] - PARANOiA KCET (FROM NONSTOP MEGAMIX)-bn.png;
#BACKGROUND:[ROUND 1] - PARANOiA KCET (FROM NONSTOP MEGAMIX)-bg.png;
#LYRICSPATH:;
#CDTITLE:shuffle.png;
#MUSIC:[ROUND 1] - PARANOiA KCET (FROM NONSTOP MEGAMIX).mp3;
#OFFSET:-0.071;
#SAMPLESTART:41.380;
#SAMPLELENGTH:8.660;
#SELECTABLE:YES;
#DISPLAYBPM:180.000;
#BPMS:0.000=180.000
;
#STOPS:
;
#BGCHANGES:;
#KEYSOUNDS:;
#ATTACKS:;

//---------------dance-single - ----------------
#NOTES:
     dance-single:
     :
     Hard:
     8:
     0.705,0.631,0.934,0.254,0.060,281.000,70.000,19.000,0.000,0.000,0.000,0.705,0.631,0.934,0.254,0.060,281.000,70.000,19.000,0.000,0.000,0.000: // measure 0
0000
0000
0000
0000
,  // measure 1
1001
0100
0100
0100
,  // measure 2
0010
0000
0010
0000
1000
0001
1000
0001
,  // measure 3
0010
0010
0010
0010
,  // measure 4
0001
0000
0000
1000
0000
0000
0001
0000
0000
0001
0000
0000
0100
0000
0000
0000
0001
0000
0000
0000
0000
1000
0000
0000
,  // measure 5
1010
0011
1010
0011
,  // measure 6
1100
0000
0000
0000
0000
0000
0101
0000
0000
0000
0000
0000
1100
0000
0000
0000
0010
0000
0000
0000
0000
0010
0000
0000
,  // measure 7
0011
0101
0011
0101
,  // measure 8
1010
0000
0000
0000
0000
0000
1100
0000
0000
0000
0000
0000
1010
0000
0000
0000
0101
0000
0000
0000
0000
0010
0000
0000
,  // measure 9
0110
1010
0101
0011
,  // measure 10
0110
0000
0000
0000
0000
0000
1100
0000
0000
0000
0000
0000
0101
0000
0000
0000
1010
0000
0000
0000
0000
0100
0000
0000
,  // measure 11
0110
1010
1100
0110
,  // measure 12
0011
0001
0100
0100
1000
0010
0001
0000
,  // measure 13
0200
1000
0000
0010
0000
0001
0000
0010
,  // measure 14
0000
1000
0000
0001
0000
1000
0300
0001
,  // measure 15
0020
0001
0000
0100
0000
1000
0000
0100
,  // measure 16
0000
0001
0000
1000
0000
0001
0030
1000
,  // measure 17
0002
0100
0000
1000
0000
0010
0000
1000
,  // measure 18
0000
0100
0000
0010
0000
0100
0003
0010
,  // measure 19
2000
0100
0000
0001
0000
0010
0000
3001
,  // measure 20
0000
0100
0010
0100
0000
1001
0000
0010
,  // measure 21
1001
0100
1000
0010
0100
0001
0000
0001
,  // measure 22
0010
0001
0100
0020
0000
0000
0130
0000
,  // measure 23
1010
0001
0010
0100
1000
0100
0000
0100
,  // measure 24
1000
0010
0100
0002
0000
0000
0103
0000
,  // measure 25
0101
0010
0100
0001
0010
1000
0000
1000
,  // measure 26
0010
0001
0100
0020
0000
0000
0130
0000
,  // measure 27
0110
0010
1000
0001
0100
1000
0000
1000
,  // measure 28
0100
0001
0010
2000
0000
0000
3100
0100
,  // measure 29
0120
0000
0000
0001
0000
0000
1030
0000
,  // measure 30
0010
0000
0000
0010
0000
0000
0010
0000
0000
0010
0000
0000
1010
0000
0000
0000
0110
0000
0000
0000
0000
0101
0000
0000
,  // measure 31
0022
0033
0010
1001
,  // measure 32
0110
0000
0000
0000
0000
0000
0101
0000
0000
0000
0000
0000
0010
0000
0000
0000
0010
0000
0000
0000
0000
0010
0000
0000
,  // measure 33
1000
1010
0011
0101
,  // measure 34
0100
0000
0000
0000
0000
0000
0100
0000
0000
0000
0000
0000
0010
0000
0000
0000
1001
0000
0000
0000
0000
0100
0000
0000
,  // measure 35
0220
0330
0010
1001
,  // measure 36
0100
0000
0000
0000
0000
0000
1001
0000
0000
0000
0000
0000
0100
0000
0000
0000
0100
0000
0000
0000
0000
0100
0000
0000
,  // measure 37
0110
0110
1001
1001
,  // measure 38
0001
0000
0000
0100
0000
0000
0001
0000
0000
1000
0000
0000
0100
0000
0000
0000
0001
0000
0000
0000
0000
1000
0000
0000
,  // measure 39
0010
0001
0100
0001
0000
0100
1000
0100
,  // measure 40
0000
1000
0010
1000
0000
0010
0001
0010
,  // measure 41
0000
0001
0100
0001
0000
0100
1000
0100
,  // measure 42
0000
1000
0010
1000
0000
0010
0001
0010
,  // measure 43
0000
0001
0100
0001
1000
0010
0001
0010
,  // measure 44
0000
1000
0001
1000
0010
0001
0010
1000
,  // measure 45
0000
0001
0010
0100
0001
0100
1000
0010
,  // measure 46
0000
0010
0001
1000
0100
0001
1000
0010
,  // measure 47
0110
0000
1010
0000
1000
1000
1000
0001
,  // measure 48
0000
0101
0000
2100
0000
0000
3010
0000
,  // measure 49
1010
0000
1001
0000
0001
0001
0001
0100
,  // measure 50
0000
0110
0000
0102
0000
0000
0013
0000
,  // measure 51
0110
0000
1100
0000
1000
0010
0010
0100
,  // measure 52
0000
0101
0000
2100
0000
0000
3001
0000
,  // measure 53
0011
0000
1100
0000
0100
1000
1000
0010
,  // measure 54
0000
0110
0000
0102
0000
0000
0013
0000
,  // measure 55
0220
0000
0000
0000
0000
0330
0000
0000
;

//---------------dance-single - ----------------
#NOTES:
     dance-single:
     :
     Medium:
     7:
     0.557,0.594,0.787,0.267,0.060,213.000,59.000,20.000,0.000,0.000,0.000,0.557,0.594,0.787,0.267,0.060,213.000,59.000,20.000,0.000,0.000,0.000: // measure 0
0000
0000
0000
0000
,  // measure 1
1001
0000
0000
0000
,  // measure 2
0100
0100
0010
0010
,  // measure 3
1000
1000
0001
0001
,  // measure 4
0100
0000
0000
0100
0000
0000
0100
0000
0000
0000
0000
0000
0010
0000
0000
0000
0100
0000
0000
0000
0000
0010
0000
0000
,  // measure 5
1000
0101
1000
0011
,  // measure 6
1000
0000
0000
0000
0000
0000
0110
0000
0000
0000
0000
0000
0100
0000
0000
0000
0100
0000
0000
0000
0000
0100
0000
0000
,  // measure 7
0001
1010
0001
1100
,  // measure 8
0001
0000
0110
0000
0000
1001
0000
0000
,  // measure 9
0010
1100
0010
1001
,  // measure 10
0010
0000
0000
0000
0000
0000
0101
0000
0000
0000
0000
0000
1000
0000
0000
0000
1000
0000
0000
0000
0000
1000
0000
0000
,  // measure 11
0100
0011
0100
1001
,  // measure 12
0100
1010
1100
0200
,  // measure 13
0300
0001
0000
0001
0000
1000
0000
1000
,  // measure 14
0000
0000
0000
0010
0000
0000
0000
0000
0000
0010
0000
0000
0100
0000
0000
0000
0100
0000
0000
0000
0000
0100
0000
0000
,  // measure 15
0000
1000
0000
1000
0000
0001
0000
0001
,  // measure 16
0000
0000
0000
0100
0000
0000
0000
0000
0000
0100
0000
0000
0010
0000
0000
0000
0010
0000
0000
0000
0000
0010
0000
0000
,  // measure 17
0000
0001
0000
0001
0000
0010
0000
0010
,  // measure 18
0000
0000
0000
1000
0000
0000
0000
0000
0000
1000
0000
0000
0100
0000
0000
0000
0100
0000
0000
0000
0000
0100
0000
0000
,  // measure 19
0000
1000
0000
1000
0000
0001
0000
0001
,  // measure 20
0100
0000
0000
0000
0000
0000
0000
0000
0000
0000
0000
0000
1000
0000
0000
0000
1000
0000
0000
0000
0000
1000
0000
0000
,  // measure 21
0002
0000
0100
0000
0103
0000
0000
0010
,  // measure 22
0000
1000
0000
0210
0000
0000
0301
0000
,  // measure 23
2000
0000
0010
0000
3010
0000
0000
0010
,  // measure 24
0000
0100
0000
1002
0000
0000
0103
0000
,  // measure 25
0120
0000
1000
0000
1030
0000
0000
0001
,  // measure 26
0000
1000
0000
0102
0000
0000
0013
0000
,  // measure 27
2001
0000
0100
0000
3100
0000
0000
1000
,  // measure 28
0000
0001
0000
0210
0000
0000
0301
0000
,  // measure 29
2000
0000
0000
0010
0000
0000
3001
0000
,  // measure 30
0110
0000
0000
0000
0000
0000
0000
0000
0000
0000
0000
0000
0010
0000
0000
0000
0100
0000
0000
0000
0000
0010
0000
0000
,  // measure 31
2000
3000
0010
1000
,  // measure 32
0101
1100
1010
0011
,  // measure 33
0200
0300
0001
1000
,  // measure 34
1001
1100
0110
0011
,  // measure 35
0002
0003
1000
0010
,  // measure 36
0110
0101
0011
0110
,  // measure 37
2000
3000
0010
1000
,  // measure 38
0010
0000
0000
1000
0000
0000
0001
0000
0000
0100
0000
0000
0010
0000
0000
0000
0100
0000
0000
0000
0000
0100
0000
0000
,  // measure 39
0000
0002
0000
0100
0000
1000
0000
0013
,  // measure 40
0000
2000
0000
0100
0000
0001
0000
3010
,  // measure 41
0000
0200
0000
0001
0000
0010
0000
0301
,  // measure 42
0000
0020
0000
1000
0000
0100
0000
1030
,  // measure 43
0000
0101
0000
1100
0000
0101
0000
1100
,  // measure 44
0000
1010
0000
0011
0000
1010
0000
0011
,  // measure 45
0000
0101
0000
1100
0000
1010
0000
0011
,  // measure 46
0000
1010
0000
1100
0000
0101
0000
0000
,  // measure 47
0011
0000
1000
0000
0100
0100
0000
1000
,  // measure 48
0000
0001
0000
1001
0000
0000
0110
0000
,  // measure 49
0100
0000
0001
0000
1000
1000
0000
0010
,  // measure 50
0000
0100
0000
0101
0000
0000
1010
0000
,  // measure 51
1000
0000
0010
0000
1000
1000
0000
0001
,  // measure 52
0000
0100
0000
0011
0000
0000
1100
0000
,  // measure 53
0010
0000
1000
0000
0001
0001
0000
1000
,  // measure 54
0000
0001
0000
0110
0000
0000
1001
0000
,  // measure 55
0220
0000
0000
0000
0000
0330
0000
0000
;

//---------------dance-single - ----------------
#NOTES:
     dance-single:
     :
     Easy:
     5:
     0.488,0.520,0.614,0.280,0.000,189.000,46.000,21.000,0.000,0.000,0.000,0.488,0.520,0.614,0.280,0.000,189.000,46.000,21.000,0.000,0.000,0.000: // measure 0
0000
0000
0000
0000
,  // measure 1
1001
0000
0000
0000
,  // measure 2
0100
0000
0100
0000
,  // measure 3
0010
0010
0010
0010
,  // measure 4
1000
0001
1000
1001
,  // measure 5
0001
0100
0001
1000
,  // measure 6
0010
0010
0110
0000
,  // measure 7
0100
0001
0100
0010
,  // measure 8
1000
1000
1010
0000
,  // measure 9
0010
1000
0010
0100
,  // measure 10
0001
0001
1001
0000
,  // measure 11
1000
0010
1000
0100
,  // measure 12
0010
0010
0010
0010
,  // measure 13
0001
0000
0101
0000
0000
0010
0000
0010
,  // measure 14
0000
1000
0000
1000
0000
0010
0000
0010
,  // measure 15
0000
0000
1010
0000
0000
1000
0000
0010
,  // measure 16
0000
0100
0000
0100
0000
0001
0000
0001
,  // measure 17
0000
0000
1001
0000
0000
0010
0000
1000
,  // measure 18
0000
0001
0000
0001
0000
0100
0000
0100
,  // measure 19
0000
0000
0110
0000
0000
0100
0000
0000
,  // measure 20
2002
0000
3003
0000
,  // measure 21
1100
1000
0100
0010
,  // measure 22
0011
0001
0010
0100
,  // measure 23
1010
0100
0010
0001
,  // measure 24
0101
0010
0100
1000
,  // measure 25
1001
0001
1000
0100
,  // measure 26
0010
0001
0101
1010
,  // measure 27
1001
1000
0001
0100
,  // measure 28
0010
1000
1100
0011
,  // measure 29
0202
0000
0000
0303
,  // measure 30
0000
0100
0100
0100
,  // measure 31
2200
3300
0010
1001
,  // measure 32
0110
1010
0100
0100
,  // measure 33
0001
0001
1000
1000
,  // measure 34
0010
0010
0110
1001
,  // measure 35
0200
0300
0010
1001
,  // measure 36
0110
0101
1000
0010
,  // measure 37
0110
0110
1001
1001
,  // measure 38
0001
0001
0001
0000
0100
0100
0100
0000
,  // measure 39
0000
0001
0000
0010
0000
1000
0000
0100
,  // measure 40
0000
0001
0000
0010
0000
1000
0000
0100
,  // measure 41
0000
1000
0000
0010
0000
0001
0000
0100
,  // measure 42
0000
1000
0000
0010
0000
0001
0000
0100
,  // measure 43
0000
0010
0000
1000
0000
0101
0000
1100
,  // measure 44
0000
1000
0000
0001
0000
0011
0000
1010
,  // measure 45
0000
0010
0000
0100
0000
0101
0000
0011
,  // measure 46
0000
0010
0000
0100
0000
1100
0000
0000
,  // measure 47
2020
0000
3030
0000
0100
0000
0000
0001
,  // measure 48
0000
0001
0000
0002
0000
0003
0100
0000
,  // measure 49
0220
0000
0330
0000
0001
0000
0000
1000
,  // measure 50
0000
1000
0000
2000
0000
3000
0010
0000
,  // measure 51
0202
0000
0303
0000
0010
0000
0000
0100
,  // measure 52
0000
0100
0000
0200
0000
0300
0001
0000
,  // measure 53
2020
0000
3030
0000
0001
0000
0000
1000
,  // measure 54
0000
1000
0000
2000
0000
3000
0010
0000
,  // measure 55
0220
0000
0000
0000
0000
0330
0000
0000
;

//---------------dance-single - ----------------
#NOTES:
     dance-single:
     :
     Beginner:
     3:
     0.215,0.220,0.120,0.000,0.000,104.000,9.000,0.000,0.000,0.000,0.000,0.215,0.220,0.120,0.000,0.000,104.000,9.000,0.000,0.000,0.000,0.000: // measure 0
0000
0000
0000
0000
,  // measure 1
1001
0000
0000
0000
,  // measure 2
0001
0000
0000
0000
,  // measure 3
0100
0000
0100
0000
,  // measure 4
0100
0000
0000
0000
,  // measure 5
0010
0000
0000
0000
,  // measure 6
1000
0000
1000
0000
,  // measure 7
0100
0000
0000
0000
,  // measure 8
0001
0000
0001
0000
,  // measure 9
0010
0000
0000
0000
,  // measure 10
1000
0000
1000
0000
,  // measure 11
0001
0000
0000
0000
,  // measure 12
0100
0000
0100
0100
,  // measure 13
0100
0000
0001
0000
,  // measure 14
1000
0000
0001
0000
,  // measure 15
0100
0000
0001
0000
,  // measure 16
1000
0000
0001
0000
,  // measure 17
1000
0000
0010
0000
,  // measure 18
0100
0000
0010
0000
,  // measure 19
0100
0000
0010
0000
,  // measure 20
0100
0100
0100
0000
,  // measure 21
0101
0000
0000
0000
,  // measure 22
0010
0000
0010
0000
,  // measure 23
1010
0000
0000
0000
,  // measure 24
0001
0000
0001
0000
,  // measure 25
0011
0000
0000
0000
,  // measure 26
0100
0000
0100
0000
,  // measure 27
1100
0000
0000
0000
,  // measure 28
0010
0000
0010
0000
,  // measure 29
0110
0000
0000
0000
,  // measure 30
0000
0000
0000
0000
,  // measure 31
1001
0000
0000
1000
,  // measure 32
1000
0000
0000
0010
,  // measure 33
0010
0000
0000
0100
,  // measure 34
0000
0100
0100
0100
,  // measure 35
1001
0000
0000
0001
,  // measure 36
0001
0000
0000
0100
,  // measure 37
0100
0000
0000
0000
,  // measure 38
0010
0010
0010
0010
,  // measure 39
0010
0000
0100
0000
,  // measure 40
0010
0000
0100
0000
,  // measure 41
0001
0000
1000
0000
,  // measure 42
0001
0000
1000
0000
,  // measure 43
0100
0000
0010
0000
,  // measure 44
0100
0000
0010
0000
,  // measure 45
0001
0000
1000
0000
,  // measure 46
0001
0000
1000
0000
,  // measure 47
0010
0010
0010
0000
,  // measure 48
0100
0000
0100
0000
,  // measure 49
0001
0001
0001
0000
,  // measure 50
1000
0000
1000
0000
,  // measure 51
0010
0010
0010
0000
,  // measure 52
1000
0000
1000
0000
,  // measure 53
0001
0001
0001
0000
,  // measure 54
0100
0100
0100
0000
,  // measure 55
0110
0000
0000
0000
;

//---------------dance-single - ----------------
#NOTES:
     dance-single:
     :
     Challenge:
     9:
     0.743,0.668,1.000,0.294,0.133,289.000,79.000,22.000,0.000,0.000,0.000,0.743,0.668,1.000,0.294,0.133,289.000,79.000,22.000,0.000,0.000,0.000: // measure 0
0000
0000
0000
0000
,  // measure 1
2002
0000
0000
0000
,  // measure 2
0000
0000
0000
3003
,  // measure 3
1000
0010
0100
0100
0001
0100
0010
0010
,  // measure 4
1000
0000
0000
0001
0000
0000
1000
0000
0000
1000
0000
0000
0001
0000
1000
0000
0001
0000
1000
0000
0001
0000
1000
0000
,  // measure 5
1001
0101
1001
1010
,  // measure 6
0110
0000
0000
0000
0000
0000
0101
0000
0000
0000
0000
0000
0110
0000
0000
0000
1010
0000
0000
0000
0000
1000
0000
0000
,  // measure 7
1100
1001
0101
1001
,  // measure 8
1010
0000
0000
0000
0000
0000
0110
0000
0000
0000
0000
0000
0101
0000
0000
0000
0110
0000
0000
0000
0000
0010
0000
0000
,  // measure 9
1010
0101
1100
0011
,  // measure 10
0101
0000
0000
0000
0000
0000
1010
0000
0000
0000
0000
0000
0011
0000
0000
0000
1100
0000
0000
0000
0000
1000
0000
0000
,  // measure 11
1001
0110
1001
0110
,  // measure 12
0001
0000
0000
0000
0000
0000
0100
0000
0000
0000
0000
0000
0010
0000
0000
0000
0000
0000
1000
0000
0000
0100
0000
0000
0010
0000
0000
0000
0001
0000
0000
0000
0010
0000
0000
0000
0001
0000
0000
0000
0010
0000
0000
0000
0001
0000
0000
0000
,  // measure 13
0200
0010
0000
0010
0000
0001
0000
0001
,  // measure 14
0000
1000
1000
1000
0000
0001
0300
0001
,  // measure 15
0020
1000
0000
1000
0000
0100
0000
0100
,  // measure 16
0000
0001
0001
0001
0000
1000
0030
1000
,  // measure 17
0002
0100
0000
1000
0000
0010
0000
1000
,  // measure 18
0000
0100
0100
0100
0000
0010
0003
0010
,  // measure 19
2000
0100
0000
0001
0000
0010
0000
3001
,  // measure 20
0000
0010
0010
0010
0000
1001
0000
0100
,  // measure 21
0110
0010
1000
0100
0001
0100
0010
0001
,  // measure 22
0100
1000
0100
0020
0000
0000
0130
0000
,  // measure 23
0101
0001
0010
0001
0100
0010
1000
0100
,  // measure 24
0010
1000
0001
0200
0000
0000
0310
0000
,  // measure 25
0110
0100
1000
0001
0100
1000
0100
0010
,  // measure 26
1000
0100
0010
0002
0000
0000
1003
0000
,  // measure 27
1010
1000
0001
0100
1000
0001
0010
0001
,  // measure 28
1000
0100
0010
2000
0000
0000
3001
0000
,  // measure 29
2002
0000
0000
3003
,  // measure 30
0010
0000
0000
0100
0000
0000
0010
0000
0000
0010
0000
0000
0100
0000
0010
0000
0100
0000
0010
0000
0100
0000
0010
0000
,  // measure 31
0220
0330
0100
1001
,  // measure 32
0110
0000
0000
0000
0000
0000
1010
0000
0000
0000
0000
0000
0100
0000
0000
0000
0011
0000
0000
0000
0000
1000
0000
0000
,  // measure 33
0001
0101
1100
1010
,  // measure 34
0010
0000
0000
0000
0000
0000
0010
0000
0000
0000
0000
0000
0100
0000
0000
0000
1001
0000
0000
0000
0000
0010
0000
0000
,  // measure 35
0220
0330
0100
1001
,  // measure 36
0010
0000
0000
0000
0000
0000
1001
0000
0000
0000
0000
0000
0010
0000
0000
0000
1100
0000
0000
0000
0000
0001
0000
0000
,  // measure 37
0110
1001
0110
1001
,  // measure 38
0010
0000
0000
0010
0000
0000
0010
0000
0000
0010
0000
0000
0110
0000
0000
0000
0110
0000
0000
0000
0000
0110
0000
0000
,  // measure 39
0000
0100
0001
0010
1000
0001
0100
1000
,  // measure 40
0000
0010
1000
0100
0001
1000
0010
0001
,  // measure 41
0000
1000
0010
1000
0100
0001
0100
0010
,  // measure 42
0000
0001
0100
0001
0010
1000
0010
0100
,  // measure 43
0000
1000
0010
1000
0001
0010
1000
0010
,  // measure 44
0000
0100
1000
0100
0010
0001
0100
0001
,  // measure 45
0000
1000
0010
1000
0001
0010
1000
0010
,  // measure 46
0000
0100
1000
0100
0010
0001
0100
1000
,  // measure 47
0001
0000
0011
0000
1010
1000
0000
0101
,  // measure 48
0000
1100
0000
0120
0000
0000
0031
0000
,  // measure 49
1100
0000
0110
0000
0011
0001
0000
0101
,  // measure 50
0000
1010
0000
2100
0000
0000
3001
0000
,  // measure 51
0101
0000
0110
0000
1010
1000
0000
1100
,  // measure 52
0000
0011
0000
0201
0000
0000
1300
0000
,  // measure 53
1100
0000
0110
0000
1010
0010
0000
1100
,  // measure 54
0000
0011
0000
1020
0000
0000
0031
0000
,  // measure 55
0220
0000
0000
0000
0000
0330
0000
0000
;
