#TITLE:Magic Melody;
#SUBTITLE:(Deamon House Remix);
#ARTIST:Cj Mkh;
#CREDIT:;
#MUSIC:[ROUND 1] - Magic Melody (Deamon House Mix).ogg;
#SELECTABLE:YES;
#BACKGROUND:[ROUND 1] - Magic Melody (Deamon House Mix)-bg.png;
#BANNER:[ROUND 1] - Magic Melody (Deamon House Mix).png;
#CDTITLE:[ROUND 1] - Magic Melody (Deamon House Mix)-cdtitle.png;
#OFFSET:-1.984;
#SAMPLESTART:0.000;
#SAMPLELENGTH:0.000;
#BPMS:0=128;
#STOPS:;

//---------------dance-single - ----------------
#NOTES:
     dance-single:
     :
     Beginner:
     1:
     0.000,0.000,0.000,0.000,0.000:
0000
0000
0000
0000
,
0000
0000
1000
0000
,
0000
0000
0001
0000
,
0000
0010
0010
0010
,
0000
0100
0000
0100
,
0000
0001
0000
0001
,
0000
1000
0000
2000
,
0000
0000
0000
3000
,
0001
0000
0000
0000
,
0100
0000
0000
0010
,
0010
0000
0000
0000
,
1000
0000
0001
0000
,
1000
0000
0000
0000
,
0010
0000
0000
0100
,
0100
0000
0000
0000
,
0001
0000
1000
0001
,
0000
0010
0000
0010
,
0000
0100
0000
0100
,
0000
1000
0000
0001
,
1000
1000
1000
0001
,
0000
0100
0000
0100
,
0000
0000
0000
0000
0000
0000
0000
0000
0000
0000
0000
0000
0000
0000
0000
0000
0000
0000
0000
0000
0000
0000
0000
0000
0000
0000
0000
0000
0000
0000
0000
0000
0000
0000
0000
0000
0000
0000
0000
0000
0000
0000
0000
0000
0000
0000
0000
0000
0010
0000
0000
0000
0000
0000
0000
0000
0000
0000
0000
0000
0000
0000
0000
0000
0000
0000
0000
0000
0000
0000
0000
0000
0000
0000
0000
0000
0000
0000
0000
0000
0000
0000
0000
0000
0000
0000
0000
0000
0000
0000
0000
0000
0000
0000
0000
0000
0000
0000
0000
0000
0000
0000
0000
0000
0000
0000
0000
0000
0000
0000
0000
0000
0000
0000
0000
0000
0000
0000
0000
0000
0000
0000
0000
0000
0000
0000
0000
0000
0000
0000
0000
0000
0000
0000
0000
0000
0000
0000
0000
0000
0000
0000
0000
0000
0020
0000
0000
0000
0000
0000
0000
0000
0000
0000
0000
0000
0000
0030
0000
0000
0000
0000
0000
0000
0000
0000
0000
0000
0000
0000
0000
0000
0000
0000
0000
0000
0000
0000
0000
0000
0000
0000
0000
0000
0000
0000
0000
0000
0000
0000
0000
0000
,
0000
1000
0000
0001
,
1000
1000
1000
0000
,
0020
0000
0000
0000
0000
0000
0000
0000
0000
0000
0000
0000
0000
0000
0000
0000
0000
0000
0000
0000
0000
0000
0000
0000
0000
0000
0000
0000
0000
0000
0000
0000
0000
0000
0000
0000
0000
0000
0000
0000
0000
0000
0000
0000
0000
0000
0000
0000
0000
0000
0000
0000
0000
0000
0000
0000
0000
0000
0000
0000
0000
0000
0000
0000
0000
0000
0000
0000
0000
0000
0000
0030
0000
0000
0000
0000
0000
0000
0000
0000
0000
0000
0000
0000
0000
0000
0000
0000
0000
0000
0000
0000
0000
0000
0000
0000
,
0020
0000
0000
0000
0000
0000
0000
0000
0000
0000
0000
0000
0000
0000
0000
0000
0000
0000
0000
0000
0000
0000
0000
0000
0000
0000
0000
0000
0000
0000
0000
0000
0000
0000
0000
0000
0000
0030
0000
0000
0000
0000
0000
0000
0000
0000
0000
0000
,
0200
0000
0000
0000
0000
0000
0000
0000
0000
0000
0000
0000
0000
0000
0000
0000
0000
0000
0000
0000
0000
0000
0000
0000
0000
0000
0000
0000
0000
0000
0000
0300
,
0002
0000
0000
0000
,
2003
0000
0000
0000
0000
0000
0000
0000
0000
0000
0000
0000
0000
0000
0000
0000
0000
0000
0000
0000
0000
0000
0000
0000
0000
0000
0000
0000
0000
0000
0000
0000
0000
0000
0000
0000
0000
0000
0000
0000
0000
0000
0000
0000
0000
0000
0000
0000
0000
0000
0000
0000
0000
0000
0000
0000
0000
0000
0000
0000
0000
0000
0000
0000
0000
0000
0000
0000
0000
0000
0000
0000
0000
0000
0000
0000
0000
0000
0000
0000
0000
0000
0000
0000
0000
0000
0000
0000
0000
0000
0000
0000
0000
0000
0000
3000
,
0020
0000
0000
0000
,
1030
0000
1000
0000
,
0010
0010
0010
0010
,
0010
0000
0000
0000
,
0100
0000
0000
0000
,
0001
0000
0000
0000
,
1000
0000
0000
0000
,
0000
0001
0000
0001
,
0000
1000
0000
1000
,
0000
0100
0000
0100
,
0000
0010
0010
0010
,
0000
0100
0000
0100
,
0000
0001
0000
0001
,
0000
1000
0000
1000
,
0000
0010
0000
0000
,
0001
0001
0001
0000
,
1000
1000
1000
0000
,
0100
0100
0100
0000
,
0010
0010
0010
0000
,
1000
0000
0001
0000
,
0100
0000
0100
0000
,
0001
0001
0001
0000
,
1000
1000
1000
1000
,
0000
0000
0000
0000
,
0000
0000
0000
0000
,
0000
0000
0000
0000
,
0000
0000
0000
0000
;

//---------------dance-single - ----------------
#NOTES:
     dance-single:
     :
     Easy:
     3:
     0.000,0.000,0.000,0.000,0.000:
0000
0000
0000
0000
,
0000
0000
0020
0000
,
0030
0000
0200
0000
,
0300
0001
1000
0001
,
1000
0000
0010
0000
1000
0001
0000
0100
,
0000
0001
1000
0000
0000
0000
0001
0000
,
0000
0000
0100
0000
0010
0000
2000
0002
,
0000
0000
3003
0000
,
0100
0001
0100
0010
,
1000
0100
1000
0001
,
0010
0000
0010
0000
,
0100
0100
1000
0001
,
0010
1000
0010
0100
,
0001
0010
0001
1000
,
0100
0000
0100
0000
,
0010
0010
0001
1000
,
1001
0010
0000
0010
,
1000
0100
0000
0100
,
1000
0001
0000
0001
,
0010
0010
0100
1000
,
0001
0100
0000
0100
,
0001
0010
0000
0010
,
0001
1000
0000
1000
,
0100
0100
0010
0001
,
0002
0000
0000
0000
,
2003
0000
3010
0100
,
0020
0000
0000
0000
0000
0000
0000
2030
,
0000
0000
0000
3002
0000
0000
0003
0000
,
0220
0000
0000
0330
,
2002
0000
0000
3003
,
0100
0010
1000
0001
0000
0100
0000
0010
,
1000
0001
1000
0001
,
0110
0000
0000
0000
,
1000
0000
0001
0000
0000
0100
0000
0000
,
0000
0000
0010
0000
0000
1000
0000
0000
,
0000
0000
0001
0000
0000
0010
0000
0000
,
0100
1001
0000
1001
,
0100
1001
0000
1001
,
0010
1001
0000
0110
,
1000
0001
0100
0010
,
0100
1001
1000
0001
,
0100
0101
0001
0010
,
0100
1100
1000
0001
,
0100
0010
2000
0000
,
3001
0000
0001
0000
,
0100
0000
0100
0000
0010
0010
0000
0000
,
1000
0000
1000
0000
,
0001
0000
0001
0000
0100
0100
0010
0000
,
1000
0000
1000
0000
,
0010
0000
0010
0000
0100
0100
0000
0000
,
0001
0000
0001
1000
,
0100
0000
0100
0000
0010
0010
0002
0000
,
0000
0003
0000
0000
,
0000
0000
0000
0000
,
0000
0000
0000
0000
,
0000
0000
0000
0000
;

//---------------dance-single - ----------------
#NOTES:
     dance-single:
     :
     Medium:
     6:
     0.000,0.000,0.000,0.000,0.000:
0000
0000
0000
0000
,
0000
0000
2000
0000
,
3000
0000
0002
0000
,
0003
0100
0001
1000
,
0010
1001
0100
1001
,
0010
1001
0200
0000
,
0300
0000
0000
0000
0020
0000
0000
1030
,
0000
0001
0000
1000
0000
0001
0000
0000
,
1001
0000
1000
0000
0001
0010
0001
0000
,
1000
0000
0010
0000
1000
0100
1000
0000
,
0001
1000
0010
0200
,
0301
0001
1000
1000
,
0010
0000
0001
0000
1000
0100
1000
0000
,
0001
0000
0100
0000
0001
0010
0001
0000
,
1000
0001
0100
0020
,
1030
0000
1000
0000
0001
0000
0100
0100
,
0010
0000
1100
0000
0001
0100
0001
0000
,
0100
0000
1010
0000
0001
0010
0100
1000
,
0001
1000
0010
0200
,
0301
0001
1000
1000
,
0100
0000
0011
0000
1000
0010
1000
0000
,
0010
0000
0101
0000
1000
0100
0010
0001
,
1000
0001
0100
0020
,
1030
0000
1000
0000
0001
0000
0010
0100
,
2000
0000
0000
0000
3001
0010
0001
0010
,
0002
0000
0000
0000
1003
0010
1000
0010
,
2000
0000
0000
0000
3001
0010
0100
2000
,
0000
0000
0000
0000
0000
0000
0000
0000
0000
0000
0000
0000
0000
0000
0000
0000
0000
0000
0000
0000
0000
0000
0000
0000
0002
0000
0000
0000
0000
0000
0000
0000
0000
0000
0000
0000
0000
0000
0000
0000
0000
0000
0000
0000
0000
0000
0000
0003
3000
0000
0000
0000
0000
0000
0000
0000
0000
0000
0000
0000
0000
0000
0000
0000
,
0020
0000
0000
0000
,
0200
0000
0000
0330
,
1000
0100
0010
0001
0000
0100
0000
0010
,
1000
0001
1000
0001
,
0110
0000
0000
0000
,
1000
0000
0010
0000
0100
0001
0000
0001
,
1000
0000
0100
0000
0010
0001
0000
0001
,
1000
0000
0001
0000
0010
0100
0000
1000
,
0001
0000
1001
0000
0010
0100
0010
0000
,
1000
0000
0110
0000
0001
1000
0001
0000
,
0010
0000
1001
0000
0100
0010
0100
0000
,
0001
0000
0110
0000
1000
0001
0010
0100
,
1000
0000
0011
0000
1000
0000
0100
0010
,
0001
0000
1100
0000
0001
0000
0010
0100
,
1000
0000
0101
0000
0010
0100
0001
0000
,
1000
0010
1000
0010
0100
0001
0010
0100
,
1000
0001
0000
1000
0001
1000
0000
0001
,
0010
0001
0000
1000
0100
1000
0000
0001
,
0100
0001
0000
1000
0010
1000
0000
0001
,
0100
0010
1000
0001
,
1000
0100
0000
0010
0001
0100
0000
0010
,
1000
0010
0000
0100
0001
0010
0000
0100
,
1000
0100
0000
0010
0001
1000
0000
0001
,
0100
1000
0001
0220
,
0000
0330
0000
0000
,
0000
0000
0000
0000
,
0000
0000
0000
0000
,
0000
0000
0000
0000
;

//---------------dance-single - ----------------
#NOTES:
     dance-single:
     :
     Hard:
     7:
     0.000,0.000,0.000,0.000,0.000:
0000
0000
0000
0000
,
0000
0000
0000
0000
1000
0001
1000
0002
,
0000
0003
0000
1000
0001
0010
0100
2000
,
0000
3000
1000
0010
0100
0001
0100
0001
,
1000
0000
1001
0000
0001
0100
0000
0010
,
0000
1000
0001
0000
0100
0010
0100
0020
,
0000
0030
0000
0100
0001
0010
0100
2000
,
3000
0002
0003
2000
3000
0002
0003
2000
,
3010
0000
0100
0000
0001
0010
1000
0000
,
0010
0000
0001
0000
1000
0100
0001
0100
,
1000
0000
0010
0000
0100
0000
0001
0010
,
0001
1000
0001
1000
0010
1000
0100
1000
,
0001
0000
0001
0000
1000
0100
0001
0000
,
1000
0000
1000
0000
0001
0010
1000
0010
,
0001
1000
0010
0100
,
0001
1000
0001
0100
0001
0010
0100
0000
,
1001
0000
0100
0000
0010
0010
1000
0000
,
0100
0000
1001
0000
0010
0010
0001
0100
,
1000
0101
2000
3010
,
1000
0001
1000
0001
0100
0010
1000
0001
,
1000
0000
0010
0000
0100
0100
0001
0000
,
0010
0000
1001
0000
0100
0100
1000
0010
,
0001
1010
0002
0103
,
0001
1000
0001
1000
0200
0000
0010
0000
,
0320
0000
0001
0000
0031
0010
0100
1000
,
0020
0000
1000
0000
0130
0001
1000
0100
,
2000
0000
0100
0000
3001
0010
0100
0020
,
0000
0130
0010
0200
0000
1300
0002
0000
,
2003
0000
0000
0010
0000
0000
0010
0000
0010
0000
0000
0000
3100
0000
0000
0000
,
0002
0000
0000
0100
0000
0000
0100
0000
0100
0000
0000
1000
0003
0000
0000
0000
,
0001
0010
0100
1000
0000
0001
0000
1000
,
0020
0000
0230
0000
0320
0000
0230
0300
,
1001
0000
0000
0000
,
1000
0100
1000
0001
0010
0001
0000
0000
,
1000
0100
1000
0001
0010
0001
0000
0000
,
1000
0010
1000
0001
0100
0001
0000
0000
,
1000
0000
0101
0000
1000
0010
0100
0000
,
1000
0000
0101
0000
0010
0100
1000
0000
,
0001
0000
1010
0000
0001
0010
0100
0000
,
0001
0000
1010
0000
0001
1000
0010
0100
,
0010
0000
1100
0000
0100
0010
0001
0000
,
0010
0000
1100
0000
0100
0001
0010
0000
,
0100
0000
0011
0000
0010
0100
1000
0000
,
0010
0000
0011
0000
0010
1000
0001
0100
,
0010
0010
0000
1000
0001
0001
0000
0001
,
0010
0100
0010
0100
1000
1000
0000
0010
,
0100
0100
0000
0001
1000
1000
0000
0010
,
0001
0100
0010
1000
0010
0100
0001
0000
,
0100
0100
0000
0001
0010
0010
0000
1000
,
0100
0100
0010
0010
0001
0001
0000
1000
,
0010
0010
0000
0001
0100
0100
0000
0001
,
0010
0100
1000
0001
1000
0001
2002
0000
,
3003
0000
0000
0000
,
0000
0000
0000
0000
,
0000
0000
0000
0000
,
0000
0000
0000
0000
;

//---------------dance-single - ----------------
#NOTES:
     dance-single:
     :
     Challenge:
     9:
     0.000,0.000,0.000,0.000,0.000:
0000
0000
0000
0000
,
0000
0000
0000
0000
1000
0010
0100
0002
,
0000
0003
0000
0000
0000
0000
1000
0000
0001
0000
0001
0000
1000
0000
0200
0000
,
0000
0000
0310
0010
0001
1000
0001
1000
,
0100
0000
1001
0000
0100
0001
0000
2000
,
0000
3001
0010
0000
0100
1000
0001
0020
,
0000
0030
0000
0000
1001
0000
1000
0000
0010
0000
0010
0000
1000
0000
0002
0003
,
0010
0000
0002
0003
0100
0000
0002
0003
1000
0000
0002
0003
1000
0000
0200
0000
,
0320
0030
0000
0010
0002
0003
1000
0000
0010
0000
1000
0000
0002
0003
0100
0000
,
0020
0030
0000
0010
2000
3000
0001
0000
0100
0000
0001
0000
0020
0000
0230
0000
,
2300
3000
0000
1000
0001
0000
0100
0000
0002
0000
0000
0000
2003
3000
0020
2030
,
3001
0000
0001
0000
0001
0000
0001
0000
0100
0000
0100
0000
0020
0030
2000
3000
,
0020
0030
0000
0100
0002
0003
1000
0000
0001
0000
0010
0000
0002
0003
1000
0000
,
0200
0300
0000
0100
2000
3000
0001
0000
1000
0000
0010
0000
1000
0000
0001
0000
,
0010
0000
0000
0100
0010
0000
0100
0000
1000
0000
0000
0000
0010
0000
0100
0001
,
1000
0000
1000
0000
1000
0000
1000
0000
0010
0000
0010
0000
1000
0001
1000
0000
,
1020
0030
0000
0010
2000
3000
0001
0000
0010
0000
0001
0000
1002
0003
1000
0000
,
0200
0300
0000
0100
2000
3000
0001
0000
0100
0000
0100
0000
1001
0000
0010
0000
,
1000
0000
0000
1000
0100
0000
0001
0000
0200
0000
0000
0000
1300
0000
0001
0100
,
0001
0001
0001
0001
0100
0100
0001
0010
,
0021
0030
0000
0010
0002
0003
1000
0000
0010
0000
1000
0000
2001
3000
0001
0000
,
0200
0300
0000
0100
0002
0003
1000
0000
0100
0000
0100
0000
1001
0000
0010
0000
,
0001
0000
0000
0001
0100
0000
1000
0000
0200
0000
0000
0000
0310
0000
1000
0100
,
1000
1000
1000
1000
0020
0000
0230
0301
,
2001
0000
0010
0000
3001
0010
0100
1000
,
2001
0000
0100
0000
3010
0001
1000
0100
,
0020
0000
1000
0000
0130
0001
1000
0020
,
0000
0130
0001
0020
0000
0130
2000
0000
,
3001
0000
0000
1000
0001
0000
0100
0000
0020
0000
0000
0000
1030
0000
0001
0000
,
1000
0000
0000
0010
1000
0000
0001
0000
0200
0000
0000
0000
0301
0000
0010
0000
,
0200
0000
2300
0000
3020
0000
0032
0000
0000
0000
2003
0000
0000
0000
3100
0001
,
0100
0001
0100
0001
1000
0010
1000
0010
0100
0001
0100
0001
1000
0010
1000
0010
,
1000
0001
1000
0001
1000
0001
1000
0010
,
1000
0001
1000
0001
1000
0001
1000
0010
,
1000
0001
0100
0001
1000
0100
0010
1000
,
0010
0001
1000
0100
0001
0100
1000
0010
,
1000
0000
0001
0100
0001
0000
1000
0000
0100
0000
0010
0000
0011
0000
0001
0000
,
1000
0000
0010
1000
0010
0000
0100
0000
0001
0000
0010
0000
0011
0000
0001
0000
,
1000
0000
0001
0010
0001
0000
1000
0000
0100
0000
0010
0000
0011
0000
0001
0000
,
0010
0000
0100
1000
0100
0000
0010
0000
0001
0000
1000
0001
0100
0000
0100
0000
,
0001
0000
1000
0010
1000
0000
0001
0000
0010
0000
0100
0000
1100
0000
1000
0000
,
0001
0000
0100
0001
0100
0000
0010
0000
1000
0000
0100
0000
1100
0000
1000
0000
,
0001
0000
1000
0100
1000
0000
0001
0000
0010
0000
0100
0000
1100
0000
1000
0000
,
0100
0000
0010
0001
0010
0000
0100
0000
1000
0000
1000
0000
0001
0000
0001
0000
,
0110
0100
0M00
0100
1000
0010
00M0
0010
,
0100
0001
0001
0001
1000
1000
0010
0100
,
0110
0010
00M0
0010
1000
0100
0M00
0100
,
0010
0001
0001
0001
1000
1000
0020
0000
,
0130
0110
0MM0
0100
0010
1010
M0M0
1000
,
0001
0011
0001
0010
1000
1001
0001
0100
,
0010
0110
0MM0
0100
0001
0011
00MM
0001
,
1000
0100
0010
1001
0100
1001
0220
0000
,
0330
0000
0000
0000
,
0000
0000
0000
0000
,
0000
0000
0000
0000
,
0000
0000
0000
0000
;

//---------------dance-double - ----------------
#NOTES:
     dance-double:
     :
     Easy:
     4:
     0.000,0.000,0.000,0.000,0.000:
00000000
00000000
00000000
00000000
,
00000000
00000000
00002000
00000000
,
00003000
00000000
00020000
00000000
,
00030000
00001000
00010000
00001000
,
00010000
00000000
01000000
00000000
10000000
00100000
00000000
01000000
,
00000000
00010000
00100000
00000000
00000000
00000000
00001000
00000000
,
00000000
00000000
00001000
00000000
00010000
00000000
00000200
00002000
,
00000000
00000000
00003300
00000000
,
00000010
00001000
00000001
00000010
,
00001000
00010000
01000000
10000000
,
00100000
01000000
00020000
00030000
,
00100000
00100000
00001000
00010000
,
00100000
10000000
00010000
00100000
,
00001000
00000100
00000001
00000010
,
00000100
00000000
00010000
00000000
,
00001000
00001000
00000100
00000001
,
00001001
00001000
00000010
00000100
,
00001000
00010000
01000000
10000000
,
00010000
10000000
00200000
10300000
,
01000000
00000000
01000000
00000000
00001000
00000000
00001000
00010000
,
00000010
00000100
00000001
00000010
,
00001000
00010000
01000000
00010000
,
00001000
01000000
00200000
10300000
,
00010000
00100000
00001000
00010000
,
00000200
00000000
00000000
00000000
,
00020300
00000000
00001000
01000000
,
00230000
00000000
00000000
00000000
00320000
00000000
00000000
00030200
,
00000000
00000000
00000000
00000302
00000000
00000000
00000003
00000000
,
00002200
00000000
00000000
00003300
,
00220000
00000000
00000000
00330000
,
10000000
01000000
00100000
00010000
00000000
01000000
00000000
00001000
,
00001000
00010000
00001000
00010000
,
00011000
00000000
00000000
00000000
,
00000100
00000000
00010000
00000000
00000000
00000010
00000000
00000000
,
00010000
00000000
00001000
00000000
00000000
00100000
00000000
00000000
,
01000000
00000000
10000000
00000000
00000000
00010000
00000000
00000000
,
01000000
00010000
01000000
00010000
,
00100000
00001000
00100000
00001000
,
00010000
00000100
00010000
00000100
,
00001000
00000001
00000010
00001000
,
00010000
10000000
00010000
10000000
,
00100000
01000000
00100000
01000000
,
00010000
00010000
00000100
00000100
,
00000001
00000001
00000020
00000000
,
00000130
00000000
00000100
00000000
,
00010000
00000000
00010000
00000000
00000100
00000100
00000000
00000000
,
00001000
00000000
01000000
00000000
,
10000000
00000000
10000000
00000000
00010000
00010000
01000000
00000000
,
00100000
00000000
00100000
00000000
,
00001000
00000000
00001000
00000000
00100000
00100000
00000000
00000000
,
00010000
00000000
00000100
00000001
,
00000010
00000000
00010000
00000000
00100000
00010000
20000000
00000000
,
00000000
30000000
00000000
00000000
,
00000000
00000000
00000000
00000000
,
00000000
00000000
00000000
00000000
,
00000000
00000000
00000000
00000000
;

//---------------dance-double - ----------------
#NOTES:
     dance-double:
     :
     Medium:
     6:
     0.000,0.000,0.000,0.000,0.000:
00000000
00000000
00000000
00000000
,
00000000
00000000
00002000
00000000
,
00003000
00000000
00020000
00000000
,
00030000
01000000
10000000
00010000
,
00100000
00011000
00000100
00011000
,
00100000
00011000
00000200
00000000
,
00000300
00000000
00001000
00000000
00000020
00000000
00000000
00000031
,
00000000
00001000
00000000
00010000
00000000
01000000
00000000
10000000
,
10010000
00000000
00100000
00000000
01000000
00010000
01000000
00000000
,
00001000
00000000
00010000
00000000
00000010
00001000
00000100
00000010
,
00001000
00010000
01000000
00200000
,
10300000
00010000
00100000
00001000
,
00010000
00000000
00010000
00000000
00000010
00001000
00000010
00000000
,
00001000
00000000
00001000
00000000
01000000
00010000
01000000
00000000
,
10000000
00010000
01000000
00002000
,
00013000
00000000
00010000
00000000
00100000
00000000
00001000
00001000
,
00000100
00000000
00000011
00000000
00000010
00000100
00001000
00000000
,
00000001
00000000
00001100
00000000
00000100
00010000
01000000
10000000
,
00010000
10010000
01000000
00002000
,
00103000
00100000
00001000
00000100
,
00000010
00000000
00001010
00000000
00000010
00000100
00000001
00000000
,
00000010
00000000
00001100
00000000
00000010
00000100
00010000
00001000
,
01000000
01010000
00100000
00002000
,
00013000
00000000
00010000
00000000
00000010
00000000
00000100
00000001
,
00002000
00000000
00000001
00000000
00003100
00010000
00000100
00010000
,
00002000
00000000
00100000
00000000
10003000
00010000
01000000
00100000
,
20000000
00000000
00010000
00000000
30010000
00100000
00001000
00020000
,
00000000
00000100
00000100
00030200
00000000
00000010
00000310
00000000
,
00002000
00000000
00000000
00000000
,
00000002
00000000
00000000
00003003
,
00000100
00001000
00010000
00100000
00000000
10000000
00000000
00010000
,
01000000
00001000
00010000
00000010
,
00011000
00000000
00000000
00000000
,
00001000
00000000
00100000
00000000
01000000
10000000
00000000
10000000
,
00010000
00000000
00100000
00000000
00001000
00010000
00000000
00010000
,
00000100
00000000
00001000
00000000
00000010
00000100
00000000
00000001
,
00001000
00000000
00000001
00000000
00001000
00000100
00010000
00000000
,
00001000
00000000
00010000
00000000
00001000
00100000
00010000
00000000
,
00100000
00000000
00010000
00000000
00100000
01000000
10000000
00000000
,
00010000
00000000
01100000
00000000
00010000
00000100
00000001
00000010
,
00001000
00000000
00001001
00000000
00001000
00000100
00010000
00000000
,
00001000
00000000
00011000
00000000
00001000
00100000
00010000
00000000
,
00100000
00000000
00110000
00000000
00100000
01000000
10000000
00000000
,
00010000
00000000
01100000
00000000
00001000
00010000
00001000
00010000
,
00010000
01000000
00000000
10000000
00100000
10000000
00000000
00100000
,
00010000
00100000
00000000
00010000
00000100
00010000
00000000
00000100
,
00000001
00000100
00000000
00000001
00001000
00000001
00000000
00000100
,
00001000
00000100
00010000
00001000
00010000
00010000
00001000
00000000
,
01000000
00010000
00000000
00100000
00010000
01000000
00000000
00001000
,
00010000
00001000
00000000
00000100
00000001
00000010
00000000
00001000
,
00010000
00001000
00000000
00100000
00010000
10000000
00000000
00010000
,
01000000
00001000
00010000
00002020
,
00000000
00003030
00000000
00000000
,
00000000
00000000
00000000
00000000
,
00000000
00000000
00000000
00000000
,
00000000
00000000
00000000
00000000
;

//---------------dance-double - ----------------
#NOTES:
     dance-double:
     :
     Hard:
     8:
     0.000,0.000,0.000,0.000,0.000:
00000000
00000000
00000000
00000000
,
00000000
00000000
00000000
00000000
00000001
00000010
00000100
00002000
,
00003000
00000000
00000000
00000100
00010000
00001000
01000000
00200000
,
00000000
00300000
10000000
00100000
01000000
00010000
00100000
00001000
,
00010000
00000000
00011000
00000000
00000100
00001000
00000000
00000001
,
00000000
00000010
00000100
00000000
00010000
00001000
00010000
00000200
,
00000300
00000000
00010000
01000000
10000000
00100000
01000000
00020000
,
00030000
20000000
30000000
00020000
00030000
20000000
30000000
00020000
,
00130000
00000000
00000000
00100000
00020000
00000000
10030000
00000000
01000000
00000000
00010000
00000000
00002000
00000000
00003000
00000000
,
00000100
00000000
00000000
00000100
00000002
00000000
00001003
00000000
00000100
00000000
00010000
00000000
00002000
00000000
00013000
00000000
,
01000000
00000000
00000000
01000000
20000000
00000000
30010000
00000000
02000000
00000000
00000000
00000000
03001000
00000000
01000000
00000000
,
00100000
00010000
00100000
00010000
00001000
00000100
00000001
00001000
,
00000100
00000000
00000000
00000100
00002000
00000000
00003001
00000000
00000010
00000000
00001000
00000000
00020000
00000000
00030000
00000000
,
00100000
00000000
00000000
00100000
20000000
00000000
30010000
00000000
00100000
00000000
00001000
00000000
00010000
00000000
00001000
00000000
,
00000010
00000000
00000000
00000010
00000001
00000000
00001000
00000000
00000020
00000000
00000000
00000000
00010030
00000000
00000010
00000000
,
00000100
00001000
00000100
00001000
00010000
00100000
10000000
00010000
,
10010000
00000000
00000000
10000000
00100000
00000000
01000000
00000000
00100000
00000000
00010000
00000000
00001000
00000000
00000100
00000000
,
00000001
00000000
00000000
00000001
00000100
00000000
00000010
00000000
00000100
00000000
00001000
00000000
00010000
00000000
01000000
00000000
,
10000000
00000000
00000000
00100000
01000000
00000000
00010000
00000000
00000200
00000000
00000000
00000000
00001300
00000000
00010000
00000000
,
01000000
10000000
01000000
00010000
01000000
00100000
00010000
00000100
,
00000001
00000000
00000000
00000010
00000001
00000000
00000100
00000000
00001000
00000000
00100000
00000000
00010000
00000000
10000000
00000000
,
10000000
00000000
00000000
01000000
10000000
00000000
00100000
00000000
00010000
00000000
00000100
00000000
00001000
00000000
00000001
00000000
,
00000100
00000000
00000000
00000001
00001000
00000000
00000100
00000000
00000002
00000000
00000000
00000000
00001003
00000000
01000000
00000000
,
00010000
00100000
00010000
00100000
02000000
00000000
03020000
00032000
,
00003020
00000000
00000100
00000000
00000031
00000010
00000100
00001000
,
00000020
00000000
00010000
00000000
00001030
00000100
00010000
00001000
,
00200000
00000000
01000000
00000000
00310000
01000000
10000000
02000000
,
00000000
03001000
00010000
00000200
00000000
00010300
00002000
00000000
,
02003000
00000000
00000000
10000000
00000000
00000000
00100000
00000000
00010000
00000000
00000000
00000000
00001000
00000000
00000000
00000000
,
03002000
00000000
00000000
00000010
00000000
00000000
00010000
00000000
00000100
00000000
00000000
00000000
00010000
00000000
00000000
00000000
,
00003100
00000001
00000010
00001000
00000000
00000001
00000000
00001000
,
00020000
00030200
00000320
00000032
,
00001003
00000000
00000000
00000000
00000000
00000000
00000000
00000100
,
00001000
00001000
00000010
00000010
00010000
00010000
00001000
00010000
,
01000000
01000000
10000000
10000000
00010000
00010000
00100000
00001000
,
00000100
00000100
00000001
00000001
00000010
00000010
00001000
00010000
,
01000000
00000000
01100000
00000000
10000000
00100000
01000000
00001000
,
00010000
00000000
00001100
00000000
00000010
00000001
00001000
00000100
,
00010000
00000000
00101000
00000000
00010000
00100000
01000000
10000000
,
00100000
00000000
00010100
00000000
00001000
00001000
00000001
00000010
,
00000001
00001000
00001001
00000000
00000100
00001000
01000000
10000000
,
00100000
10000000
10100000
00000000
01000000
00010000
00000100
00000001
,
00000010
00000100
00000110
00000000
00010000
00000100
00010000
00001000
,
00100000
00010000
00110000
00100000
00001000
00001000
00000100
00000100
,
00000001
00000001
00000000
00000001
00000010
00000010
00000000
00001000
,
00000010
00000010
00000100
00000100
01000000
01000000
00000000
00100000
,
01000000
01000000
00000000
00010000
00100000
00100000
00000000
00001000
,
00010000
00010000
00000001
00000001
00000010
00001000
00011000
00000000
,
10000000
10000000
00000000
00010000
01000000
01000000
00000000
00001000
,
00100000
00100000
00000010
00000010
00001000
00000100
00000000
00000100
,
00000010
00000010
00000000
00001000
00100000
00100000
00000000
00010000
,
00000100
00000100
00000001
00000001
00000010
00001000
00200020
00000000
,
00300030
00000000
00000000
00000000
,
00000000
00000000
00000000
00000000
,
00000000
00000000
00000000
00000000
,
00000000
00000000
00000000
00000000
;
