#TITLE:판매왕;
#SUBTITLE:;
#ARTIST:노라조;
#TITLETRANSLIT:King of Sales;
#SUBTITLETRANSLIT:;
#ARTISTTRANSLIT:Norazo;
#GENRE:;
#CREDIT:;
#BANNER:;
#BACKGROUND:;
#LYRICSPATH:;
#CDTITLE:;
#MUSIC:[ROUND 1] - King of Sales.ogg;
#OFFSET:-6.406;
#SAMPLESTART:38.406;
#SAMPLELENGTH:12.800;
#SELECTABLE:YES;
#BPMS:0.000=150.000
,196.000=37.500
,201.000=150.000
;
#STOPS:
;
#BGCHANGES:;
#KEYSOUNDS:;
#ATTACKS:;

//---------------dance-single - ----------------
#NOTES:
     dance-single:
     :
     Medium:
     6:
     0.411,0.439,0.289,0.164,0.074,310.000,37.000,21.000,0.000,0.000,0.000,0.411,0.439,0.289,0.164,0.074,310.000,37.000,21.000,0.000,0.000,0.000: // measure 0
0000
0000
0000
0000
,  // measure 1
0000
0000
0000
0000
,  // measure 2
0000
0000
0000
0000
,  // measure 3
0000
0000
0000
0000
,  // measure 4
1000
0000
0010
0000
0100
0000
0010
1000
,  // measure 5
0001
0010
0100
0010
,  // measure 6
0001
1000
0010
0000
0100
0000
0001
0000
,  // measure 7
2000
0000
0002
3003
,  // measure 8
1001
0000
0100
0000
0001
0010
1000
0000
,  // measure 9
1100
0000
0001
0000
1000
0100
0010
0000
,  // measure 10
1001
0000
0100
0000
1000
0010
0001
0000
,  // measure 11
0101
0200
0010
0310
,  // measure 12
1001
0000
0010
0000
0001
0100
1000
0000
,  // measure 13
1010
0000
0001
0000
1000
0001
0100
0000
,  // measure 14
0011
0010
1010
0010
,  // measure 15
0110
0000
0000
0100
0000
0000
0010
0000
2002
0000
0000
0000
0000
0000
3003
0000
,  // measure 16
0011
0000
0010
0000
0100
0010
0100
1000
,  // measure 17
0001
1000
0010
1000
,  // measure 18
0101
0000
0100
0000
0010
0100
0010
1000
,  // measure 19
0002
0023
0230
1300
,  // measure 20
1010
0000
0010
0000
0100
0010
0100
0001
,  // measure 21
1000
0100
0010
0001
,  // measure 22
1100
0000
0001
0000
1000
0100
0010
0001
,  // measure 23
2000
0000
0100
0001
,  // measure 24
3010
0000
0000
0100
0000
0000
0001
0000
0000
0000
1000
0000
0001
0000
1000
0000
,  // measure 25
0010
0000
0000
0100
0000
0000
0002
0000
0000
0000
0000
0000
0003
0000
0000
0000
,  // measure 26
1000
0010
0001
0010
,  // measure 27
0110
1000
1001
0001
,  // measure 28
0010
0000
0000
0100
0000
0000
1000
0000
0000
0000
0001
0000
1000
0000
0001
0000
,  // measure 29
0010
0000
0000
0100
0000
0000
2000
0000
0000
0000
0000
0000
3000
0000
0000
0000
,  // measure 30
0001
0000
0100
0000
0001
0100
0010
0100
,  // measure 31
1000
0200
0010
0301
,  // measure 32
1001
0000
0000
0001
1000
0000
0000
1000
0001
0000
1000
0000
0010
0000
0000
0000
,  // measure 33
1010
0000
0110
0000
0101
0000
0000
1000
,  // measure 34
0001
0000
0010
0000
0100
0010
0100
0000
,  // measure 35
1000
0001
1000
0001
0100
0000
0000
0000
,  // measure 36
1001
0000
0000
1000
0001
0000
0000
0001
1000
0000
0001
0000
0010
0000
0000
0000
,  // measure 37
0011
0000
0110
0000
1100
0000
0000
0001
,  // measure 38
1000
0000
0010
0000
0100
0010
0100
0001
,  // measure 39
0000
1000
0000
0000
0001
0000
0001
0000
,  // measure 40
0020
0000
0001
0000
0000
0000
0031
0010
,  // measure 41
0200
0000
0010
0000
0000
0000
0310
0100
,  // measure 42
2000
0000
3001
1000
0002
0000
1003
0001
,  // measure 43
0100
0010
1010
0011
,  // measure 44
2000
0010
0001
3100
,  // measure 45
1002
0100
0010
0103
,  // measure 46
1000
0001
1000
0001
1000
0001
1000
0001
,  // measure 47
0200
0000
0000
0000
,  // measure 48
0020
0000
0000
0000
,  // measure 49
0330
0000
0000
1000
,  // measure 50
0001
0000
1000
0000
1001
0000
0000
1000
0001
0000
0000
0001
1000
0000
0001
0000
,  // measure 51
0010
0011
1010
0110
,  // measure 52
0000
0001
0010
0000
0100
0000
1000
0100
,  // measure 53
1000
0000
0001
1000
0001
1000
0010
0000
,  // measure 54
0000
0000
0000
0000
1001
0000
0000
0001
1000
0000
0000
1000
0001
0000
1000
0000
,  // measure 55
0010
1010
0011
0110
,  // measure 56
0000
1000
0001
0000
0001
0000
1000
0001
,  // measure 57
1000
0010
0000
0010
0000
0000
0100
0000
,  // measure 58
0100
0000
0000
0000
1001
0000
0000
0001
0100
0000
0000
0100
0010
0000
0100
0000
,  // measure 59
0001
0000
1000
0010
0001
0010
0100
0000
,  // measure 60
0001
1000
0100
0000
0010
0000
0100
0010
,  // measure 61
0100
0000
1000
0001
1000
0001
0100
0000
,  // measure 62
0000
0000
0000
0000
1001
0000
0000
1000
0100
0000
0000
0100
0010
0000
0100
0000
,  // measure 63
1000
0000
0001
0010
1000
0010
0001
0000
,  // measure 64
1000
0001
0100
0000
0010
0000
0100
0010
,  // measure 65
0100
0001
0000
1000
0000
0000
0010
0000
,  // measure 66
0010
0000
0000
0000
0100
0000
0000
0001
0000
0000
0100
0000
0010
0000
1000
0000
,  // measure 67
0001
0000
0100
0000
0010
0000
0000
1000
0000
0000
0010
0000
0100
0000
0001
0000
,  // measure 68
0010
0020
0000
0000
,  // measure 69
0000
0000
0000
0000
,  // measure 70
0000
0030
0000
0000
;

//---------------dance-single - ----------------
#NOTES:
     dance-single:
     :
     Easy:
     3:
     0.173,0.220,0.086,0.094,0.000,132.000,11.000,12.000,0.000,0.000,0.000,0.173,0.220,0.086,0.094,0.000,132.000,11.000,12.000,0.000,0.000,0.000:
0000
0000
0000
0000
,
0000
0000
0000
0000
,
0000
0000
0000
0000
,
0000
0000
0000
0000
,
0000
0000
0000
0000
,
0000
0000
0000
0000
,
0000
0000
0000
0000
,
0000
0000
0000
0000
,
1000
0000
0001
0000
,
0100
0100
0100
0000
,
0001
0000
1000
0000
,
0100
0000
0010
0000
,
0001
0000
1000
0000
,
0100
0100
0100
0000
,
0010
0000
0010
0000
,
0001
0000
1000
0000
,
2002
0000
3003
0000
0000
0000
0000
0000
0000
0000
0000
0000
,
1000
0000
0100
0000
,
0220
0000
0330
0000
0000
0000
0000
0000
0000
0000
0000
0000
,
0010
0000
0001
1000
,
2002
0000
3003
0000
0000
0000
0000
0000
0000
0000
0000
0000
,
0001
0000
0100
0000
,
0220
0000
0330
0000
0000
0000
0000
0000
0000
0000
0000
0000
,
1000
1000
1000
0000
,
0010
0000
0000
0010
,
0010
0000
0000
0010
,
0100
0000
0001
0000
,
0100
0000
0001
0000
,
0010
0000
0000
0010
,
0010
0000
0000
0010
,
0100
0000
1000
0000
,
0001
0000
1000
0000
,
1001
1000
1000
0000
,
0001
0001
0001
0000
,
0100
0000
0100
0000
,
0010
0000
0100
0000
,
1001
0001
0001
0000
,
1000
1000
1000
0000
,
0100
0000
0010
0000
,
0001
0000
0001
0000
,
1000
0000
0000
1000
,
0001
0000
0000
0001
,
1000
0000
1000
0000
,
0010
0000
0010
0000
,
0100
0000
0001
0000
,
0100
0000
0010
0000
,
2000
0000
0000
0000
,
0000
0000
0000
0000
,
0002
0000
0000
0000
,
3003
0000
0000
0000
,
0000
1001
0001
0001
,
0000
1000
1000
1000
,
0000
0100
0000
0100
,
0000
0010
0000
0100
,
0000
1001
1000
1000
,
0000
0001
0001
0001
,
0000
0100
0000
0010
,
0000
1000
0000
0010
,
0100
0110
0100
0100
,
0000
0001
1000
0001
,
0000
0010
0000
0010
,
0000
0100
0000
0010
,
0000
0110
0100
0100
,
0000
1000
0001
1000
,
0000
0010
0000
0100
,
0000
0001
0000
0001
,
0000
1000
1000
0001
,
0001
0100
0100
0010
,
0100
0220
0000
0000
,
0000
0000
0000
0000
,
0000
0330
0000
0000
;

//---------------dance-single - ----------------
#NOTES:
     dance-single:
     :
     Beginner:
     1:
     0.058,0.055,0.063,0.016,0.000,42.000,8.000,2.000,0.000,0.000,0.000,0.058,0.055,0.063,0.016,0.000,42.000,8.000,2.000,0.000,0.000,0.000:
0000
0000
0000
0000
,
0000
0000
0000
0000
,
0000
0000
0000
0000
,
0000
0000
0000
0000
,
0000
0000
0000
0000
,
0000
0000
0000
0000
,
0000
0000
0000
0000
,
0000
0000
0000
0000
,
1000
0000
0000
0000
,
0000
0000
0000
0000
,
0001
0000
0000
0000
,
0000
0000
0000
0000
,
1000
0000
0000
0000
,
0000
0000
0000
0000
,
0001
0000
0000
0000
,
1000
0000
0000
0000
,
0010
0000
0000
0000
,
0000
0000
0000
0000
,
0010
0000
0000
0000
,
0000
0000
0000
0000
,
0010
0000
0000
0000
,
0000
0000
0000
0000
,
0010
0000
0000
0000
,
0010
0000
0000
0000
,
1001
0000
0000
0000
,
0000
0000
0000
0000
,
0001
0000
0000
0000
,
1000
0000
0000
0000
,
1001
0000
0000
0000
,
0000
0000
0000
0000
,
1000
0000
0000
0000
,
0001
0000
0000
0000
,
0110
0000
0000
0000
,
0000
0000
0000
0000
,
0100
0000
0000
0000
,
0000
0000
0000
0000
,
0110
0000
0000
0000
,
0000
0000
0000
0000
,
0100
0000
0000
0000
,
0010
0000
0000
0000
,
1000
0000
0000
0000
,
1000
0000
0000
0000
,
0001
0000
0000
0000
,
0001
0000
0000
0000
,
0100
0000
0000
0000
,
0000
0000
0000
0000
,
0020
0000
0000
0000
,
0000
0000
0000
0000
,
0000
0000
0000
0000
,
0030
0000
0000
0000
,
0000
1001
0000
0000
,
0000
0000
0000
0000
,
0000
1000
0000
0000
,
0000
0001
0000
0000
,
0000
0110
0000
0000
,
0000
0000
0000
0000
,
0000
0100
0000
0000
,
0000
0010
0000
0000
,
0000
1001
0000
0000
,
0000
0000
0000
0000
,
0000
0001
0000
0000
,
0000
1000
0000
0000
,
0000
0110
0000
0000
,
0000
0000
0000
0000
,
0000
0010
0000
0000
,
0000
0100
0000
0000
,
0000
1000
0000
0000
,
0000
1000
0000
0000
,
0000
0002
0000
0000
,
0000
0000
0000
0000
,
0000
0003
0000
0000
;

//---------------dance-single - ----------------
#NOTES:
     dance-single:
     :
     Hard:
     9:
     0.619,0.714,0.477,0.266,0.301,459.000,61.000,34.000,0.000,0.000,12.000,0.619,0.714,0.477,0.266,0.301,459.000,61.000,34.000,0.000,0.000,12.000:
0000
0000
0000
0000
,
0000
0000
0000
0000
,
0000
0000
0000
0000
,
0000
0000
0000
0000
,
1100
0100
0010
0000
0110
0000
0001
0000
,
0101
0100
0010
0000
0110
0000
1000
0000
,
1001
0000
0001
0000
0010
0000
0001
1000
0100
0000
1000
0000
0001
0000
0100
0000
,
0020
0000
0000
0000
,
1030
0001
1000
0000
0100
0010
0000
0010
0001
1000
0001
0000
0100
0010
0000
0000
,
1000
0001
0000
1000
0001
0000
1000
0001
0000
1000
0100
1000
0001
1000
0100
0010
,
0001
0100
0001
1000
0000
1000
0010
0000
0100
0001
0100
0000
0010
0000
1000
0000
,
0001
0010
0100
1000
0100
0010
0001
0000
1000
0010
0100
0010
1000
0100
0010
0000
,
0001
1000
0001
0000
0100
0001
0000
0010
0000
0100
0001
0100
1000
0100
1000
0100
,
1000
0010
0000
0010
0100
0000
0001
1000
0000
0001
0100
0001
1000
0001
0100
0010
,
1000
0001
0010
0100
1000
0001
0000
1000
0100
0010
0001
1000
0001
0100
0010
0000
,
1010
0000
0000
1010
0000
0000
0001
0000
1002
0000
0000
0000
0000
0000
0000
0000
,
0013
0100
0010
1010
0000
0010
0001
1000
,
0010
0100
0010
0100
0010
0100
0010
0100
,
0001
1000
0100
0101
0000
0100
1000
0001
,
0040
0430
4300
3004
,
0103
0010
0100
1000
0001
0010
0100
0010
,
1000
0001
1000
0001
1000
0001
1000
0001
,
0010
0100
0010
1010
0000
0010
0001
1000
,
0010
0000
0000
0100
0010
0000
1000
0000
0001
0000
0010
0100
1000
0000
0001
0000
,
0101
0000
0000
0100
0010
0000
0100
0000
0001
0000
0010
0000
0100
0000
1000
0000
,
1100
0000
0000
0100
0010
0000
0100
0000
1000
0000
0010
0000
1001
0000
0000
0000
,
0100
0001
0010
0100
1000
0010
0100
0001
,
0041
0000
0430
0000
4300
0000
3004
1000
,
0013
0000
0000
0010
0100
0000
0010
0000
0001
0000
0100
0000
0010
0000
1000
0000
,
1010
0000
0000
0010
0100
0000
0010
0000
1000
0000
0000
0000
2002
0000
0000
0000
,
3003
0000
0001
0000
0001
0000
0010
0000
0001
0000
0001
0000
1000
0000
0010
0100
,
2000
3200
0010
0301
,
1001
0000
1000
0100
0010
0000
0001
0100
0010
0000
0100
0000
0002
0000
0000
0000
,
0013
1000
0001
0100
2000
0000
3001
1000
,
0010
0000
0110
0000
0101
0100
0010
0000
,
1000
0000
0001
0010
0100
0000
1000
0000
0001
1000
0000
1000
0001
0000
0100
0000
,
0110
0000
1000
0100
0010
0000
0001
0100
0010
0000
0100
0000
0002
0000
0000
0000
,
0013
1000
0001
0100
2000
0000
3001
1000
,
1010
0000
0011
0000
1010
0100
0010
1000
,
0002
0010
2000
3003
,
0101
0000
2002
0000
3003
0010
0100
1000
,
1100
0000
2002
0000
3003
0010
1000
0001
,
0101
0000
0010
0100
1100
0000
0001
1000
,
1040
0430
0304
4003
,
3100
0010
1000
0010
0100
0010
1000
0010
,
0001
0100
0010
0100
0001
0100
0010
0100
,
1000
0100
0001
0100
1000
0100
0010
1000
,
0002
0000
0000
0000
,
2000
0000
0000
3003
,
1001
0000
0000
0110
,
0002
0000
2000
3003
1001
0000
0001
0100
0010
0000
1000
0100
0010
0000
0100
0000
,
2000
0000
3010
0001
1000
0100
0002
0000
,
1003
0000
0001
0000
0010
0000
0000
0000
0110
0000
0000
0001
1000
0000
0100
0000
,
0010
0000
0000
0000
0001
0000
1000
0010
0100
0000
0001
0000
1000
0001
0000
0001
,
1000
0000
0100
0000
0110
0000
0000
0000
0101
0000
1000
0100
0010
0000
0100
0000
,
2000
0000
0000
0000
3010
0000
0100
0010
0001
0000
1000
0000
0200
0000
0000
0000
,
0301
0100
0110
0000
1010
0000
0011
0100
,
0010
1001
0000
2002
3003
0000
0110
0000
,
0110
0000
0000
0000
1001
0000
0010
0100
1000
0000
0010
0100
0001
0000
0010
0000
,
0200
0000
0301
1000
0010
0001
2000
0000
,
3001
1000
0010
0000
0110
0000
1010
0100
,
0001
0000
0000
0000
1000
0000
0001
0010
0100
0000
1000
0000
0001
0100
0000
0100
,
0010
0000
0000
0000
1001
0000
0010
0100
0001
0000
0010
0100
1000
0000
0010
0000
,
0200
0000
0000
0000
1300
0000
0100
0010
0100
0000
0001
0000
2000
0000
0000
0000
,
3001
1000
0011
0000
0110
0000
1100
1000
,
0010
0110
0000
0220
0330
0000
1001
0000
,
1001
0000
0000
0000
0101
0000
0000
1000
0000
0000
0001
0000
1100
0000
0001
0000
,
0010
0000
0100
0000
1100
0000
0000
1001
0000
0000
0101
0000
0110
0000
0010
0000
,
0001
0010
2000
0000
0000
0000
0000
0000
,
0000
0002
0000
0000
,
0000
3003
0000
0000
;
