#VERSION:0.81;
#TITLE:Jamboree;
#SUBTITLE:;
#ARTIST:Dublin Fair;
#TITLETRANSLIT:;
#SUBTITLETRANSLIT:;
#ARTISTTRANSLIT:;
#GENRE:;
#ORIGIN:;
#CREDIT:;
#BANNER:[ROUND 1] - Jamboree.png;
#BACKGROUND:[ROUND 1] - Jamboree-bg.png;
#PREVIEWVID:;
#JACKET:[ROUND 1] - Jamboree-jacket.png;
#CDIMAGE:;
#DISCIMAGE:;
#LYRICSPATH:;
#CDTITLE:;
#MUSIC:[ROUND 1] - Jamboree.mp3;
#OFFSET:-0.149;
#SAMPLESTART:28.300;
#SAMPLELENGTH:12.000;
#SELECTABLE:YES;
#BPMS:0.000=138.000;
#STOPS:;
#DELAYS:;
#WARPS:;
#TIMESIGNATURES:0.000=4=4;
#TICKCOUNTS:0.000=4;
#COMBOS:0.000=1;
#SPEEDS:0.000=1.000=0.000=0;
#SCROLLS:0.000=1.000;
#FAKES:;
#LABELS:0.000=Song Start;
#BGCHANGES:;
#KEYSOUNDS:;
#ATTACKS:
;

//---------------dance-single - ----------------
#NOTEDATA:;
#CHARTNAME:;
#STEPSTYPE:dance-single;
#DESCRIPTION:;
#CHARTSTYLE:;
#DIFFICULTY:Easy;
#METER:3;
#RADARVALUES:0.175,0.199,0.045,0.100,0.000,97.000,4.000,9.000,0.000,0.000,0.000,0.000,0.000,0.175,0.199,0.045,0.100,0.000,97.000,4.000,9.000,0.000,0.000,0.000,0.000,0.000;
#CREDIT:;
#NOTES:
0000
0000
0000
0000
,
0000
0000
0000
0000
,
0000
0000
0000
0000
,
0000
0000
0000
0000
,
0000
1000
0000
0000
,
0000
0001
0000
0000
,
0000
1000
0000
0100
,
0000
0220
0000
0000
,
0330
1000
0000
1000
,
0000
0001
0000
0001
,
0000
0100
0000
0100
,
0000
0010
0010
0010
,
0000
1000
0000
1000
,
0000
0010
0000
0010
,
0000
0100
0000
0100
,
0000
0001
0001
0001
,
0000
1000
0000
1000
,
0000
0010
0000
0100
,
0000
0001
0000
0001
,
0000
1000
0000
1000
,
0000
0100
0000
1000
,
0000
0010
0000
0010
,
0000
0100
0000
0001
,
0100
0220
0000
0000
,
0330
1000
0000
1000
,
0000
0100
1000
0100
,
0000
0010
0000
0010
,
0000
0001
0100
0010
,
0000
1000
0000
1000
,
0000
1000
0100
1000
,
0000
0010
0000
1000
,
0000
2002
0000
0000
,
3003
1000
0000
0100
,
0000
0010
0000
0010
,
0000
0001
0001
0001
,
0000
0100
0000
0010
,
0000
1000
0100
1000
,
0000
1000
0000
1000
,
0000
0010
0000
0010
,
0000
0100
0001
0010
,
0000
0002
0000
0000
,
0003
1000
0000
1000
,
0000
0010
0100
0001
,
0000
1000
0000
1000
,
0000
0001
0000
0001
,
0000
0010
0000
0010
,
0000
0100
0001
0010
,
0000
0001
0000
1000
,
0000
0010
0010
0010
,
0000
2002
0000
0000
,
0000
0000
0000
0000
,
3003
0000
0000
0000
;

//---------------dance-single - ----------------
#NOTEDATA:;
#CHARTNAME:;
#STEPSTYPE:dance-single;
#DESCRIPTION:;
#CHARTSTYLE:;
#DIFFICULTY:Medium;
#METER:5;
#RADARVALUES:0.271,0.313,0.089,0.178,0.000,146.000,8.000,16.000,0.000,0.000,0.000,0.000,0.000,0.271,0.313,0.089,0.178,0.000,146.000,8.000,16.000,0.000,0.000,0.000,0.000,0.000;
#CREDIT:;
#NOTES:
0000
0000
0000
0000
,
0000
0000
0000
0000
,
0000
0000
0000
0000
,
0000
0000
0000
0000
,
0000
2000
0000
0100
,
3100
0020
0000
0001
,
0031
0200
0000
0020
,
0330
2002
0000
0000
,
3003
1000
1000
0100
,
0100
1000
1000
0100
,
0100
0010
0010
0001
,
0001
0100
0001
1000
,
0100
0010
0010
0001
,
0001
1000
0100
0001
,
0001
0100
0100
1000
,
1000
0010
0001
0010
,
0100
0010
0010
0100
,
0000
0000
0001
0000
0001
0010
1000
0000
,
0000
0010
0010
0001
,
0000
0100
0001
0010
,
0000
0011
0100
1000
,
0000
0000
1000
0000
0100
0001
0010
0000
,
0000
0001
0001
0100
,
0100
0220
0000
0000
,
0330
1000
0000
1000
,
0000
0010
0100
0001
,
0000
1000
0000
1000
,
0000
1000
0010
0100
,
0000
0001
0000
0010
,
0000
0001
0100
1000
,
0000
0100
0000
0010
,
0000
0200
0000
0000
,
0300
0001
0001
2000
,
3000
0100
0000
0100
,
0000
0010
0010
0010
,
0000
0001
0100
0010
,
0000
0010
1000
0100
,
0000
0010
0000
0010
,
0000
0000
0010
0001
0010
0000
0011
0000
,
0000
0001
0001
0100
,
0100
2020
0000
3030
,
1001
0000
1000
0000
1000
0000
0100
1000
,
0100
0000
0010
0000
0010
0001
0010
0000
,
0001
0010
0010
0001
,
0001
0100
0100
0010
,
0010
0000
1000
0100
1000
0000
0010
0000
,
0010
0000
1000
0010
0100
0000
0001
0000
,
0001
0000
0001
0100
1000
0000
1000
0100
,
0001
0220
0000
0000
,
0330
2002
0000
0000
,
0000
0000
0000
0000
,
3003
0000
0000
0000
;

//---------------dance-single - ----------------
#NOTEDATA:;
#CHARTNAME:;
#STEPSTYPE:dance-single;
#DESCRIPTION:;
#CHARTSTYLE:;
#DIFFICULTY:Hard;
#METER:8;
#RADARVALUES:0.514,0.512,0.279,0.201,0.228,280.000,25.000,18.000,0.000,0.000,0.000,0.000,0.000,0.514,0.512,0.279,0.201,0.228,280.000,25.000,18.000,0.000,0.000,0.000,0.000,0.000;
#CREDIT:;
#NOTES:
0000
0000
0000
0000
,
0000
0000
0000
0000
,
0000
0000
0000
0000
,
0000
0000
0000
0000
,
0000
0000
2000
0100
0000
0100
0000
0100
,
3000
0100
0020
0100
0000
0100
0000
0100
,
0030
0010
0001
0100
0001
0010
0100
0000
,
0100
2002
0000
0000
,
3003
0000
0000
0000
1100
0000
0000
0100
1000
0000
0000
1000
0100
0000
0000
0010
,
0001
0010
0001
0000
0100
0000
0000
0010
1000
0000
0000
1000
0100
0000
0000
0010
,
0100
0010
0100
0000
0010
0000
0000
0001
0010
0000
0000
1000
0100
0000
0000
0010
,
0001
0010
0001
0000
1000
0000
0100
0000
1000
0000
0100
0000
0010
0000
0001
0000
,
0010
0000
0001
0000
0011
0000
0000
0010
0001
0000
0000
0001
0010
0000
0000
0100
,
1000
0100
1000
0000
0010
0000
0000
1000
0001
0000
0000
0010
0100
0000
0000
0100
,
0010
0100
0010
0000
0100
0000
0000
0001
0100
0000
0000
1000
0100
0000
0000
0010
,
0001
0010
0001
0000
0001
0000
0010
0000
0001
0000
0010
0000
0100
0000
1000
0000
,
1001
0000
0100
0010
1000
0010
0100
1000
,
0010
0000
0000
0000
0011
0000
0000
0000
0110
0000
0000
0000
1001
0000
0000
1000
,
0100
0000
0010
0001
0100
0010
0100
0100
,
0110
0000
1000
0100
0010
0100
1000
1000
,
1100
0000
0001
0010
0001
0100
0010
1000
,
0100
0000
0000
0000
0010
0000
0010
0000
0010
0000
0000
0000
0110
0000
0000
0001
,
0100
0000
0010
1000
0100
0010
0100
0100
,
0010
0220
0000
0000
,
0330
0000
1010
0000
0100
0010
1000
0000
,
0100
0000
0010
0000
0001
0000
0000
0000
0001
0000
0000
0000
0100
0000
0000
0010
,
0100
0000
0010
1000
0100
1000
0010
0001
,
0010
0000
1000
0100
0001
0100
1000
1000
,
0010
0000
0100
0010
1000
0000
0100
0010
,
0001
0000
0000
0000
0010
0000
0100
0000
0001
0000
0000
0000
0110
0000
0000
0001
,
1000
0000
0100
0100
0010
0000
1000
0000
,
0001
0220
0000
0000
,
0330
0000
0010
1000
0100
0001
0020
0000
,
0130
0000
0000
0000
0010
0000
0000
0010
1000
0000
0000
0000
0100
0000
0010
0000
,
0001
0000
0000
0000
0100
0000
0000
0100
0001
0000
0000
0001
0100
0000
0100
0000
,
0100
0000
0000
0000
0010
0000
1000
0000
0100
0000
0000
0010
0001
0000
0001
0000
,
0100
0000
0000
0100
0010
0000
0000
0010
1000
0000
1000
0000
0001
0000
0000
0000
,
1001
0000
0000
0000
0110
0000
0000
0010
0100
0000
0000
1000
0100
0000
0100
0000
,
0100
0000
0000
0020
0002
0000
0000
0000
0033
0000
0000
0000
2002
0000
0000
0000
,
3003
0000
0000
0000
1000
0000
0100
0000
0010
0000
0100
0000
1000
0000
0000
1000
,
0100
0000
0000
0020
0002
0000
0000
0000
0000
0000
0000
0000
0033
0000
0000
0000
,
1001
0000
0010
0100
0001
0010
0001
0010
,
0100
0000
0000
0000
1100
0000
0000
0000
0110
0000
0000
0000
1001
0000
0000
0001
,
0010
0000
0100
1000
0010
0100
0010
0010
,
0110
0000
0001
0010
0100
0010
0001
0001
,
0011
0000
1000
0100
1000
0010
0100
0001
,
0010
0000
0000
0000
0100
0000
0100
0000
0100
0000
0000
0000
0110
0000
0000
1000
,
0010
0000
0100
0001
0010
0100
0010
0010
,
0100
0200
0010
0001
,
1300
2002
0000
0000
,
0000
0000
0000
0000
,
3003
0000
0000
0000
;

//---------------dance-single - ----------------
#NOTEDATA:;
#CHARTNAME:;
#STEPSTYPE:dance-single;
#DESCRIPTION:;
#CHARTSTYLE:;
#DIFFICULTY:Beginner;
#METER:1;
#RADARVALUES:0.110,0.137,0.033,0.000,0.000,66.000,3.000,0.000,0.000,0.000,0.000,0.000,0.000,0.110,0.137,0.033,0.000,0.000,66.000,3.000,0.000,0.000,0.000,0.000,0.000,0.000;
#CREDIT:;
#NOTES:
// measure 0
0000
0000
0000
0000
,  // measure 1
0000
0000
0000
0000
,  // measure 2
0000
0000
0000
0000
,  // measure 3
0000
0000
0000
0000
,  // measure 4
0000
1000
0000
0000
,  // measure 5
0000
0000
0000
0000
,  // measure 6
0000
0001
0000
0100
,  // measure 7
0000
0010
0000
0000
,  // measure 8
0000
1000
0000
0000
,  // measure 9
0000
1000
0000
0000
,  // measure 10
0000
0001
0000
0000
,  // measure 11
0000
0001
0000
0001
,  // measure 12
0000
1000
0000
0000
,  // measure 13
0000
1000
0000
0000
,  // measure 14
0000
0010
0000
0000
,  // measure 15
0000
0010
0000
0010
,  // measure 16
0000
0100
0000
0000
,  // measure 17
0000
0001
0000
0000
,  // measure 18
0000
1000
0000
0000
,  // measure 19
0000
0010
0000
0000
,  // measure 20
0000
1001
0000
0000
,  // measure 21
0000
0100
0000
0000
,  // measure 22
0000
0010
0000
0000
,  // measure 23
0000
1000
0000
0001
,  // measure 24
0000
0110
0000
0010
,  // measure 25
0000
1000
0000
0100
,  // measure 26
0000
0010
0000
0010
,  // measure 27
0000
0001
0001
0001
,  // measure 28
0000
1000
0000
0000
,  // measure 29
0000
0100
0000
0000
,  // measure 30
0000
1000
0000
0010
,  // measure 31
0010
0010
0000
0000
,  // measure 32
0000
1000
0000
0000
,  // measure 33
0000
0001
0000
0000
,  // measure 34
0000
1000
1000
1000
,  // measure 35
0000
0100
0000
0000
,  // measure 36
0000
0010
0010
0010
,  // measure 37
0000
0001
0000
0000
,  // measure 38
0000
1000
0000
0000
,  // measure 39
0000
0001
0000
0000
,  // measure 40
0000
1000
1000
1000
,  // measure 41
0000
0010
0000
0000
,  // measure 42
0000
0100
0000
0001
,  // measure 43
0000
1000
0000
0000
,  // measure 44
0000
0100
0000
0100
,  // measure 45
0000
0001
0000
0000
,  // measure 46
0000
0001
0001
0001
,  // measure 47
0000
1000
0000
0000
,  // measure 48
0000
0010
0000
0000
,  // measure 49
0000
1001
0000
0000
;
