#TITLE:I'm So Happy (kors k Remix);
#SUBTITLE:;
#ARTIST:Ryu☆;
#TITLETRANSLIT:;
#SUBTITLETRANSLIT:;
#ARTISTTRANSLIT:Ryu*;
#GENRE:;
#CREDIT:;
#BANNER:I'm So Happy.bn.png;
#BACKGROUND:I'm So Happy.bg.png;
#LYRICSPATH:;
#CDTITLE:;
#MUSIC:[ROUND 1] - I'm So Happy (kors k Remix).ogg;
#OFFSET:-0.190;
#SAMPLESTART:34.080;
#SAMPLELENGTH:16.941;
#SELECTABLE:YES;
#DISPLAYBPM:170.000;
#BPMS:0.000=170.000
,24.500=161.000
,25.500=152.000
,28.000=140.000
,29.000=120.000
,30.000=170.000
,186.500=170.200
,187.500=170.000
;
#STOPS:175.500=0.080
,175.750=0.080
,176.000=0.080
,176.250=0.080
,176.500=0.080
,176.750=0.080
,177.000=0.080
,177.250=0.080
,177.500=0.080
,177.750=0.080
,178.000=0.080
,178.250=0.080
,178.500=0.080
,178.750=0.080
,179.000=0.080
;
#BGCHANGES:;
#KEYSOUNDS:;
#ATTACKS:;

//---------------dance-single - Blank----------------
#NOTES:
     dance-single:
     Blank:
     Hard:
     13:
     0.850,1.000,0.556,0.202,0.556,617.000,66.000,24.000,0.000,0.000,0.000,0.850,1.000,0.556,0.202,0.556,617.000,66.000,24.000,0.000,0.000,0.000: // measure 0
0000
0000
0000
0000
,  // measure 1
0000
0000
0000
0000
,  // measure 2
1000
0000
0001
0000
1000
0000
0000
0001
0100
0000
0010
0000
1000
0000
0001
0000
,  // measure 3
0200
0000
0302
0000
0203
0000
2300
0000
3001
0010
0100
1000
0001
0010
0100
1000
,  // measure 4
0001
1000
0010
0100
0001
0100
0010
1000
,  // measure 5
0010
0000
1000
0000
0010
0000
0100
0001
0000
1000
0000
0110
0000
0000
1001
0000
,  // measure 6
0000
0000
0000
0000
0001
0000
0000
0000
0010
0000
0000
0000
1000
0000
0000
0010
0000
0000
0001
0000
0000
0000
0010
0000
0000
0010
0000
0000
0001
0000
0000
0000
,  // measure 7
0000
0000
0000
0000
0000
0000
1000
0000
0000
0000
0000
0000
0000
0000
0000
0000
0000
0000
0000
0000
0000
0000
0000
0000
0001
0000
0000
0000
0000
0000
0000
0000
0000
0000
0000
0000
0000
0000
0000
0000
0000
0000
0000
0000
0000
0000
0000
0000
1000
0000
0000
0000
0000
0000
0000
0000
0000
0000
0000
0000
0000
0000
0000
0000
0001
0000
0000
0000
0000
0000
0000
0000
0100
0000
0000
0000
0000
0000
0000
0000
0001
0000
0000
0000
0000
0000
0000
0000
0100
0000
0000
0000
0000
0000
0000
0000
0001
0000
0000
0000
0000
0000
0000
0000
0000
0000
0000
0000
0000
0000
0000
0000
0000
0000
0000
0000
0000
0000
0000
0000
0000
0000
0000
0000
0000
0000
0000
0000
0000
0000
0000
0000
0000
0000
0000
0000
0000
0000
0000
0000
0000
0000
0000
0000
1000
0000
0000
0000
0000
0000
0000
0000
0000
0000
0000
0000
0000
0000
0000
0000
0000
0000
0000
0000
0000
0000
0000
0000
0001
0000
0000
0000
0000
0000
0000
0000
0000
0000
0000
0000
0000
0000
0000
0000
0000
0000
0000
0000
0000
0000
0000
0000
,  // measure 8
1000
0010
1000
0100
1000
0001
1000
0010
,  // measure 9
1000
0000
0010
1000
0001
0000
0110
0000
0000
0010
0100
0010
0100
0000
0001
0000
,  // measure 10
0100
0000
0001
1000
0000
0000
0001
0000
0100
0000
1000
0000
0200
0000
0302
0000
,  // measure 11
0203
0000
2300
0000
3100
0000
0010
0001
0010
0000
0000
0000
1000
0000
0100
0000
,  // measure 12
1000
0010
1000
0001
1000
0001
0010
0100
,  // measure 13
0010
0000
1000
0001
0010
0000
0001
0000
0010
0000
0010
0000
0010
0000
0100
0000
,  // measure 14
1000
0100
0001
0100
0010
0100
1000
0010
,  // measure 15
0100
0000
0001
0000
0000
0011
0000
0000
0000
1001
0000
0000
0002
0000
0000
0000
,  // measure 16
0000
0000
0000
2003
,  // measure 17
0000
0000
0000
3020
,  // measure 18
0000
0230
0000
0310
,  // measure 19
1000
0000
0010
0000
1000
0000
1000
0001
,  // measure 20
0100
0001
0010
0001
1000
0001
1000
0001
,  // measure 21
0100
0000
0001
0000
0010
0000
0001
0000
0100
0000
0010
0000
1000
0100
1000
0100
,  // measure 22
1000
0010
0100
0010
0100
0010
0100
0001
0010
0001
0010
0001
0010
0000
0000
0000
,  // measure 23
0110
0110
0110
2002
,  // measure 24
0000
0000
3003
0220
,  // measure 25
0000
0000
0330
2200
,  // measure 26
3300
0202
0303
1100
,  // measure 27
1010
0000
0101
0000
0011
0000
1000
0001
,  // measure 28
1000
0100
0010
0001
1000
0001
0100
0010
,  // measure 29
1000
0000
0100
0000
1000
0000
0010
0000
0100
0000
0001
0000
0010
0001
0010
0001
,  // measure 30
0010
0001
0100
0001
0100
0001
0100
0010
1000
0010
1000
0010
1000
0000
0000
0000
,  // measure 31
0011
0110
1100
2002
,  // measure 32
3003
0100
0010
0100
0010
0000
1000
1000
,  // measure 33
0010
0100
0001
0001
1001
0000
0110
0000
,  // measure 34
1000
0001
0110
0000
1010
0000
0011
0000
,  // measure 35
0010
0100
0010
0000
1000
0000
1000
0000
1000
0000
0010
0000
0100
0000
0001
0000
,  // measure 36
0001
1000
0001
0000
0001
0000
1000
0000
0001
0000
0100
0000
0010
1000
0010
1000
,  // measure 37
0010
0000
0100
0000
0001
0000
1000
0000
0001
0000
1000
0000
0001
0100
0001
0100
,  // measure 38
0001
0000
0010
0000
0010
0000
0001
0000
1000
0010
1000
0000
0010
1000
0010
0000
,  // measure 39
1000
0000
0010
0000
0100
0000
1000
0000
0100
0001
0010
0000
0100
0000
0010
0000
,  // measure 40
0110
0000
0000
0000
1100
0000
0001
0000
0100
0010
0100
0010
0100
0000
0001
0000
,  // measure 41
1001
0000
0100
0000
0010
0100
0010
0100
0010
0000
0100
0000
1001
0000
0001
0000
,  // measure 42
1000
0001
1000
0001
1000
0000
0001
0000
0110
0000
0100
0000
1001
0000
1000
0000
,  // measure 43
0001
1000
0001
1000
0001
0000
1000
0000
0110
0000
1000
0000
0001
0000
1000
0100
,  // measure 44
0010
0001
1000
0010
0100
0001
1000
0100
0010
0001
1000
0010
0100
0001
1000
0100
,  // measure 45
0010
0001
1000
0010
0100
0001
1000
0100
0010
0001
1000
0010
0100
0000
0110
0000
,  // measure 46
0000
0110
0000
1100
0110
0011
0000
0100
,  // measure 47
1000
0000
0010
0000
0100
0000
0010
0000
0100
0000
0110
0000
0000
0001
0100
0000
,  // measure 48
0001
0000
0100
0000
0001
0000
0010
0000
0001
1000
0000
1000
0001
0000
0010
0000
,  // measure 49
0100
0000
0010
0000
0100
0000
1100
0000
0000
0001
1000
0000
0010
0000
0100
0000
,  // measure 50
0001
0000
0010
0000
0001
1000
0000
1000
0001
0000
1000
0000
1000
0000
0010
0000
,  // measure 51
0100
0000
0001
0000
0100
0000
1100
0000
0000
0100
1000
0000
1000
0000
0100
0000
,  // measure 52
1000
0000
0010
0000
1000
0000
0100
0000
0010
0001
0000
0001
0100
0000
0010
0000
,  // measure 53
1000
0000
0001
0000
1000
0000
1010
0000
0000
1000
0010
0000
0100
0000
0001
0000
,  // measure 54
0010
0000
0001
0000
0100
0000
0010
0000
1000
0001
1000
0001
1000
0000
0110
0000
,  // measure 55
1000
0000
0001
0000
1000
0000
0110
0000
0000
1000
0001
0000
0001
1000
0000
0000
,  // measure 56
1000
0010
0100
0010
1000
0010
0100
0000
0010
1000
0000
0001
1000
0000
0110
0000
,  // measure 57
0001
0000
1000
0000
0001
0000
0110
0000
0000
1000
0001
0000
0001
1000
0000
0000
,  // measure 58
0001
0100
0010
0100
0001
0100
0010
0000
1000
0010
0000
0100
0001
0000
1001
0000
,  // measure 59
0010
0000
1000
0000
0010
0000
0101
0000
0000
0001
0100
0000
0100
0001
0000
0000
,  // measure 60
1000
0100
1000
0001
1000
0100
1000
0000
0001
1000
0000
0010
1000
0000
1001
0000
,  // measure 61
0001
0000
0100
0000
0001
0000
1100
0000
0000
0010
0100
0000
0100
0010
0000
0000
,  // measure 62
1000
0100
0010
0001
1000
0010
0100
0000
0001
0010
0001
0010
0001
0010
0100
1000
,  // measure 63
0010
1000
0100
0000
0010
0000
0000
0010
,  // measure 64
0001
0000
0010
0000
1000
0000
0010
0100
0000
0001
1000
0000
0010
0000
0100
0000
,  // measure 65
0000
0100
0010
0000
1000
0000
0000
0001
,  // measure 66
0010
0000
0001
0000
1000
0000
0001
0100
0000
0010
1000
0000
0010
0000
1000
0000
,  // measure 67
0000
1000
0100
0000
0010
0000
0001
0100
,  // measure 68
0010
0000
1000
0100
0000
0010
0001
0000
1000
0000
0010
0000
1000
0000
1100
0000
,  // measure 69
0000
1100
0000
0101
0000
0101
0000
1001
,  // measure 70
0000
0110
1000
0100
0010
0001
1001
1001
,  // measure 71
0100
0000
0001
0000
0010
0000
0001
0000
1000
0001
0000
0001
1000
0000
0010
0000
,  // measure 72
0100
0000
0010
1000
0000
0001
1000
0000
0010
0000
0100
0000
0001
0000
0100
0000
,  // measure 73
0010
0000
0100
0000
0001
0000
1000
0000
0001
0010
0000
0010
0001
0000
0100
0000
,  // measure 74
1000
0000
0100
0001
0000
0100
0010
0000
1000
0000
0010
0000
0100
0000
0001
0000
,  // measure 75
0010
0000
0100
0000
1000
0000
0001
0000
0100
0001
0000
0001
0100
0000
0010
0000
,  // measure 76
1000
0000
0001
0100
0000
0010
1000
0000
0001
0000
1000
0000
0010
0000
1100
0000
,  // measure 77
0000
0101
0000
0011
0000
1010
0000
0110
,  // measure 78
0001
0100
0010
1000
1100
1010
1001
0220
,  // measure 79
0000
0000
0000
0000
0000
0000
0000
0330
;

//---------------dance-single - Blank----------------
#NOTES:
     dance-single:
     Blank:
     Beginner:
     4:
     0.352,0.538,0.345,0.202,0.034,228.000,41.000,24.000,0.000,0.000,0.000,0.352,0.538,0.345,0.202,0.034,228.000,41.000,24.000,0.000,0.000,0.000:
0000
0000
0000
0000
,
0000
0000
0000
0000
,
1000
1000
0001
1000
,
0200
0300
0200
0300
0020
0030
0020
0030
,
0100
0100
0100
0100
,
0100
0100
0110
0110
,
0001
0000
0100
0000
1000
0000
0000
1000
,
0000
0000
0000
0100
0000
0000
0000
0000
0002
0000
0000
0000
0003
0000
0000
0000
0000
0000
0001
0000
0000
0000
0000
0000
,
1000
0010
0100
0001
,
1000
0000
0002
0003
2000
3000
0001
0000
,
1000
0000
0010
0000
0100
0000
0002
0003
,
0002
0003
2000
3000
2000
3000
0001
0000
,
0010
1000
0000
1000
,
0100
0001
0000
1000
,
1000
0100
0000
0100
,
0010
0100
0110
1001
,
0000
0000
0000
1100
,
0000
0000
0000
1001
,
0000
0000
0000
0101
,
0000
0000
0000
1001
,
0000
0000
0000
0110
,
0000
0000
0000
1010
,
0000
1010
0000
0011
,
0000
0011
0000
0010
,
0000
0100
0000
0010
,
0000
0100
0000
0001
,
0000
1000
0000
0001
,
0000
1000
0000
0010
,
0000
0100
0000
0001
,
0000
0100
0000
0010
,
0000
1000
0000
0010
,
0000
0100
0000
0022
,
0033
1100
0000
0000
,
0100
0010
0100
0000
,
2020
3030
0011
0000
,
1000
0001
1000
0000
,
2200
3300
0011
0000
,
1000
0010
0100
0000
,
0202
0303
1010
0000
,
1000
0001
0100
0000
,
1001
0000
1001
0000
,
1001
0000
1001
0000
,
0110
0000
0110
0000
,
0110
0000
0000
0000
0000
0000
0000
0000
0110
0000
0000
0000
2000
0000
0000
0100
,
0000
0100
0000
0100
0000
0100
0000
0100
0000
0100
0000
0100
3000
0000
0001
0000
,
0010
0100
1000
0001
0010
0100
1000
0002
,
0003
2000
3000
0000
0000
0000
0000
1000
,
0000
0010
0000
0100
0000
0000
0000
0100
,
0000
0010
0000
0001
0000
0010
0000
0100
,
0000
0001
0000
0010
0000
0000
0000
0010
,
0000
0001
0000
1000
0000
0001
0000
0010
,
0000
0100
0000
1000
0000
0000
0000
0001
,
0000
0100
0000
0010
0000
1000
0000
0100
,
0000
0010
0000
0001
0000
1000
0000
0000
,
0000
0001
0000
0001
0000
0010
0000
0010
,
0000
0100
0000
0100
0000
1000
0000
0000
,
0000
0010
0000
0100
0000
0001
0000
0010
,
0000
0100
0000
1000
0000
0001
0000
0000
,
0000
0010
0000
0001
0000
0001
0000
1000
,
0000
0100
0000
0010
0000
0100
0000
0000
,
0000
0100
0000
1000
0000
0010
0000
0100
,
0000
0001
0000
0010
0000
0001
0000
0000
,
0000
0010
0000
0100
0000
0010
0000
0100
,
0000
0000
0000
0100
0000
0000
0000
0100
,
0000
1000
0000
0001
0000
0010
0000
0100
,
0000
0000
0000
0100
0000
0000
0000
0100
,
0000
1000
0000
0100
0000
1000
0000
0010
,
0000
0000
0000
0010
0000
0000
0000
0010
,
0000
0001
0000
0010
0000
1000
0000
0010
,
0000
0000
0000
0010
0000
0000
0000
0010
,
0000
0100
0000
0010
0000
0001
0000
0110
,
0000
0000
0000
1100
0000
0000
0000
0101
,
0000
0010
0000
0100
0000
1000
0000
1010
,
0000
0000
0000
0011
0000
0000
0000
0110
,
0000
0001
0000
0100
0000
1000
0000
0101
,
0000
0000
0000
0011
0000
0000
0000
0110
,
0000
1000
0000
0001
0000
0100
0000
0110
,
0000
0110
0000
1000
0000
0001
0000
0100
,
0000
0010
0000
0000
0000
0000
0000
2002
,
0000
0000
0000
0000
0000
0000
0000
3003
;

//---------------dance-single - Blank----------------
#NOTES:
     dance-single:
     Blank:
     Easy:
     8:
     0.506,0.538,0.253,0.076,0.038,382.000,30.000,9.000,0.000,0.000,0.000,0.506,0.538,0.253,0.076,0.038,382.000,30.000,9.000,0.000,0.000,0.000:
0000
0000
0000
0000
,
0000
0000
0000
0000
,
1000
0000
0001
0000
1000
0001
1000
0000
,
0020
0030
0200
0300
0010
0100
0010
0000
,
0001
0000
0010
0000
0100
1000
0100
0000
,
0010
0000
0001
0000
0001
1000
0001
0000
,
0010
0000
0000
0000
0100
0000
0000
0000
0010
0000
0000
0001
0000
0000
0100
0000
,
0000
0000
0000
1000
0000
0000
0000
0000
0200
0000
0000
0000
0300
0000
0000
0000
0000
0000
0001
0000
0000
0000
0000
0000
,
0100
1000
0100
0001
,
0010
1000
0010
0001
,
0100
1000
0100
0001
,
0010
1000
0010
0001
,
0100
0100
1000
0010
,
0010
1000
0100
0001
,
0001
0100
1000
0010
,
0100
0110
0110
0001
,
0000
0010
0000
0100
,
0000
1000
0000
0001
,
0000
1000
0000
0010
,
0000
0100
0000
0001
,
0010
0100
1000
0001
,
0010
0100
1000
1000
,
0010
0100
0001
1000
,
0010
0000
0100
0000
0001
1000
0010
0000
,
0000
0100
0000
1000
,
0000
0100
0000
0001
,
0000
0100
0000
0001
,
0000
0010
0000
0001
,
0100
0001
1000
0010
,
0100
0010
1000
0100
,
0010
0100
0001
0100
,
1000
0000
0001
0100
1000
0000
0220
0000
,
0330
0100
0010
0100
,
0001
0100
0010
0000
,
1000
0100
1000
0000
0100
0010
0100
0000
,
1000
1000
1000
1000
1000
1000
0010
0000
,
0100
0001
0100
0010
,
1000
0000
0000
0000
0010
0100
0010
0000
,
0100
0010
0100
0000
0001
0001
0001
0001
,
0001
0001
1000
0000
0001
0000
0010
0000
,
0100
0010
0001
0000
,
1000
0010
1000
0000
0010
0100
0010
0000
,
0100
0100
0100
0100
0100
0100
0001
0000
,
0100
0000
0000
0000
0010
0000
0000
0000
1000
0000
0000
0000
0010
0000
0000
0100
,
0000
0001
0000
0001
0000
0010
0000
0010
0000
0100
0000
0100
0000
0000
1000
0000
,
0001
1000
0001
0100
0001
0010
0001
2000
,
0000
0020
3030
1000
0001
1000
0000
0110
,
0000
0110
0000
0001
0100
1000
0000
1000
,
0100
0001
0100
1000
0100
0001
0000
1001
,
0000
1001
0000
0010
0100
1000
0000
0001
,
0010
0100
0010
0001
0010
0100
0000
1100
,
0000
1100
0000
0010
0001
0100
0000
0010
,
1000
0100
1000
0010
1000
0100
0000
0011
,
0000
0011
0000
0100
0010
1000
0000
0001
,
0010
0100
1000
0001
0100
0010
0000
0011
,
0000
1010
0000
0010
1000
0010
0000
1000
,
0010
0100
0010
1000
0010
0100
0000
1010
,
0000
0011
0000
0001
0100
0001
0000
0001
,
0100
0010
0100
0001
0100
0010
0000
0110
,
0000
1001
0000
0010
0100
0010
0000
1000
,
1000
0001
0010
0001
0001
1000
0000
1001
,
0000
0110
0000
0001
1000
0001
0000
0100
,
0100
0010
1000
0010
0010
0100
0000
1001
,
0000
1000
0100
0000
0101
0000
0000
0001
,
1000
0001
0100
0010
0100
0001
0000
0110
,
0000
0001
0100
0000
1100
0000
0000
0010
,
1000
0010
0100
0001
0010
0100
0000
1010
,
0000
0001
1000
0000
0110
0000
0000
0100
,
0001
0100
0010
1000
0100
0010
0000
0101
,
0000
1000
0001
0000
0110
0000
0000
1000
,
0100
0100
0010
0001
0010
0100
0000
0001
,
0010
0001
1000
0000
1000
0001
0000
1000
,
0010
0100
0001
0100
0010
1000
0000
0010
,
1000
0010
0100
0000
0001
0010
0000
0001
,
0100
0010
1000
0010
0100
0001
0000
0100
,
0001
0100
0010
0000
1000
0001
0000
0010
,
0100
0001
1000
0001
0100
0010
0000
1000
,
0010
1000
0001
0100
0010
1000
0001
1000
,
0010
0100
0000
0110
0000
0110
0000
0220
,
0000
0000
0000
0000
0000
0000
0000
0330
;

//---------------dance-single - Blank----------------
#NOTES:
     dance-single:
     Blank:
     Medium:
     11:
     0.775,1.000,0.539,0.219,0.177,554.000,64.000,26.000,0.000,0.000,0.000,0.775,1.000,0.539,0.219,0.177,554.000,64.000,26.000,0.000,0.000,0.000:
0000
0000
0000
0000
,
0000
0000
0000
0000
,
1000
0000
0100
0000
0001
0000
0000
0100
1000
0000
0010
0000
0100
0000
0001
0000
,
0010
0002
0103
0020
1030
0010
0100
0001
,
1000
0000
0010
0000
0001
0000
0000
0010
1000
0000
0010
0000
0100
0000
0001
0000
,
0010
0001
0100
0010
1000
0010
0100
0001
,
1000
0000
0000
0000
0010
0000
0000
0000
1000
0000
0000
0000
0100
0000
0000
1000
0000
0000
0000
0000
0001
0000
0000
0000
0000
0000
0001
0000
0000
0100
0000
0000
,
0010
0000
0000
1000
0000
0000
0100
0000
0000
1000
0100
1000
0100
0000
0000
0000
0000
0000
0000
0000
0000
0010
0000
0000
,
0100
0010
0001
0100
0010
1000
0100
0010
,
0100
1000
0010
0100
0002
0000
1003
0010
,
1000
0001
0100
0010
1000
0001
0010
0001
,
1000
0010
0100
0001
2000
0000
3000
0011
,
0000
0101
0000
1001
0000
1010
0000
1100
,
0000
0110
0000
1001
0000
0110
1000
0100
,
0010
0001
1000
0010
0100
0001
1000
0100
,
0100
0010
1000
0010
0001
0001
0020
0000
,
0031
0010
0000
1010
0000
0000
1000
0010
,
1000
0100
0001
0100
0010
0001
0200
0000
,
0301
0100
0000
0100
0000
0001
0100
0001
,
0010
1000
0010
0100
1000
0000
0200
0000
,
0310
0100
0000
1000
0000
0001
1000
0010
,
0100
0001
0100
0010
1000
0000
2000
0000
,
3002
0000
0203
0000
0320
0000
1030
0100
,
0010
0001
1000
0010
0100
0001
1001
0000
,
1000
0001
0000
0001
1000
0000
1000
0010
,
0100
0001
0100
0010
1100
0000
0101
0000
,
0100
0001
0000
0001
0100
0000
0010
1000
,
0001
0010
0100
0001
0101
0000
1100
0000
,
0001
1000
0000
1000
0001
0000
0010
0100
,
0001
1000
0010
0100
0011
0000
1010
0000
,
0001
0100
0000
0100
0001
0000
1000
0010
,
0100
0000
0001
0000
1000
0000
0010
0000
0100
0001
0010
0000
0220
0000
0000
0000
,
0330
1000
0010
1000
0100
0000
0100
0010
,
0000
0010
0001
0100
0010
0012
0000
0000
,
1003
0100
1000
0000
0001
0100
0010
1000
,
0100
0010
0102
0000
0013
0010
0100
0001
,
1000
1000
0201
0000
0310
0010
1002
0000
,
1003
0100
0100
0100
0010
0010
0012
0003
,
0210
0000
1300
0000
0010
1000
0100
1000
,
0010
0100
1002
0000
0013
0100
2010
0000
,
3100
0010
1020
0000
1030
0000
2100
3000
,
0120
0030
0100
0010
0001
1000
0010
0100
,
0001
1000
0001
0010
0100
1000
0001
0100
,
0010
0000
1000
0000
0001
0000
1000
0000
0100
0000
0010
0000
0001
0000
0100
1000
,
0100
1000
0100
1000
0010
1000
0010
1000
0010
1000
0001
1000
0010
0100
0010
0100
,
0010
0100
0010
0100
0010
0100
0010
0100
0010
0100
0010
0100
0010
0000
1000
0000
,
0000
0001
0000
1000
0001
1000
0000
0001
,
1000
0000
0100
0000
0001
0000
0100
0000
0000
0010
0001
0000
0100
0000
0010
0000
,
1000
0000
0100
0000
1000
0000
0010
0000
0000
1000
0100
0000
0010
0000
0001
0000
,
0100
0000
0010
0000
1000
0000
0100
0000
0000
1000
0010
0000
0001
0000
0010
0000
,
0100
0001
0010
0001
0010
1001
1001
1000
,
0010
0000
0100
0000
0001
0000
0100
0000
0000
0010
1000
0000
0001
0000
0100
0000
,
1000
0000
0100
0000
0010
0000
1000
0000
0000
0001
0100
0000
0010
0000
1000
0000
,
0010
0000
0100
0000
0001
0000
0010
0000
0000
0001
0100
0000
0010
0000
1000
0000
,
0001
0100
0010
1000
0010
0110
0110
1000
,
0001
0000
1000
0000
0010
0000
1000
0000
0000
0001
1000
0000
0010
0000
0110
0000
,
0010
0100
0010
0110
0100
0010
0100
0110
,
0010
0000
1000
0000
0001
0000
0100
0000
0001
0100
0000
0010
1000
0000
0110
0000
,
0001
1000
0010
0110
1000
0010
0001
0110
,
0010
0000
1000
0000
0010
0000
0100
0000
0000
0010
0100
0000
0100
0001
0000
0000
,
0010
0100
0001
1000
0001
0010
0100
0110
,
0100
0000
0010
0000
1000
0000
0001
0000
0000
0010
1000
0000
1000
0010
0000
0000
,
1000
0000
0100
0000
0010
0000
0001
0000
1000
0000
0010
0100
0010
0000
1001
0000
,
0000
1000
0001
0000
0110
0000
0000
1100
,
1000
0100
0010
0110
0100
0010
0001
0011
,
0000
0001
1000
0000
1001
0000
0000
0011
,
0001
0010
0100
0110
0010
0100
1000
1100
,
0000
1000
0010
0000
1010
0000
0000
0101
,
0001
0100
0010
1010
1000
0010
0100
1001
,
0000
0100
0001
0000
0001
0100
0010
1000
,
0010
0100
0001
1000
0001
0100
0010
1000
,
0001
0000
0100
0000
0001
0000
0010
0000
0001
1000
0000
0001
1000
0000
0110
0000
,
1000
0100
0001
0110
1000
0100
0001
0110
,
0001
0000
0100
0000
0001
0000
1000
0000
0000
0010
0100
0000
0001
0000
0110
0000
,
0010
1000
0001
0110
0010
0001
1000
0110
,
1000
0000
0010
0000
0100
0000
0001
0000
0000
1000
0001
0000
0100
0000
0010
0000
,
1000
0000
0010
0000
0100
0000
1000
0000
0000
0100
0001
0000
0100
0000
0110
0000
,
0100
0001
1000
0001
0010
0100
1000
1001
,
0000
1001
0000
1001
0000
1001
0000
2002
,
0000
0000
0000
0000
0000
0000
0000
3003
;
