#TITLE:Genesis Of Aquarion (DJ Marcuz vs DJ AQ Hands Up Remix);
#SUBTITLE:;
#ARTIST:Aura Qualic;
#TITLETRANSLIT:;
#SUBTITLETRANSLIT:;
#ARTISTTRANSLIT:;
#CREDIT:;
#BANNER:[ROUND 1] - Genesis Of Aquarion (DJ Marcuz vs DJ AQ Hands Up Remix).png;
#BACKGROUND:[ROUND 1] - Genesis Of Aquarion (DJ Marcuz vs DJ AQ Hands Up Remix)-bg.png;
#LYRICSPATH:;
#CDTITLE:cdtitle.png;
#MUSIC:[ROUND 1] - Genesis Of Aquarion (DJ Marcuz vs DJ AQ Hands Up Remix).mp3;
#MENUCOLOR:0,0,1,1;
#METERTYPE:DDR X;
#OFFSET:0.000;
#SAMPLESTART:42.304;
#SAMPLELENGTH:12.000;
#SELECTABLE:YES;
#BPMS:0.000=142.000;
#STOPS:;
#BGCHANGES:;

//---------------dance-single - ----------------
#NOTES:
     dance-single:
     :
     Hard:
     6:
     0.442,0.458,0.169,0.491,0.012: // measure 1
0000
0000
0000
0000
,  // measure 2
0000
0000
0000
0000
,  // measure 3
0000
0000
0000
0000
,  // measure 4
0000
0000
0000
0000
,  // measure 5
0000
0000
0000
0000
,  // measure 6
1000
0000
0100
0000
0010
0000
0001
1000
,  // measure 7
0001
0000
0100
0000
0010
0000
0000
1000
,  // measure 8
0001
0100
0000
0000
0100
0000
0001
0010
,  // measure 9
0001
0000
1000
0000
0000
0001
1000
0001
,  // measure 10
0010
0000
1000
0001
0000
0100
0010
0000
,  // measure 11
0002
0000
0000
0000
0003
0001
1000
0001
,  // measure 12
0100
0000
0001
1000
0000
0010
0100
0000
,  // measure 13
2000
0000
0000
0000
3001
0000
0000
0001
,  // measure 14
0010
0100
1000
0002
0000
0203
0000
0302
,  // measure 15
0000
1003
0020
0000
0030
0000
0010
0100
,  // measure 16
0010
1000
0001
2000
0000
0000
3000
0001
,  // measure 17
0010
0001
0010
0002
0000
2003
0000
0000
,  // measure 18
3001
0000
1001
0000
1001
0000
0001
1000
,  // measure 19
0001
0000
1000
0100
0010
0001
0010
0001
,  // measure 20
0020
0000
0230
0000
,  // measure 21
0301
0010
0100
1000
,  // measure 22
0010
0000
0110
0000
0110
0000
0010
0100
,  // measure 23
0010
0000
0010
0100
0001
1000
0001
2000
,  // measure 24
0000
0000
3020
0000
0031
0010
0100
2000
,  // measure 25
0000
3002
0000
0000
,  // measure 26
1003
0000
1000
0100
0001
0000
0001
0100
,  // measure 27
1000
0000
1000
0100
1000
0100
0010
0001
,  // measure 28
0020
0000
0000
0000
,  // measure 29
0130
0000
0001
0000
1000
0010
0001
0010
,  // measure 30
1000
0000
0001
0000
0100
0010
0100
0020
,  // measure 31
0000
0000
0100
0000
0130
0000
1000
0100
,  // measure 32
0010
0100
1000
0200
0000
0310
0001
0000
,  // measure 33
2000
0000
3200
0000
0310
0001
0010
0200
,  // measure 34
0000
2000
0000
0000
0000
0000
0000
0000
,  // measure 35
3300
0000
0000
0000
,  // measure 36
2002
0000
0000
3003
,  // measure 37
1000
0000
0100
0000
0010
0000
0001
1000
,  // measure 38
0001
0000
0010
0001
0200
0010
0000
0000
,  // measure 39
0301
0010
0100
1000
,  // measure 40
0100
0010
0001
1000
,  // measure 41
0001
0000
0010
0000
0100
0000
1000
0001
,  // measure 42
1000
0000
0100
0001
0020
0000
0031
1000
,  // measure 43
0002
2003
3020
0230
,  // measure 44
0302
0000
1000
1003
,  // measure 45
1001
0000
0001
0000
0001
0000
0100
0010
,  // measure 46
0100
0000
0001
0100
1000
0000
1000
0100
,  // measure 47
0001
0000
0002
0000
2003
0000
3001
0100
,  // measure 48
0001
2000
3200
0320
,  // measure 49
0031
0000
0000
0000
0000
0000
1000
0001
1000
0001
0000
0000
,  // measure 50
1001
0000
0101
0000
1001
0000
0001
0010
,  // measure 51
0001
0000
0011
0000
1001
0000
1000
0100
,  // measure 52
2000
3200
0320
0032
,  // measure 53
2000
0000
0000
3003
,  // measure 54
1001
0000
1100
0000
1001
0000
1000
0100
,  // measure 55
1000
0000
1000
0001
1000
0000
0001
0010
,  // measure 56
0001
0010
0100
0010
0100
0000
0001
1000
,  // measure 57
0002
0000
1003
0001
2000
0000
0001
0000
,  // measure 58
3001
0000
1001
0000
1100
0000
1000
0100
,  // measure 59
0001
0000
0101
0000
0110
0000
1000
0100
,  // measure 60
2000
3020
0230
0302
,  // measure 61
0020
0000
0000
0033
,  // measure 62
0010
0100
0010
2000
0000
3010
0002
0000
,  // measure 63
1003
0000
1000
0010
0001
0000
1000
0010
,  // measure 64
0100
0000
0010
0100
1000
0000
0001
0100
,  // measure 65
0002
0203
0302
2003
,  // measure 66
3001
0000
0011
0000
0101
0000
0001
1000
,  // measure 67
0001
0000
1000
0010
1000
0100
1000
0001
,  // measure 68
0020
0032
0203
0320
,  // measure 69
0032
0000
0010
0010
,  // measure 70
0013
0000
0000
0000
0110
0000
0000
0001
1000
0000
0001
0000
1000
0000
0001
0000
,  // measure 71
1000
0000
0010
0100
0010
0000
1000
0100
,  // measure 72
0020
0000
0032
0000
0023
0000
0031
1000
,  // measure 73
0001
0010
0100
1000
0100
0010
0001
0000
,  // measure 74
2002
0000
0000
0000
,  // measure 75
0000
0000
3003
0000
;

//---------------dance-single - ----------------
#NOTES:
     dance-single:
     :
     Medium:
     5:
     0.301,0.343,0.069,0.169,0.000: // measure 1
0000
0000
0000
0000
,  // measure 2
0000
0000
0000
0000
,  // measure 3
0000
0000
0000
0000
,  // measure 4
0000
0000
0000
0000
,  // measure 5
0000
0000
0000
0000
,  // measure 6
1000
1000
1000
0001
,  // measure 7
0001
0100
0100
0010
,  // measure 8
0010
1000
1000
0100
,  // measure 9
0100
0010
0010
0001
,  // measure 10
1001
0001
1000
0010
,  // measure 11
0200
0000
0000
0310
,  // measure 12
1000
0000
1000
0010
0000
0000
0001
0000
,  // measure 13
2000
0000
0001
0000
,  // measure 14
3001
0000
0100
0010
0000
0000
0010
0000
,  // measure 15
0001
1000
0001
0000
0100
0000
0010
0000
,  // measure 16
1000
0001
1000
0001
0000
0000
0100
0000
,  // measure 17
0010
0100
0000
2000
0000
0000
3001
0000
,  // measure 18
1001
0001
0001
0000
,  // measure 19
0100
0100
0010
0010
,  // measure 20
2000
0000
0001
0000
,  // measure 21
3001
1000
0001
0000
,  // measure 22
1000
1000
0010
0010
,  // measure 23
0100
0100
0001
0001
,  // measure 24
2000
3100
0020
0031
,  // measure 25
1000
0001
1000
0000
,  // measure 26
0010
0010
0100
0000
,  // measure 27
1000
1000
0001
0000
,  // measure 28
2000
0000
0000
0000
,  // measure 29
3001
0000
0001
1000
,  // measure 30
0001
1000
1000
0010
,  // measure 31
0200
0000
0310
0000
,  // measure 32
1000
0001
1000
0100
,  // measure 33
0010
0001
1000
0100
,  // measure 34
1000
0001
1000
0001
,  // measure 35
1000
0001
1000
0001
,  // measure 36
2002
0000
0000
3003
,  // measure 37
1001
0000
0001
0000
0100
0000
1000
0100
,  // measure 38
1000
0010
0100
0000
,  // measure 39
1000
0000
0000
0000
,  // measure 40
0001
0000
0000
0000
,  // measure 41
1001
0000
0001
0000
0001
0000
1000
0001
,  // measure 42
1000
0000
1000
0000
1000
0000
0010
0100
,  // measure 43
0010
0100
1000
0100
,  // measure 44
0002
0000
0000
0000
,  // measure 45
1003
1000
1000
0001
,  // measure 46
1001
0000
0001
0000
1000
0000
0001
1000
,  // measure 47
0001
0000
0001
0000
0100
0000
0100
0010
,  // measure 48
0100
1000
0100
0010
,  // measure 49
1001
0000
0000
0000
,  // measure 50
1001
0000
1000
0000
0001
0000
1000
0001
,  // measure 51
1000
0000
1000
0000
0001
0000
0100
0010
,  // measure 52
0100
0100
2000
3100
,  // measure 53
0002
0000
0000
0000
,  // measure 54
1003
0000
1000
0000
1000
0000
0010
0100
,  // measure 55
0010
0010
0001
1000
,  // measure 56
0001
0001
1000
0001
,  // measure 57
2000
0000
0001
0000
,  // measure 58
3001
0100
0010
0010
,  // measure 59
0001
0001
1000
0001
,  // measure 60
2000
3001
0002
1003
,  // measure 61
2000
0000
0001
0000
,  // measure 62
3001
0100
0100
0010
,  // measure 63
0100
1000
0100
0010
,  // measure 64
1000
0000
0001
0000
1000
0000
0001
1000
,  // measure 65
0001
1000
0010
0100
,  // measure 66
1000
0000
0100
0000
0010
0000
0001
1000
,  // measure 67
0001
0100
0010
1000
,  // measure 68
0001
2000
3100
0020
,  // measure 69
0032
0000
0000
0000
,  // measure 70
1003
1000
0001
0001
,  // measure 71
1000
0100
0010
0010
,  // measure 72
1000
0000
1000
0000
0001
0000
1000
0001
,  // measure 73
1000
0001
1000
0010
,  // measure 74
2002
0000
0000
0000
,  // measure 75
0000
0000
3003
0000
;

//---------------dance-single - ----------------
#NOTES:
     dance-single:
     :
     Easy:
     3:
     0.193,0.315,0.077,0.123,0.000: // measure 1
0000
0000
0000
0000
,  // measure 2
0000
0000
0000
0000
,  // measure 3
0000
0000
0000
0000
,  // measure 4
0000
0000
0000
0000
,  // measure 5
0000
0000
0000
0000
,  // measure 6
1000
0000
0000
0000
,  // measure 7
0001
0000
0000
0000
,  // measure 8
0010
0000
0000
0000
,  // measure 9
0100
0000
0000
0000
,  // measure 10
1000
0000
0001
0000
,  // measure 11
0002
0000
0000
0000
,  // measure 12
1003
0000
1000
0000
,  // measure 13
0020
0000
0000
0000
,  // measure 14
0130
0000
0100
0000
,  // measure 15
1000
0000
0000
0000
,  // measure 16
0010
0000
0010
0000
,  // measure 17
0001
0000
0000
0000
,  // measure 18
1001
0000
0001
0000
,  // measure 19
0001
0000
1000
0000
,  // measure 20
0020
0000
0000
0000
,  // measure 21
0030
0000
0000
0000
,  // measure 22
1000
0000
1000
0000
,  // measure 23
0001
0000
0001
0000
,  // measure 24
0010
0000
0100
0000
,  // measure 25
2000
0000
0000
0000
,  // measure 26
3001
0000
0001
0000
,  // measure 27
0001
0000
0010
0000
,  // measure 28
0010
0000
0100
0000
,  // measure 29
1000
0000
0000
0000
,  // measure 30
1000
1000
1000
0000
,  // measure 31
0002
0000
0003
0000
,  // measure 32
0100
0100
0100
0000
,  // measure 33
0010
0010
1000
1000
,  // measure 34
0001
1000
0100
0010
,  // measure 35
0001
1000
0100
0010
,  // measure 36
1001
0000
0000
0000
,  // measure 37
0110
0000
0010
0000
,  // measure 38
1000
1000
0001
0000
,  // measure 39
0000
0000
0000
0000
,  // measure 40
0000
0000
0000
0000
,  // measure 41
1001
0001
0001
0000
,  // measure 42
1000
1000
0001
0000
,  // measure 43
0010
0100
1000
0100
,  // measure 44
0020
0000
0000
0000
,  // measure 45
0130
0000
1000
0000
,  // measure 46
1001
0000
0001
0000
,  // measure 47
1000
1000
1000
0000
,  // measure 48
0010
0010
0010
0000
,  // measure 49
1001
0000
0000
0000
,  // measure 50
1001
0000
0001
0000
,  // measure 51
1000
1000
1000
0000
,  // measure 52
2000
3100
0020
0031
,  // measure 53
0002
0000
1000
0000
,  // measure 54
1003
1000
0001
0000
,  // measure 55
0001
0001
0100
0000
,  // measure 56
0001
0001
1000
0000
,  // measure 57
2000
0000
3001
0000
,  // measure 58
1001
0000
0001
0000
,  // measure 59
1000
1000
0001
0010
,  // measure 60
0002
0013
0200
1300
,  // measure 61
2000
0000
0001
0000
,  // measure 62
3001
1000
0001
1000
,  // measure 63
0001
0100
0100
0000
,  // measure 64
0010
0001
1000
0100
,  // measure 65
0001
1000
0001
0000
,  // measure 66
1001
0000
1000
1000
,  // measure 67
0001
0001
1000
0000
,  // measure 68
0100
0000
0010
0000
,  // measure 69
2000
0000
0000
0000
,  // measure 70
3001
0000
0100
0000
,  // measure 71
0010
0000
1000
0000
,  // measure 72
0100
0010
0010
0000
,  // measure 73
0010
0100
0100
0000
,  // measure 74
2002
0000
0000
0000
,  // measure 75
0000
0000
3003
0000
;
