#VERSION:0.81;
#TITLE:good high school;
#SUBTITLE:;
#ARTIST:baker;
#TITLETRANSLIT:;
#SUBTITLETRANSLIT:;
#ARTISTTRANSLIT:;
#GENRE:;
#ORIGIN:;
#CREDIT:;
#BANNER:good high school.png;
#BACKGROUND:good high school-bg.png;
#PREVIEWVID:;
#JACKET:good high school-jacket.png;
#CDIMAGE:;
#DISCIMAGE:;
#LYRICSPATH:;
#CDTITLE:cdtitle.png;
#MUSIC:good high school.ogg;
#OFFSET:-0.418;
#SAMPLESTART:13.201;
#SAMPLELENGTH:12.820;
#SELECTABLE:YES;
#BPMS:0.000=150.000;
#STOPS:;
#DELAYS:;
#WARPS:;
#TIMESIGNATURES:0.000=4=4;
#TICKCOUNTS:0.000=4;
#COMBOS:0.000=1;
#SPEEDS:0.000=1.000=0.000=0;
#SCROLLS:0.000=1.000;
#FAKES:;
#LABELS:0.000=Song Start;
#BGCHANGES:;
#KEYSOUNDS:;
#ATTACKS:
;

//---------------dance-single - ----------------
#NOTEDATA:;
#CHARTNAME:;
#STEPSTYPE:dance-single;
#DESCRIPTION:;
#CHARTSTYLE:;
#DIFFICULTY:Challenge;
#METER:16;
#RADARVALUES:0.695,0.795,0.153,0.287,0.354,462.000,16.000,30.000,0.000,0.000,0.000,0.000,0.000,0.695,0.795,0.153,0.287,0.354,462.000,16.000,30.000,0.000,0.000,0.000,0.000,0.000;
#CREDIT:;
#NOTES:
0000
0000
0000
0000
,
0000
0000
0000
0000
,
0000
0000
0000
0000
,
0000
0000
0000
0000
,
0000
0000
0000
0000
,
0000
0000
0000
0000
,
0000
0000
0000
0000
,
0000
0000
0000
0000
0100
0010
0100
0010
,
1000
0001
0001
0100
0001
0001
0010
0100
,
1000
0001
0001
0100
0001
0001
0000
0110
,
1000
0001
0001
0010
0001
0001
1000
0001
,
0100
0100
0010
0000
0010
0010
0100
0000
,
0001
1000
1000
0100
1000
1000
0010
1000
,
0001
1000
1000
0100
1000
1000
0000
0110
,
0001
1000
1000
0100
1000
1000
0010
0100
,
0001
0000
0000
0000
0010
0000
0000
0000
0100
0000
0000
0000
1000
0000
0000
0010
,
0100
0000
0000
0010
1000
0000
0000
0010
0100
0000
0100
0000
1000
0000
0001
0010
,
0100
0000
0000
0010
1000
0000
0000
0010
0100
0000
0100
0000
0010
0000
1000
0100
,
0010
0000
0000
0100
0001
0000
0000
0100
0010
0000
0010
0000
0001
0000
1000
0100
,
0010
0002
0000
0023
0000
0230
0000
1300
,
0100
0000
0000
1000
0001
0000
0000
1000
0010
0000
0010
0000
0100
0000
0001
1000
,
0100
0000
0000
1000
0001
0000
0000
1000
0010
0000
0010
0000
0100
0000
1000
0001
,
0010
0000
0000
0010
1000
0000
0000
1000
0100
0000
0001
0000
1000
0000
0010
0000
,
0001
0001
0100
0000
1000
1000
0100
0000
,
0010
0000
0100
0000
0100
0000
0001
1000
0100
0000
0100
0000
1000
0001
0010
0000
,
0100
1000
0010
0000
0010
0000
1000
0001
0010
0000
0010
0000
0001
0000
0001
0000
,
0100
0010
1000
0000
1000
0000
0100
0010
1000
0000
1000
0000
0010
0001
0100
0000
,
0010
2000
0000
3200
0000
0320
0000
0031
,
0100
0000
0010
0000
0010
0000
1000
0001
0010
0000
0010
0000
0001
1000
0100
0000
,
0010
0001
0100
0000
0100
0000
0001
1000
0100
0000
0100
0000
1000
0000
1000
0000
,
0010
0100
0001
0000
0001
0000
0010
0100
0001
0000
0001
0000
0100
1000
0010
0000
,
0110
0000
0001
0000
0110
0000
1000
0000
0110
0000
0110
0000
0001
1000
0001
0000
,
0200
0000
0000
0001
0000
0000
0010
0000
,
0000
1000
0000
0000
0010
0000
0000
0000
,
0320
0000
0000
0001
0000
0000
0100
0000
,
0000
1000
0000
0000
0130
0000
0000
0000
,
0100
0001
1000
0000
0010
0000
0001
1000
0100
0010
0000
0100
0010
0000
1000
0100
,
0010
0001
1000
0000
0100
0000
0001
1000
0010
0100
0000
0010
0100
0000
1000
0001
,
0100
0010
1000
0000
0001
0000
0100
0010
1000
0100
0000
1000
0010
0000
0100
0001
,
0010
0100
1000
0000
0010
0000
0100
0000
0110
0000
0000
0000
0110
0000
0000
0000
,
0120
0000
0001
0000
0100
0000
2030
0000
0001
0000
0010
0000
3100
1000
0100
0000
,
2000
0010
0001
3020
0100
0001
1030
0001
,
0200
1000
0010
0302
0010
1000
0103
0010
,
1000
1000
0010
0000
0001
0001
0010
0000
,
2000
0100
0001
3020
0001
0100
1030
0001
,
0200
1000
0010
0302
0010
1000
0103
0010
,
2000
0010
0100
3002
0100
0010
1003
0001
,
0000
0000
1000
0000
0100
0000
1000
0000
0010
0000
0100
0000
0001
0000
0000
1000
,
0100
0000
0010
0001
0100
0000
0010
0000
1000
0000
0100
0010
0001
0000
0010
0100
,
1000
0000
0010
0100
0001
0000
1000
0000
0100
0000
0001
0100
1000
0000
0001
0000
,
0010
0000
0100
1000
0010
0000
0100
0000
0001
0000
0010
0100
1000
0000
0100
0010
,
0001
0000
0100
0010
1000
0000
0001
0000
0100
0000
1000
0100
0001
0000
1000
0000
,
0010
0000
0100
0001
0010
0000
1000
0000
0001
0000
0100
1000
0010
0000
0001
0010
,
1000
0000
0010
1000
0001
0000
0100
0000
1000
0000
0100
0001
0010
0000
0001
0000
,
0110
1000
0001
1000
0110
0001
1000
0001
,
1000
0100
1000
0100
0001
0100
0001
0100
0010
0001
0010
0001
0100
0010
0100
0010
,
2000
0010
0100
3002
0010
0100
1003
0001
,
0000
0100
0010
0100
0001
0100
1000
0001
,
0020
0001
0100
2030
0001
0010
3100
1000
,
0000
1000
0010
0100
0101
0101
0001
1000
,
0200
0001
0010
2300
0100
0001
3010
1000
,
0000
0010
0001
1000
0001
0010
1000
0100
,
0020
1000
0100
0032
0010
0100
1003
0010
,
0000
0100
0001
1000
0011
0110
2200
3300
;

//---------------dance-single - ----------------
#NOTEDATA:;
#CHARTNAME:;
#STEPSTYPE:dance-single;
#DESCRIPTION:;
#CHARTSTYLE:;
#DIFFICULTY:Hard;
#METER:13;
#RADARVALUES:0.590,0.612,0.249,0.192,0.177,385.000,26.000,20.000,0.000,0.000,0.000,0.000,0.000,0.590,0.612,0.249,0.192,0.177,385.000,26.000,20.000,0.000,0.000,0.000,0.000,0.000;
#CREDIT:;
#NOTES:
0000
0000
0000
0000
,
0000
0000
0000
0000
,
0000
0000
0000
0000
,
0000
0000
0000
0000
,
0000
0000
0000
0000
,
0000
0000
0000
0000
,
0000
0000
0000
0000
,
0000
0000
0000
0000
1000
0001
1000
0001
,
1000
0010
0010
0000
0001
0010
0000
0010
,
1000
0100
0100
0000
0001
0100
0000
0100
,
1000
0010
0010
0000
0001
0010
0000
1000
,
0001
0001
0010
0000
1000
1000
0010
0000
,
1000
0100
0100
0000
0001
0100
0000
0100
,
1000
0010
0010
0000
0001
0010
0000
0010
,
1000
0100
0100
0000
0001
0010
0000
1000
,
0001
0000
0000
0000
0010
0000
0000
0000
0100
0000
0000
0000
1000
0000
0000
0001
,
0010
0000
0000
0010
0100
0000
0000
0100
1000
0000
1000
0000
0001
0000
1000
0000
,
1000
0000
0000
1000
0100
0000
0000
0100
0010
0000
0010
0000
0001
0000
1000
0000
,
0010
0000
0000
0010
1000
0000
0000
1000
0001
0000
0001
0000
0010
0000
0100
0000
,
1000
1000
0010
0000
0001
0001
0010
0000
,
1000
0000
0000
1000
0010
0000
0000
0010
0100
0000
0100
0000
0001
0000
0100
0000
,
0100
0000
0000
0100
0001
0000
0000
0001
1000
0000
1000
0000
0010
0000
0100
0000
,
0010
0000
0000
0010
1000
0000
0000
1000
0001
0000
0001
0000
0100
0000
0010
0000
,
1000
0001
0100
0000
0001
1000
0100
0000
,
1100
0000
0001
0000
0001
0000
0000
0001
0100
0000
0100
0000
0010
0000
1000
0000
,
0001
0000
0100
0000
0100
0000
0000
0100
0010
0000
0010
0000
0110
0000
0001
0000
,
1000
0000
0010
0000
0010
0000
0000
0010
1000
0000
1000
0000
0010
0000
0001
0000
,
1000
0100
0010
0000
1000
0100
0010
0000
,
0001
0000
1000
0000
1000
0000
0000
1000
0100
0000
0100
0000
0010
0000
0001
0000
,
1000
0000
0100
0000
0100
0000
0000
0010
0100
0000
0100
0000
0110
0000
1000
0000
,
0001
0000
0100
0000
0100
0000
0000
0100
0001
0000
0001
0000
0100
0000
1000
0000
,
1001
0010
0110
0000
1001
0100
0110
0000
,
0002
0000
0000
0010
0000
0000
0100
0000
,
0000
1000
0000
0000
0103
0000
0000
0000
,
2000
0000
0000
0100
0000
0000
0010
0000
,
0000
0001
0000
0000
3100
0000
0000
0000
,
1000
0000
1000
0000
0001
0000
1000
0000
0100
0001
0000
0100
0001
0000
0100
0000
,
1000
0000
0001
0000
1000
0000
0001
0000
0100
1000
0000
0100
1000
0000
0100
0000
,
0001
0000
1000
0000
0100
0000
0001
0000
0100
0010
0000
0100
0010
0000
0001
0000
,
1000
0001
0100
0000
1001
0000
1001
0000
,
2000
0100
3100
2000
0010
3010
0100
0001
,
0002
0010
0013
0002
0100
0103
0010
1000
,
0200
0010
0310
0200
1000
1300
0010
0100
,
0001
0001
1100
0000
1000
1000
0011
0000
,
0200
0010
0310
0200
1000
1300
0100
0001
,
0020
0001
0031
0020
0100
0130
1000
0001
,
2000
0100
3100
2000
0010
3010
1000
0001
,
0000
0000
1000
0000
0100
0000
1000
0000
0010
0000
0100
0000
1000
0000
0000
0100
,
0001
0000
0000
0100
1000
0000
0000
0100
0001
0000
0100
0000
1000
0000
0010
0000
,
0001
0000
0000
0010
1000
0000
0000
0010
0001
0000
0010
0000
1000
0000
0100
0000
,
0001
0000
0000
0100
1000
0000
0000
0100
0001
0000
0001
0000
1000
0000
0001
0000
,
0010
0000
0010
0000
1001
0000
0000
0000
0100
0000
0100
0000
1001
0000
0000
0010
,
1000
0000
0000
0010
0001
0000
0000
0010
1000
0000
0010
0000
0001
0000
0100
0000
,
1000
0000
0000
0100
0001
0000
0000
0100
1000
0000
0100
0000
0001
0000
0010
0000
,
0110
0000
1000
0001
0110
0000
0001
1000
,
0101
0001
1010
1000
1001
0001
0110
0000
,
1002
1000
0000
0100
0100
0000
1000
1003
,
0000
0001
0100
1000
0100
0001
0010
0010
,
2100
0100
0000
0001
0001
0000
0100
3100
,
0000
1000
0100
1000
0101
0101
1000
1000
,
2010
0010
0000
0001
0001
0000
0100
3100
,
0000
1000
0010
1000
0001
0100
0010
0010
,
0102
0100
0000
1000
1000
0000
0010
0013
,
0000
0001
1000
0100
0001
0010
2002
3003
;

//---------------dance-single - ----------------
#NOTEDATA:;
#CHARTNAME:;
#STEPSTYPE:dance-single;
#DESCRIPTION:;
#CHARTSTYLE:;
#DIFFICULTY:Medium;
#METER:7;
#RADARVALUES:0.457,0.428,0.479,0.125,0.000,271.000,50.000,13.000,0.000,0.000,0.000,0.000,0.000,0.457,0.428,0.479,0.125,0.000,271.000,50.000,13.000,0.000,0.000,0.000,0.000,0.000;
#CREDIT:;
#NOTES:
0000
0000
0000
0000
,
0000
0000
0000
0000
,
0000
0000
0000
0000
,
0000
0000
0000
0000
,
0000
0000
0000
0000
,
0000
0000
0000
0000
,
0000
0000
0000
0000
,
0000
0000
0000
0000
1000
0100
1000
0100
,
1000
0000
0001
0000
0100
0100
0000
0100
,
0001
0000
1000
0000
0010
0010
0000
0010
,
0100
0000
0001
0000
1000
0100
0000
0010
,
0001
0001
0001
0000
1000
1000
1000
0000
,
0001
0000
0100
0000
0010
0010
0000
0010
,
1000
0000
0010
0000
0100
0100
0000
0100
,
0001
0000
1000
0000
0001
1000
0000
1000
,
0001
0010
0100
1000
,
0101
0000
1001
0000
0010
0010
0000
0010
,
0100
0000
1001
0000
0100
0100
0100
0000
,
0010
0000
1001
0000
0010
0010
0000
0100
,
0001
0001
0100
0000
1000
1000
0010
0000
,
0010
0000
1100
0000
0001
0001
0000
0010
,
0100
0000
0011
0000
1000
1000
1000
0000
,
0010
0000
1001
0000
0100
0010
0000
0010
,
0100
0100
0101
0000
0010
0010
1010
0000
,
1100
0000
1001
0000
0001
0100
0000
0100
,
0010
0000
0110
0000
0010
1000
0010
0000
,
0100
0000
0101
0000
0001
1000
0000
1000
,
0100
0100
0001
0000
0010
0010
1000
0000
,
0011
0000
0101
0000
0100
0010
0000
0010
,
0100
0000
0101
0000
0001
0100
0001
0000
,
0100
0000
1001
0000
0001
0001
0000
0001
,
0100
0100
0101
0000
0001
0001
1001
0000
,
0220
0000
0000
0000
,
0000
0300
0000
0000
0030
0000
0000
0000
,
0220
0000
0000
0000
,
0000
0030
0000
0000
0300
0000
0000
0000
,
0100
0100
0001
0000
1000
1000
0100
0000
,
0010
0010
0001
0000
1000
1000
0010
0000
,
0100
0100
0001
0000
1000
1000
0100
0000
,
0010
0010
0010
0000
1001
0000
1001
0000
,
2001
0000
0000
3001
0002
0000
0103
0100
,
0000
0001
1000
0000
1000
0010
1000
0000
,
1002
0000
0000
1003
2000
0000
3010
0010
,
0000
1000
0001
0000
1100
0000
0101
0000
,
0210
0000
0000
0310
0020
0000
0130
0100
,
0000
0001
0010
0000
0001
1000
0010
0000
,
0120
0000
0000
0130
0200
0000
0310
0010
,
0000
1000
0100
0000
0010
0001
0100
0000
,
0101
0000
1001
0000
0100
0100
0000
1001
,
0000
0000
1010
0000
0001
0001
0000
0110
,
0000
0000
0101
0000
1000
1000
0000
1010
,
0000
0101
0000
1001
0000
1010
0000
0010
,
0100
0000
1100
0000
1000
0010
0000
0110
,
0000
0000
0101
0000
0100
0010
0000
1010
,
0000
0000
1100
0000
1000
0001
1000
0000
,
0101
1010
0101
1010
,
1000
0100
0000
1000
0100
0000
1000
0010
,
0000
0100
0000
0100
0010
0000
0110
0000
,
0001
0100
0000
0001
0100
0000
0001
0010
,
0000
0100
1000
0000
1000
0001
1000
0000
,
1000
0010
1000
1000
0010
0000
1000
0100
,
0000
0010
0000
0010
0100
0000
0110
0000
,
0001
0010
0001
0001
0010
0000
0001
0100
,
0000
0001
1000
0001
1000
0100
0020
0030
;

//---------------dance-single - ----------------
#NOTEDATA:;
#CHARTNAME:;
#STEPSTYPE:dance-single;
#DESCRIPTION:;
#CHARTSTYLE:;
#DIFFICULTY:Easy;
#METER:5;
#RADARVALUES:0.364,0.488,0.536,0.067,0.000,203.000,56.000,7.000,0.000,0.000,0.000,0.000,0.000,0.364,0.488,0.536,0.067,0.000,203.000,56.000,7.000,0.000,0.000,0.000,0.000,0.000;
#CREDIT:;
#NOTES:
// measure 0
0000
0000
0000
0000
,  // measure 1
0000
0000
0000
0000
,  // measure 2
0000
0000
0000
0000
,  // measure 3
0000
0000
0000
0000
,  // measure 4
0000
0000
0000
0000
,  // measure 5
0000
0000
0000
0000
,  // measure 6
0000
0000
0000
0000
,  // measure 7
0000
0000
0000
0000
,  // measure 8
1000
0000
0001
0000
0100
0100
0000
0000
,  // measure 9
0001
0000
1000
0000
0010
0010
0000
0000
,  // measure 10
1000
0000
0001
0000
0100
0100
0000
0000
,  // measure 11
0100
1001
0100
1001
,  // measure 12
1000
0000
0010
0000
0100
0100
0000
0000
,  // measure 13
0001
0000
0100
0000
0010
0010
0000
0000
,  // measure 14
1000
0000
0010
0000
0100
0100
0000
0000
,  // measure 15
0001
0010
0100
1000
,  // measure 16
0011
0101
1001
0010
,  // measure 17
1100
1010
1001
0000
,  // measure 18
0011
1001
1010
1000
,  // measure 19
0001
0100
0010
1000
,  // measure 20
1100
1010
1001
0100
,  // measure 21
0011
0101
1001
0000
,  // measure 22
1100
1001
0101
1001
,  // measure 23
1000
0000
0001
0000
0100
0100
0100
0000
,  // measure 24
0001
0000
0100
0000
0001
0100
0000
0000
,  // measure 25
1000
0000
0010
0000
1000
0010
0000
0000
,  // measure 26
1000
0000
0001
0000
1000
0001
0000
0000
,  // measure 27
0100
0000
0010
0000
0100
0100
0100
0000
,  // measure 28
0001
0000
1000
0000
0001
1000
0000
0000
,  // measure 29
1000
0000
0010
0000
1000
0010
0000
0000
,  // measure 30
0010
0000
0100
0000
0010
0100
0000
0000
,  // measure 31
0100
0100
0100
0000
0010
0010
0010
0000
,  // measure 32
2002
0000
0000
0000
,  // measure 33
3003
0000
0000
0000
,  // measure 34
0200
0000
0000
0000
,  // measure 35
0300
0000
0000
0000
,  // measure 36
0001
0100
0001
0010
,  // measure 37
1000
0100
0001
0010
,  // measure 38
0100
1000
0010
1000
,  // measure 39
0100
0001
0110
0110
,  // measure 40
1000
0000
0001
0000
0100
0100
0000
0000
,  // measure 41
0001
0000
1000
0000
0010
0010
0000
0000
,  // measure 42
1000
0000
0001
0000
0100
0100
0000
0000
,  // measure 43
0001
0100
1000
0100
,  // measure 44
0010
0000
1000
0000
0001
0001
0000
0000
,  // measure 45
0100
0000
0001
0000
1000
1000
0000
0000
,  // measure 46
0010
0000
1000
0000
0001
0001
0000
1000
,  // measure 47
0000
0000
0000
0010
,  // measure 48
1100
0110
0011
0101
,  // measure 49
0011
0110
1100
0010
,  // measure 50
0110
0101
0011
0110
,  // measure 51
1100
1001
0101
1001
,  // measure 52
0011
0110
1100
1010
,  // measure 53
1100
0110
0011
0100
,  // measure 54
0110
1010
0110
0101
,  // measure 55
1000
0000
0001
0000
1000
0001
1000
0000
,  // measure 56
0020
0000
0000
0000
0130
0000
0000
0100
,  // measure 57
0000
0100
0000
0000
1001
0000
0100
0000
,  // measure 58
0200
0000
0000
0000
0310
0000
0000
0010
,  // measure 59
0000
0010
0000
0000
1001
0000
1001
0000
,  // measure 60
0020
0000
0000
0000
0130
0000
0000
0010
,  // measure 61
0000
0010
0000
0000
1001
0000
0100
0000
,  // measure 62
0200
0000
0000
0000
0310
0000
0000
0100
,  // measure 63
0000
0100
0000
0000
0110
0000
1001
0000
;

//---------------dance-single - ----------------
#NOTEDATA:;
#CHARTNAME:;
#STEPSTYPE:dance-single;
#DESCRIPTION:;
#CHARTSTYLE:;
#DIFFICULTY:Beginner;
#METER:3;
#RADARVALUES:0.129,0.214,0.105,0.057,0.000,77.000,11.000,6.000,0.000,0.000,0.000,0.000,0.000,0.129,0.214,0.105,0.057,0.000,77.000,11.000,6.000,0.000,0.000,0.000,0.000,0.000;
#CREDIT:;
#NOTES:
0000
0000
0000
0000
,
0000
0000
0000
0000
,
0000
0000
0000
0000
,
0000
0000
0000
0000
,
0000
0000
0000
0000
,
0000
0000
0000
0000
,
0000
0000
0000
0000
,
0000
0000
0000
0000
,
1000
0000
0000
0000
,
1000
0000
0000
0000
,
0001
0000
0000
0000
,
0100
0000
0100
0000
,
0100
0000
0000
0000
,
0100
0000
0000
0000
,
0010
0000
0000
0000
,
0010
0000
0000
0000
,
1001
0000
0000
0000
,
0110
0000
0000
0000
,
1000
0000
0000
0000
,
0001
0000
0000
0000
,
1001
0000
0000
0000
,
0110
0000
0000
0000
,
0001
0000
0000
0000
,
1000
0000
0000
0000
,
0001
0000
0001
0000
,
0002
0000
0003
0000
,
1000
0000
1000
0000
,
2000
0000
3000
0000
,
0010
0000
0010
0000
,
0020
0000
0030
0000
,
0100
0000
0100
0000
,
0010
0000
0000
0000
,
2002
0000
0000
0000
,
3003
0000
0000
0000
,
0200
0000
0000
0000
,
0300
0000
0000
0000
,
0001
0000
0000
0000
,
1000
0000
0000
0000
,
0010
0000
0000
0000
,
0000
0000
0100
0100
,
0100
0000
0000
0000
,
0100
0000
0000
0000
,
0001
0000
1000
0000
,
0001
0000
1000
0000
,
0010
0000
0000
0000
,
0010
0000
0000
0000
,
1000
0000
0001
0000
,
0000
0000
0000
0000
,
1001
0000
0000
0000
,
0110
0000
0000
0000
,
1000
0000
0001
0000
,
1000
0001
1000
0000
,
1001
0000
0000
0000
,
0110
0000
0000
0000
,
0001
0000
1000
0000
,
0001
1000
0001
0000
,
1000
0000
0100
0000
,
1000
0000
1000
0000
,
0001
0000
0100
0000
,
0001
0000
0001
0000
,
1000
0000
0010
0000
,
1000
0000
1000
0000
,
0001
0000
0010
0000
,
0001
0000
1001
1001
;
