#TITLE:caramel ribbon;
#SUBTITLE:;
#ARTIST:P*Light;
#TITLETRANSLIT:;
#SUBTITLETRANSLIT:;
#ARTISTTRANSLIT:;
#GENRE:;
#CREDIT:;
#BANNER:caramel ribbon.png;
#BACKGROUND:caramel ribbon-bg.png;
#LYRICSPATH:;
#CDTITLE:;
#MUSIC:caramel ribbon.mp3;
#OFFSET:-2.520;
#SAMPLESTART:13.140;
#SAMPLELENGTH:15.000;
#SELECTABLE:YES;
#BPMS:0.000=175.000
;
#STOPS:147.000=0.343,
149.000=0.514
;
#BGCHANGES:;
#KEYSOUNDS:;
#ATTACKS:;

//---------------dance-single - ----------------
#NOTES:
     dance-single:
     :
     Hard:
     13:
     0.708,0.713,0.314,0.380,0.252,448.000,33.000,40.000,0.000,0.000,0.000,0.708,0.713,0.314,0.380,0.252,448.000,33.000,40.000,0.000,0.000,0.000: // measure 0
0000
0000
0000
0000
,  // measure 1
0000
0000
0000
0000
,  // measure 2
0000
0000
0000
0000
,  // measure 3
0000
0000
0000
0000
,  // measure 4
0001
0100
0010
0000
0010
1000
0010
0000
,  // measure 5
1000
0010
0100
0000
0100
0001
0100
0000
,  // measure 6
1000
0000
0100
0000
0010
0000
0001
0000
0010
0100
0010
0100
1000
0001
1000
0001
,  // measure 7
2000
0000
0001
0000
0001
0000
3001
1000
,  // measure 8
0100
0000
0000
0100
1000
0000
0001
0000
1000
0000
0000
1000
0001
0000
0010
0000
,  // measure 9
0100
0000
0000
0100
1000
0000
0010
0000
1000
0000
0000
1000
0001
0000
0100
0000
,  // measure 10
0010
0000
0100
0000
0001
0000
0010
0000
0100
0000
0000
0100
1000
0000
0100
0000
,  // measure 11
0010
0000
0000
0001
0010
0000
0200
0000
0000
0000
0000
0000
0310
0000
0100
0000
,  // measure 12
1000
0000
0000
0001
1000
0000
0001
0000
0100
0000
0000
0010
0100
0000
0010
0000
,  // measure 13
1000
0000
0000
0100
1000
0000
0100
0000
0010
0000
0000
0100
0010
0000
0100
0000
,  // measure 14
0010
0000
0000
0100
1000
0000
0100
0000
0010
0000
0000
0010
0001
0000
0010
0000
,  // measure 15
0100
0000
0100
0000
0010
0000
0010
0000
0100
1000
0100
0010
0002
0000
2003
0000
,  // measure 16
3010
0000
0001
1000
0200
0000
2300
0000
,  // measure 17
3100
0010
0001
0010
0200
0000
0320
0000
,  // measure 18
0031
0000
1000
0100
0010
0100
0010
0001
,  // measure 19
2000
0000
0000
0000
3020
0000
0000
0000
0130
0000
0010
0100
0001
0000
0000
0000
,  // measure 20
2000
0000
0100
0000
0010
0000
3100
0010
,  // measure 21
0001
0010
0200
0000
0010
0000
1300
0000
,  // measure 22
0001
0000
0100
0000
0010
0000
1000
0000
0001
0010
0001
0010
0100
1000
0100
1000
,  // measure 23
0002
0000
1000
0000
2000
3003
0000
0000
,  // measure 24
0001
0010
0100
0010
1000
0010
0100
0010
,  // measure 25
0001
0010
0100
1000
0001
0010
0100
1000
,  // measure 26
0010
0100
0001
0100
0010
1000
0010
1000
,  // measure 27
0100
1000
0100
0010
0001
0010
0100
0000
,  // measure 28
1001
0001
1000
0001
0010
0001
0100
0001
,  // measure 29
1000
0010
0001
0010
1000
0100
0001
0100
,  // measure 30
0010
0100
1000
0001
0010
0100
1000
0000
,  // measure 31
1000
0000
0000
0100
0000
0000
0010
0000
0100
0000
0010
0000
0002
0000
2003
0000
,  // measure 32
3000
0100
0010
0100
0000
1000
0010
1000
,  // measure 33
0000
0001
0100
0001
0010
0001
0100
0001
,  // measure 34
0000
1000
0100
1000
0000
0010
0100
0010
,  // measure 35
0000
0100
0010
0100
0001
0100
0010
0100
,  // measure 36
0000
1000
0010
1000
0000
0001
0100
1000
,  // measure 37
0010
0000
1000
0000
0001
0000
1000
0000
0010
0000
0100
0000
0001
0000
1000
0100
,  // measure 38
1000
0100
0010
0001
0010
0001
0010
0000
0000
0100
0000
0000
1000
0000
0001
0000
,  // measure 39
0010
0000
0100
1000
0001
0000
0220
0000
0000
0000
0000
0000
0030
0000
0002
0000
,  // measure 40
0000
0000
0300
2000
0000
0000
0003
0020
,  // measure 41
0000
0000
3030
2200
0000
0000
3000
0020
,  // measure 42
0000
0000
0300
0002
0000
0000
0030
2000
,  // measure 43
0000
0000
3003
0001
0000
0001
0000
0010
,  // measure 44
0000
0010
0000
0100
0000
0100
0000
1000
,  // measure 45
0000
1000
0000
0010
0000
0010
0000
0100
,  // measure 46
0000
0100
0000
2000
0000
0100
0000
0010
,  // measure 47
0000
3001
0000
0011
0000
0010
0000
0100
,  // measure 48
0000
1000
1010
1010
0000
0010
0110
0110
,  // measure 49
0000
0101
0000
0000
0011
0000
1001
0000
0000
0000
1000
0000
0000
0000
0100
0000
,  // measure 50
0000
0001
0101
0101
0000
1000
1010
1010
,  // measure 51
0000
1001
0000
0000
0011
0000
1001
0000
0000
0000
1000
0000
0010
0000
0110
0000
,  // measure 52
0000
0100
0001
0101
0000
0001
0010
0011
,  // measure 53
0000
0000
0010
0000
0100
0000
1000
0000
0100
0000
0010
0000
0001
0000
1000
0010
,  // measure 54
1000
0010
0100
0001
0100
0001
2000
0000
0000
0000
0010
0000
0000
0000
0100
0000
,  // measure 55
0000
0000
3001
0000
0010
0000
0001
0000
0000
0001
0100
0000
0001
0000
0010
0000
,  // measure 56
0000
0010
0100
0000
0010
0000
0100
0000
0000
0100
1000
0000
0100
0000
1000
0000
,  // measure 57
0000
1000
0001
0000
1000
0000
0101
0000
0000
0000
1010
0000
0000
0000
0001
0000
,  // measure 58
0000
0010
0100
0000
1000
0000
0100
0000
1000
0000
0100
0000
0010
0000
0002
0000
,  // measure 59
0000
0203
0000
0320
0000
1000
0000
0130
,  // measure 60
0010
0100
0001
2000
0000
3010
1000
0001
,  // measure 61
0000
0010
0000
0000
0100
0000
1000
0100
0000
0010
0100
0000
0010
0000
0001
0100
,  // measure 62
0000
0010
1000
0000
0100
0000
1000
0000
1000
0000
0010
1000
0010
0000
0100
0010
,  // measure 63
0100
0010
2000
0000
3002
0000
1003
0000
0100
0000
0010
0000
0001
0000
1000
0000
,  // measure 64
0100
0010
0011
0000
0101
0000
1010
2100
,  // measure 65
0000
3010
0000
0101
0010
0001
0010
0100
,  // measure 66
1000
0100
1000
0010
0100
0010
0100
0001
,  // measure 67
1000
0001
0000
2001
0000
3010
0000
0120
,  // measure 68
0000
1030
0000
2100
0000
3010
0000
0012
,  // measure 69
0000
0000
0103
0000
0000
0000
0001
0000
0100
0000
0010
0000
1000
0000
0001
0100
,  // measure 70
0001
0100
0010
1000
0010
1000
0002
0000
1000
0000
0000
0000
1000
0000
0000
0000
,  // measure 71
1000
1003
0001
1001
0000
0000
0000
0000
;

//---------------dance-single - ----------------
#NOTES:
     dance-single:
     :
     Beginner:
     3:
     0.204,0.238,0.143,0.124,0.000,122.000,15.000,13.000,0.000,0.000,0.000,0.204,0.238,0.143,0.124,0.000,122.000,15.000,13.000,0.000,0.000,0.000:
0000
0000
0000
0000
,
0000
0000
0000
0000
,
0000
0000
0000
0000
,
0000
0000
0000
0000
,
1000
1000
1000
0000
,
0001
0001
0001
0000
,
0010
0010
0010
0000
,
0200
0000
0000
0300
,
0100
0000
0100
0000
,
0010
0000
0010
0000
,
1000
0000
1000
0000
,
0001
0000
0001
0000
,
0010
0000
0010
0000
,
0100
0000
0100
0000
,
1000
0000
1000
0000
,
0002
0000
0000
0003
,
0001
0000
0001
0000
,
1000
0000
1000
0000
,
0010
0000
0010
0000
,
0100
0000
0100
0000
,
1000
0000
1000
0000
,
0100
0000
0100
0000
,
0001
0000
0001
0000
,
0020
0000
0000
0000
0000
0030
0000
0000
,
0100
0000
0010
0000
,
0100
0000
0010
0000
,
1000
0000
0001
0000
,
1000
0000
0001
0000
,
0100
0000
0001
0000
,
0100
0000
0001
0000
,
0010
0000
1000
0000
,
0020
0000
0000
0030
,
0010
0000
0100
0000
,
0010
0000
1000
0000
,
0100
0000
0010
0000
,
0100
0000
0001
0000
,
1000
0000
0001
0001
,
0000
0000
0100
0100
0000
0000
0000
0010
,
0000
0000
0000
2000
0000
0000
0000
0000
,
0000
3000
0000
1001
0000
0000
0000
0000
,
0000
0000
0000
0000
,
0000
0000
0000
0000
,
0000
0000
0000
0000
,
0000
0000
0000
0002
0000
0000
0000
0003
,
0000
0000
0000
0020
0000
0000
0000
0030
,
0000
0000
0000
0200
0000
0000
0000
0300
,
0000
0000
0000
2000
0000
0000
0000
0000
,
0000
3000
0000
1001
0000
0000
0000
0000
,
0000
0000
0000
0110
0000
0000
0000
0110
,
0000
0000
0000
1001
0000
0000
0000
0000
,
0000
0000
0000
1001
0000
0000
0000
1001
,
0000
0000
0000
0110
0000
0000
0000
0100
,
0000
0000
0000
0010
0000
0000
0000
1000
,
0000
0000
0000
0001
0000
0001
0000
0001
,
0000
0001
0000
0002
0000
0000
0000
0000
,
0000
0003
0000
0001
0000
0000
0000
0001
,
0000
0000
0000
0010
0000
0000
0000
0010
,
0000
0000
0000
1000
0000
0000
0000
1000
,
0000
0000
0000
0100
0000
0000
0000
0100
,
0000
0000
0000
0010
0000
0000
0000
0010
,
0000
0000
0000
0100
0000
0000
0000
0100
,
0000
0000
0000
1000
0000
0000
0000
1000
,
0000
0000
0000
0002
0000
0000
0000
0000
,
0000
0003
0000
1001
0000
0000
0000
1000
,
0000
0000
0000
0020
0000
0000
0000
0000
,
0000
0030
0000
0110
0000
0000
0000
0100
,
0000
0000
0000
1000
0000
0000
0000
0100
,
0000
0000
0000
1001
0000
0000
0000
0110
,
0000
0000
0000
1001
0000
0000
0000
0110
,
0000
0000
0000
1000
0000
1000
0000
1000
,
0000
1000
0000
2000
0000
0000
0000
0000
,
0000
3000
0000
1001
0000
0000
0000
0000
;

//---------------dance-single - ----------------
#NOTES:
     dance-single:
     :
     Easy:
     5:
     0.317,0.339,0.162,0.181,0.000,197.000,17.000,19.000,0.000,0.000,0.000,0.317,0.339,0.162,0.181,0.000,197.000,17.000,19.000,0.000,0.000,0.000:
0000
0000
0000
0000
,
0000
0000
0000
0000
,
0000
0000
0000
0000
,
0000
0000
0000
0000
,
1000
1000
1000
0000
,
0001
0001
0001
0000
,
0010
0010
0010
0010
,
0200
0000
0000
0300
,
0010
0001
0010
0001
,
1000
0100
1000
0100
,
0010
0000
0100
0000
,
1000
0001
0200
0300
,
0010
1000
0010
1000
,
0100
0001
0100
0001
,
0010
0100
0010
0100
,
0220
0000
0000
0330
,
1000
0001
0100
0000
,
0001
1000
0010
0000
,
0100
0010
0001
0000
,
0010
0100
1000
0000
,
0002
1000
1000
1003
,
2000
0001
0001
3001
,
0010
0100
1000
0001
,
2002
0000
0000
0000
0000
3003
0000
0000
,
1000
0010
1000
0010
,
0100
0001
0100
0000
,
0010
0001
0010
0001
,
0100
1000
0100
0000
,
0010
0100
0010
0100
,
1000
0001
1000
0000
,
0001
0100
0001
0100
,
0010
0010
0020
0030
,
1000
0100
0000
0100
,
0000
0010
0010
0010
,
0000
0001
0000
0001
,
0000
1000
1000
1000
,
0000
0010
0000
0010
,
1000
0000
1000
0001
0000
0010
0000
0100
,
0000
1000
0000
2002
0000
0000
0000
0000
,
0000
3003
0000
0110
0000
0000
0000
0000
,
0000
0000
0000
0000
,
0000
0000
0000
0000
,
0000
0000
0000
0000
,
0000
0000
0000
0001
0000
0001
0000
0010
,
0000
0010
0000
0100
0000
0100
0000
1000
,
0000
0000
0000
1000
0000
1000
0000
0100
,
0000
0100
0000
0020
0000
0000
0000
0000
,
0000
0030
0000
1001
0000
0000
0000
0000
,
0000
0000
0010
1000
0000
0000
0100
0001
,
0000
0001
0000
0110
0000
0000
0000
0000
,
0000
0000
0010
0100
0000
0000
1000
0010
,
0000
0001
0000
0101
0000
0000
0000
1010
,
0000
0000
0000
1100
0000
0000
0000
0011
,
0000
0000
0000
1000
0000
0001
0000
1000
,
0000
0001
0000
0020
0000
0000
0000
0230
,
0000
0300
0000
0001
0000
0010
0000
0001
,
0000
0010
0000
0100
0000
1000
0000
0100
,
0000
1000
0000
0010
0000
0000
0000
0100
,
0000
0000
0000
1000
0000
0100
0000
0020
,
0000
0030
0000
0001
0000
0010
0000
0100
,
0000
1000
0000
0001
0000
0010
0000
0100
,
0000
1000
0000
0010
0000
0100
0000
1000
,
0000
0100
0000
0020
0000
0000
0000
0000
,
0000
0030
0000
1001
0000
0001
0000
0100
,
0000
0100
0001
0000
1000
0000
0001
0200
,
0000
0300
0000
0010
0000
0100
0000
1000
,
0000
0100
0000
0010
0000
0001
0000
0010
,
0000
0100
0000
0110
0000
0000
0000
1010
,
0000
0000
0000
0101
0000
0000
0000
1001
,
0000
0000
0000
1000
0000
0100
0000
0010
,
0000
0001
0000
0220
0000
0000
0000
0000
,
0000
0330
0000
1001
0000
0000
0000
0000
;

//---------------dance-single - ----------------
#NOTES:
     dance-single:
     :
     Medium:
     9:
     0.492,0.441,0.190,0.304,0.081,310.000,20.000,32.000,0.000,0.000,0.000,0.492,0.441,0.190,0.304,0.081,310.000,20.000,32.000,0.000,0.000,0.000:
0000
0000
0000
0000
,
0000
0000
0000
0000
,
0000
0000
0000
0000
,
0000
0000
0000
0000
,
1000
0000
0100
0000
0010
0000
0001
0010
,
0001
0010
0001
0000
0010
0000
0100
0000
,
1000
0010
1000
0000
0100
0001
0100
0000
,
0210
0010
0010
0310
,
1000
0000
0000
1000
0000
0000
1000
0000
0100
0000
0000
0100
0000
0000
0100
0000
,
0010
0000
0000
0010
0000
0000
0010
0000
0001
0000
0000
0001
0000
0000
0001
0000
,
1000
0000
0000
0000
0010
0000
0000
0000
0100
0000
0000
0010
0000
0000
0100
0000
,
0001
0000
0000
1000
0000
0000
0002
0000
0000
0000
0000
0000
1003
0000
0000
0000
,
0001
0000
0000
0001
0000
0000
0001
0000
0010
0000
0000
0010
0000
0000
0010
0000
,
0100
0000
0000
0100
0000
0000
0100
0000
1000
0000
0000
1000
0000
0000
1000
0000
,
0100
0000
0000
0100
0000
0000
0100
0000
0010
0000
0000
0010
0000
0000
0010
0000
,
0001
0010
0001
0000
0200
0000
0310
0000
,
1000
0000
0001
0100
0001
0000
0100
0000
,
0010
0100
0010
0100
0010
0000
0200
0000
,
0301
0000
0001
0010
0100
0000
0100
1000
,
0010
0100
0001
1000
,
0002
0000
0000
0000
0000
0000
1003
0100
,
1000
0100
1000
0000
0010
0000
0100
0000
,
0001
1000
0001
0000
0100
0010
0100
0000
,
2001
0000
0001
0000
0002
3003
0000
0000
,
0001
0100
0001
0000
0001
0010
0001
0000
,
1000
0010
1000
0000
1000
0100
1000
0000
,
0010
1000
0010
0000
0010
0100
0010
0000
,
0100
0001
0100
0000
0100
0010
0100
0000
,
2000
0100
0010
3001
,
0002
0010
0100
1003
,
0020
0100
1000
0130
,
0001
0010
0100
0000
2000
0000
3001
0000
,
0000
0001
0010
0000
0000
0100
1000
0000
,
0000
0010
0100
0000
0001
0000
0100
0000
,
0000
1000
0010
0000
0000
0100
0001
0000
,
0000
0010
1000
0000
0100
0000
1000
0000
,
0000
0001
0010
0000
0000
0100
1000
0100
,
0010
0000
0100
0001
0010
0100
0000
1000
,
0100
0000
0010
0000
0000
0000
1000
0000
0000
0001
0000
0000
1000
0000
0010
0000
,
0000
0100
0000
2001
0000
0000
0000
3020
,
0000
0000
0000
0230
0000
0000
0000
0302
,
0000
0003
0000
0210
0000
0000
0000
0302
,
0000
0000
0000
2003
0000
0000
0000
3020
,
0000
0000
0000
1030
0000
1000
0000
0100
,
0000
0100
0000
0010
0000
0010
0000
0001
,
0000
0001
0000
0010
0000
0010
0000
0100
,
0000
0100
0000
0002
0000
0010
0000
0100
,
0000
1003
0000
1001
0000
0000
0000
0000
,
0000
0000
0001
0101
0000
0000
1000
0010
,
0000
0100
0000
0000
0010
0000
1010
0000
0000
0000
0000
0000
0000
0000
0000
0000
,
0000
0000
0010
0110
0000
0000
0001
0010
,
0000
0100
0000
0000
1000
0000
1001
0000
0000
0000
0001
0000
0000
0000
0101
0000
,
0000
0100
0000
0110
0000
0010
0000
1010
,
0000
1000
0000
0001
1000
0001
0000
0100
,
0010
0100
0000
0002
0000
0010
0000
0100
,
0000
1003
0000
0110
0000
0010
1000
0020
,
0000
0130
0000
0001
0010
0100
0010
0002
,
0000
1003
0000
0001
0000
1000
0010
1000
,
0000
0100
0001
0200
0000
0320
0000
2030
,
0000
3001
0000
0020
0000
0000
0000
0030
,
0000
0001
0020
0000
0000
0030
0000
0001
,
0000
0010
0000
0000
0100
0000
1000
0000
0000
2000
0000
0000
0000
0000
3001
0000
,
0000
0001
0000
0010
0100
0010
0000
2000
,
0000
3001
0000
1001
0000
0001
0000
0010
,
0000
0100
1100
0000
1000
0000
0010
0200
,
0000
0310
0000
0001
0010
0001
0000
1000
,
0100
1000
0000
0010
0100
0010
0000
1000
,
0001
1000
0000
1010
0000
0010
0000
0110
,
0000
0100
0000
0101
0000
0001
0000
1001
,
0000
1000
0000
0010
0100
0010
0000
1000
,
0001
1000
0000
0002
1000
0000
1000
0000
,
1000
1003
0000
1001
0000
0000
0000
0000
;
