#VERSION:0.81;
#TITLE:遠く Dexholic Mix;
#SUBTITLE:;
#ARTIST:Dixie Flatline feat.祭屋;
#TITLETRANSLIT:Tooku Dexholic Mix;
#SUBTITLETRANSLIT:;
#ARTISTTRANSLIT:Dixie Flatline feat.Saiya;
#GENRE:;
#ORIGIN:;
#CREDIT:;
#BANNER:Tooku Dexholic Mix.png;
#BACKGROUND:Tooku Dexholic Mix-bg.png;
#PREVIEWVID:;
#JACKET:Tooku Dexholic Mix-jacket.png;
#CDIMAGE:;
#DISCIMAGE:;
#LYRICSPATH:;
#CDTITLE:cdtitle.png;
#MUSIC:Tooku Dexholic Mix.ogg;
#OFFSET:-0.577;
#SAMPLESTART:60.581;
#SAMPLELENGTH:15.800;
#SELECTABLE:YES;
#BPMS:0.000=128.000;
#STOPS:;
#DELAYS:;
#WARPS:;
#TIMESIGNATURES:0.000=4=4;
#TICKCOUNTS:0.000=4;
#COMBOS:0.000=1;
#SPEEDS:0.000=1.000=0.000=0;
#SCROLLS:0.000=1.000;
#FAKES:;
#LABELS:0.000=Song Start;
#BGCHANGES:;
#KEYSOUNDS:;
#ATTACKS:
;

//---------------dance-single - ----------------
#NOTEDATA:;
#CHARTNAME:;
#STEPSTYPE:dance-single;
#DESCRIPTION:;
#CHARTSTYLE:;
#DIFFICULTY:Hard;
#METER:10;
#RADARVALUES:0.449,0.444,0.229,0.366,0.082,278.000,25.000,40.000,0.000,0.000,0.000,0.000,0.000,0.449,0.444,0.229,0.366,0.082,278.000,25.000,40.000,0.000,0.000,0.000,0.000,0.000;
#CREDIT:;
#NOTES:
// measure 0
0000
0000
0000
0000
,  // measure 1
0000
0000
0000
0000
,  // measure 2
0000
0000
0000
0000
,  // measure 3
0000
0000
0000
0000
,  // measure 4
0000
0000
0000
0000
,  // measure 5
0000
0000
0000
0000
,  // measure 6
0000
0000
0000
0000
,  // measure 7
0000
0000
0220
0330
,  // measure 8
2000
0000
3002
0000
0203
0000
0310
1000
,  // measure 9
0100
0001
0100
1000
0010
0000
1000
0100
,  // measure 10
0010
0000
0001
0010
0100
0000
1000
0001
,  // measure 11
0200
0001
0310
0110
,  // measure 12
0002
0000
2003
0000
3200
0000
0310
0001
,  // measure 13
0100
1000
0100
0001
0010
0000
0100
2000
,  // measure 14
0000
0000
3001
0002
0000
2003
0000
3020
,  // measure 15
0000
0000
0000
0100
0130
0000
1000
0001
,  // measure 16
0100
0000
1000
0001
0100
0000
1000
0001
,  // measure 17
0100
0000
1001
0000
1010
0000
0001
1000
,  // measure 18
0010
0000
0001
1000
0010
0000
0001
1000
,  // measure 19
0100
0000
0101
0000
1001
0000
0001
1000
,  // measure 20
0100
0000
0001
0010
0100
0000
0001
1000
,  // measure 21
0010
0000
1010
0000
1001
0000
1000
0001
,  // measure 22
0010
0000
1000
0100
0010
0000
1000
0001
,  // measure 23
0010
0000
0110
0000
0000
0010
0001
0001
,  // measure 24
1000
0100
1000
0010
1000
0100
1000
0010
,  // measure 25
0100
0001
0010
0001
0100
0000
0001
0010
,  // measure 26
1000
0000
0001
0100
1000
0000
0001
0010
,  // measure 27
0200
0010
1300
0101
,  // measure 28
0001
0010
0001
0100
0001
0010
0001
0100
,  // measure 29
0010
1000
0010
0100
0001
0000
0001
0200
,  // measure 30
0000
0000
1300
0200
0000
1000
0000
0002
,  // measure 31
0000
0000
0000
0000
0303
0000
0001
1000
0001
0000
0001
0000
1000
0000
1000
0000
,  // measure 32
1010
0010
0100
0001
0020
0000
0031
0000
,  // measure 33
0011
0001
0100
0010
2000
0000
3200
0000
,  // measure 34
0320
0000
0100
0001
0032
0000
0100
0000
,  // measure 35
1003
0000
0110
0000
1001
1000
1000
0000
,  // measure 36
0101
0100
0001
1000
0020
0000
0130
0000
,  // measure 37
0110
0100
0010
0001
2000
0000
3200
0000
,  // measure 38
0320
0000
1000
0100
0230
0000
0001
0000
,  // measure 39
0310
0000
0000
1000
0000
1000
0000
1000
0000
0000
0010
0000
1001
0000
0000
0000
,  // measure 40
0110
0010
0100
0001
2000
0000
3100
0000
,  // measure 41
1100
1000
0001
0100
2000
0000
3200
0000
,  // measure 42
0302
0000
0010
1000
2003
0000
0100
0000
,  // measure 43
3001
0000
0110
0000
1001
0001
0001
0000
,  // measure 44
0110
0100
0010
1000
0002
0000
0013
0000
,  // measure 45
0011
0001
0010
0100
2000
0000
3001
0010
,  // measure 46
0200
0000
0001
0010
0320
0000
0130
0000
,  // measure 47
1001
0000
0000
0010
0000
0010
0000
0010
0000
0000
0000
0000
1000
0000
0001
0000
,  // measure 48
0010
0000
1000
0001
0010
0000
1000
0001
,  // measure 49
0010
0000
0000
0001
0000
1000
0000
0001
0000
0000
0010
0000
0001
0000
1000
0000
,  // measure 50
0010
0000
0001
1000
0010
0000
0001
1000
,  // measure 51
0100
0000
0000
1000
0000
0001
0000
1000
0000
0000
0010
0000
1000
0000
0001
0000
,  // measure 52
0010
0000
1000
0010
0001
0000
1000
0001
,  // measure 53
0100
0000
0000
0001
0000
1000
0000
0001
0000
0000
0100
0000
0001
0000
1000
0000
,  // measure 54
0100
0000
0001
0100
1000
0000
0001
1000
,  // measure 55
0200
0000
0000
0010
0000
0010
0000
0000
0020
0000
0000
0000
0330
0000
0000
0000
,  // measure 56
2002
0000
0000
0000
,  // measure 57
3003
0000
0000
0000
;

//---------------dance-single - ----------------
#NOTEDATA:;
#CHARTNAME:;
#STEPSTYPE:dance-single;
#DESCRIPTION:;
#CHARTSTYLE:;
#DIFFICULTY:Medium;
#METER:6;
#RADARVALUES:0.407,0.444,0.156,0.778,0.000,209.000,17.000,85.000,0.000,0.000,0.000,0.000,0.000,0.407,0.444,0.156,0.778,0.000,209.000,17.000,85.000,0.000,0.000,0.000,0.000,0.000;
#CREDIT:;
#NOTES:
// measure 0
0000
0000
0000
0000
,  // measure 1
0000
0000
0000
0000
,  // measure 2
0000
0000
0000
0000
,  // measure 3
0000
0000
0000
0000
,  // measure 4
0000
0000
0000
0000
,  // measure 5
0000
0000
0000
0000
,  // measure 6
0000
0000
0000
0000
,  // measure 7
0000
0000
0220
0330
,  // measure 8
0002
2003
3200
0320
,  // measure 9
0032
0000
0203
0000
0310
0000
1000
0200
,  // measure 10
0000
0000
1300
0020
0000
0000
1030
0002
,  // measure 11
0000
0100
0100
0103
,  // measure 12
2000
3002
0203
0320
,  // measure 13
2030
0000
3200
0000
0310
0000
0001
0020
,  // measure 14
0000
0000
0031
0100
0000
0001
0000
2000
,  // measure 15
0000
0000
0000
0100
3100
0000
0010
0002
,  // measure 16
0000
0003
0010
2000
0000
3000
0010
0002
,  // measure 17
0000
0003
0011
0000
1010
0000
0010
2000
,  // measure 18
0000
3000
0010
0002
0000
0003
0010
2000
,  // measure 19
0000
3000
1010
0000
0101
0000
0100
0002
,  // measure 20
0000
0003
0100
2000
0000
3000
0100
0002
,  // measure 21
0000
0003
0101
0000
1100
0000
0100
2000
,  // measure 22
0000
3000
0100
0002
0000
0003
0100
2000
,  // measure 23
0000
3000
1001
0000
0000
0100
0100
0000
,  // measure 24
0002
0203
0320
2030
,  // measure 25
3200
0000
0320
0000
0031
0000
0100
0020
,  // measure 26
0000
0000
0130
0002
0000
0000
1003
0200
,  // measure 27
0000
0010
0010
0310
,  // measure 28
0002
0023
0230
2300
,  // measure 29
3020
0000
0230
0000
0302
0000
0013
0200
,  // measure 30
0000
0000
0310
0001
0000
1000
0000
0002
,  // measure 31
0000
0000
0000
0100
0103
0010
1001
0000
,  // measure 32
1000
0001
1000
0001
0200
0000
0310
0000
,  // measure 33
0001
1000
0001
1000
0020
0000
0230
0000
,  // measure 34
0302
0000
0000
1000
2000
0000
3003
0000
,  // measure 35
0101
0000
1010
0000
1000
0100
0010
0000
,  // measure 36
0001
0100
0001
0100
0020
0000
1030
0000
,  // measure 37
1000
0010
1000
0010
0200
0000
0302
0000
,  // measure 38
2003
0000
0000
0010
0020
0000
3030
0000
,  // measure 39
0002
0000
0103
0000
0000
0100
1001
0000
,  // measure 40
0001
1000
0001
1000
0200
0000
0310
0000
,  // measure 41
1000
0001
1000
0001
0020
0000
0230
0000
,  // measure 42
2300
0000
0000
0001
0002
0000
3003
0000
,  // measure 43
1100
0000
0011
0000
0001
0100
0010
0000
,  // measure 44
1000
0100
1000
0100
0020
0000
0031
0000
,  // measure 45
0001
0010
0001
0010
0200
0000
1300
0001
,  // measure 46
0200
0000
0000
0010
0020
0000
0330
0000
,  // measure 47
0110
0000
0001
0000
1000
0000
0100
0020
,  // measure 48
0000
0000
0031
0200
0000
0000
1300
0200
,  // measure 49
0000
0000
0010
0000
0310
0000
1000
0020
,  // measure 50
0000
0000
0031
0020
0000
0000
1030
0200
,  // measure 51
0000
0000
0010
0000
0310
0000
0100
2000
,  // measure 52
0000
0000
3001
2000
0000
0000
3100
0020
,  // measure 53
0000
0000
0100
0000
0130
0000
1000
0002
,  // measure 54
0000
0000
0013
0002
0000
0000
0103
0020
,  // measure 55
0000
0130
0220
0330
,  // measure 56
2002
0000
0000
0000
,  // measure 57
3003
0000
0000
0000
;

//---------------dance-single - ----------------
#NOTEDATA:;
#CHARTNAME:;
#STEPSTYPE:dance-single;
#DESCRIPTION:;
#CHARTSTYLE:;
#DIFFICULTY:Easy;
#METER:4;
#RADARVALUES:0.356,0.418,0.137,0.632,0.000,188.000,15.000,69.000,0.000,0.000,0.000,0.000,0.000,0.356,0.418,0.137,0.632,0.000,188.000,15.000,69.000,0.000,0.000,0.000,0.000,0.000;
#CREDIT:;
#NOTES:
// measure 0
0000
0000
0000
0000
,  // measure 1
0000
0000
0000
0000
,  // measure 2
0000
0000
0000
0000
,  // measure 3
0000
0000
0000
0000
,  // measure 4
0000
0000
0000
0000
,  // measure 5
0000
0000
0000
0000
,  // measure 6
0000
0000
0000
0000
,  // measure 7
0000
0000
1001
0000
,  // measure 8
1000
0001
1000
0001
,  // measure 9
0100
0000
0100
0000
0100
0000
0001
0001
,  // measure 10
0000
0000
1000
1000
0000
0000
0010
0010
,  // measure 11
0000
0100
0000
0100
,  // measure 12
0001
1000
0001
1000
,  // measure 13
0010
0000
0010
0000
0010
0000
1000
1000
,  // measure 14
0000
0000
0001
0001
0000
0100
0000
0200
,  // measure 15
0000
0000
0300
0010
0010
0000
2000
0000
,  // measure 16
3010
0200
0310
2000
,  // measure 17
3010
0100
0100
0002
,  // measure 18
0103
0020
0130
0002
,  // measure 19
1003
0010
0110
2000
,  // measure 20
3001
0020
0031
0200
,  // measure 21
0301
1000
1000
0002
,  // measure 22
1003
0200
1300
0020
,  // measure 23
0130
1001
0000
1001
,  // measure 24
0010
0100
0010
0100
,  // measure 25
0001
0000
1000
0000
0001
0000
0100
0100
,  // measure 26
0000
0000
0001
0001
0000
0000
1000
1000
,  // measure 27
0000
0010
0000
0010
,  // measure 28
0100
0010
0100
0010
,  // measure 29
1000
0000
0001
0000
1000
0000
0010
0010
,  // measure 30
0000
0000
0100
0100
0000
0001
0000
1000
,  // measure 31
0000
0000
0000
1000
0001
0000
1001
0000
,  // measure 32
0002
0023
0230
2300
,  // measure 33
3002
0203
0320
2030
,  // measure 34
3002
0000
0003
0100
0200
0000
0300
0000
,  // measure 35
0001
0000
1000
0000
0010
0010
0010
0000
,  // measure 36
2000
3020
0230
0302
,  // measure 37
2003
3200
0320
0032
,  // measure 38
0203
0000
0300
0010
0020
0000
0030
0000
,  // measure 39
1000
0001
0100
0110
,  // measure 40
0020
2030
3200
0320
,  // measure 41
0032
0203
0320
2030
,  // measure 42
3002
0000
0003
1000
2000
0000
3000
0000
,  // measure 43
0110
0000
1001
0000
0010
0010
0010
0000
,  // measure 44
0200
0302
0203
0320
,  // measure 45
2030
3200
0320
0032
,  // measure 46
2003
0000
3000
0001
0002
0000
0003
0000
,  // measure 47
0110
1001
0100
0002
,  // measure 48
1003
0020
0130
0002
,  // measure 49
1000
1003
1001
2000
,  // measure 50
3001
0200
0310
2000
,  // measure 51
0001
3001
0110
0020
,  // measure 52
0130
0020
1030
0002
,  // measure 53
0100
0103
0110
0200
,  // measure 54
0310
0200
0301
2000
,  // measure 55
0010
3010
0220
0330
,  // measure 56
2002
0000
0000
0000
,  // measure 57
3003
0000
0000
0000
;

//---------------dance-single - ----------------
#NOTEDATA:;
#CHARTNAME:;
#STEPSTYPE:dance-single;
#DESCRIPTION:;
#CHARTSTYLE:;
#DIFFICULTY:Beginner;
#METER:2;
#RADARVALUES:0.124,0.209,0.082,0.137,0.000,71.000,9.000,15.000,0.000,0.000,0.000,0.000,0.000,0.124,0.209,0.082,0.137,0.000,71.000,9.000,15.000,0.000,0.000,0.000,0.000,0.000;
#CREDIT:;
#NOTES:
0000
0000
0000
0000
,
0000
0000
0000
0000
,
0000
0000
0000
0000
,
0000
0000
0000
0000
,
0000
0000
0000
0000
,
0000
0000
0000
0000
,
0000
0000
0000
0000
,
0000
0000
0000
0000
,
1000
0000
0000
0000
,
1000
0000
0000
0000
,
0001
0000
0001
0000
,
0001
0000
0000
0000
,
0001
0000
0000
0000
,
0001
0000
0000
0000
,
1000
0000
1000
0000
,
1000
0000
0000
0000
,
1000
0000
0001
0000
,
1000
0000
0000
0000
,
0010
0000
0100
0000
,
0010
0000
0000
0000
,
2000
3000
0002
0003
,
2000
3000
0000
0000
,
0020
0030
0200
0300
,
0020
0030
0000
0000
,
0100
0000
0000
0000
,
0100
0000
0000
0000
,
0010
0000
0010
0000
,
0010
0000
0000
0000
,
0010
0000
0000
0000
,
0010
0000
0000
0000
,
0100
0000
0100
0000
,
0100
0000
0000
0000
,
1001
0000
0000
0000
,
0110
0000
0000
0000
,
1000
0000
0001
0000
,
1000
1000
1000
0000
,
0110
0000
0000
0000
,
1001
0000
0000
0000
,
0010
0000
0100
0000
,
0010
0000
0010
0000
,
0110
0000
0000
0000
,
1001
0000
0000
0000
,
0001
0000
1000
0000
,
0001
0001
0001
0000
,
1001
0000
0000
0000
,
0110
0000
0000
0000
,
0100
0000
0010
0000
,
0100
0000
0000
0000
,
0001
0000
1000
0000
,
0001
0000
0000
0000
,
0100
0000
0010
0000
,
0100
0000
0000
0000
,
0002
0003
2000
3000
,
0002
0003
0000
0000
,
0200
0300
0020
0030
,
0200
0300
0020
0030
,
2002
0000
0000
0000
,
3003
0000
0000
0000
;
