#TITLE:TYCOON;
#SUBTITLE:;
#ARTIST:SOUND HOLIC feat. Nana Takahashi;
#TITLETRANSLIT:;
#SUBTITLETRANSLIT:;
#ARTISTTRANSLIT:;
#GENRE:;
#CREDIT:;
#BANNER:TYCOON.png;
#BACKGROUND:TYCOON-bg.png;
#LYRICSPATH:;
#CDTITLE:;
#MUSIC:TYCOON.mp3;
#OFFSET:-7.180;
#SAMPLESTART:50.927;
#SAMPLELENGTH:15.000;
#SELECTABLE:YES;
#BPMS:0.000=170.000
;
#STOPS:
;
#BGCHANGES:;
#KEYSOUNDS:;
#ATTACKS:;

//---------------dance-single - ----------------
#NOTES:
     dance-single:
     :
     Hard:
     12:
     0.626,0.650,0.383,0.514,0.103,373.000,41.000,55.000,0.000,0.000,0.000,0.626,0.650,0.383,0.514,0.103,373.000,41.000,55.000,0.000,0.000,0.000: // measure 0
2002
0000
0000
0000
,  // measure 1
0000
0000
0000
3003
,  // measure 2
0220
0330
0202
0303
,  // measure 3
2200
3300
1010
0110
,  // measure 4
2000
0000
3020
0000
0130
0010
1000
0010
,  // measure 5
0000
0000
0010
0000
0100
0000
0001
0100
0001
0000
0010
0000
0001
0000
1000
0000
,  // measure 6
0100
1000
0010
0000
1000
0000
0010
0000
1000
0000
0010
0000
0200
0000
0000
0000
,  // measure 7
0301
0000
0100
0000
0010
0000
0100
0001
0000
0000
0001
1000
0000
0000
0001
0000
,  // measure 8
2001
0000
3002
0000
1003
0010
0000
0110
,  // measure 9
0000
0000
1000
0000
0000
0000
0100
0010
0100
0000
0010
0000
0100
0000
1000
0000
,  // measure 10
0011
0000
0000
0101
0000
0000
0110
0000
0000
1010
0000
0000
1100
0000
0000
1010
,  // measure 11
0000
2002
0000
3003
1000
0010
0100
0001
,  // measure 12
1000
0001
1000
0000
0001
1000
0001
0000
,  // measure 13
0010
0100
0010
0000
0100
0010
0100
0000
,  // measure 14
0001
0100
0001
0000
0100
0001
0100
0000
,  // measure 15
0001
0100
1000
0100
0001
0010
1000
0010
,  // measure 16
0001
0000
0001
0200
0000
0000
0310
0000
,  // measure 17
1000
0000
1000
0200
0000
0000
0310
0000
,  // measure 18
1000
0100
1000
0000
0100
1000
0100
0000
,  // measure 19
0001
0001
0010
0000
0001
0100
0000
0001
,  // measure 20
1000
0000
0100
0000
0000
0010
0000
0000
0100
0000
0000
1000
0000
0000
0010
0000
,  // measure 21
0100
0000
0001
0000
0000
0010
0000
0000
0001
0000
0000
1000
0000
0000
0010
0000
,  // measure 22
1000
0000
0100
0000
0000
1000
0000
0000
0010
0000
0000
0100
0000
0000
0001
0000
,  // measure 23
2002
0000
0000
0000
3003
0000
0000
0000
1100
0000
0000
1010
0000
0000
0110
0000
,  // measure 24
0202
0000
0303
0000
0000
1000
0001
0100
,  // measure 25
0000
0010
0200
0000
0301
0010
0100
1000
,  // measure 26
0100
0000
1000
0010
0100
0000
0100
0001
,  // measure 27
0010
0000
0010
0100
1000
0000
1000
0001
,  // measure 28
0100
0010
0100
0001
0100
0010
0100
0001
,  // measure 29
0010
0001
0010
0100
0000
0110
0000
2001
,  // measure 30
0000
0010
0100
3001
,  // measure 31
0220
0000
0330
0002
0000
0023
0000
0230
,  // measure 32
0000
0000
0310
0000
0100
1000
0100
0020
,  // measure 33
0000
0000
0031
0000
1000
0010
0100
0002
,  // measure 34
0000
1003
0010
1000
0010
1000
0000
2000
,  // measure 35
0000
3001
0100
0001
0100
0001
0000
1000
,  // measure 36
0001
0011
1000
1100
,  // measure 37
0010
0000
0100
0002
0000
2003
0000
3010
,  // measure 38
0100
0110
0001
1001
,  // measure 39
1000
0000
0010
0200
0000
0302
0000
2003
,  // measure 40
0000
0000
3010
0000
0001
0100
0001
0020
,  // measure 41
0000
0000
0130
0000
1000
0001
0010
0200
,  // measure 42
0000
0310
0001
0010
0001
0010
0000
0002
,  // measure 43
0000
1003
0100
1000
0100
1000
0000
0010
,  // measure 44
0100
0101
0010
1010
,  // measure 45
0001
0000
1000
0020
0000
0230
0000
0301
,  // measure 46
1000
1001
0010
0110
,  // measure 47
0001
0010
0100
2000
0000
3100
0010
0001
,  // measure 48
1000
0010
1000
0000
0100
1000
0100
0000
,  // measure 49
0001
0010
0100
1000
0001
0100
0010
1000
,  // measure 50
0002
0000
0000
0000
0003
0000
0001
0200
,  // measure 51
0000
0000
0000
0000
0000
0300
0000
0020
,  // measure 52
0000
0000
0000
0000
,  // measure 53
0000
0030
0000
0000
,  // measure 54
0001
0010
0100
1000
0100
0010
0001
1000
,  // measure 55
0001
0100
0010
1000
0010
0100
0001
1000
,  // measure 56
0010
0100
0001
0010
0100
1000
0010
0100
,  // measure 57
0110
0000
0000
2000
0000
3020
0000
0130
,  // measure 58
2002
0000
0000
0000
3003
0000
0000
0000
0011
0000
0000
0101
0000
0000
1010
0000
,  // measure 59
2100
0000
3010
0000
0100
0001
0010
0002
,  // measure 60
0000
0103
0010
0100
0010
0100
0000
2000
,  // measure 61
0000
3010
0100
0010
0100
0010
0000
1000
,  // measure 62
0001
0011
1000
1100
,  // measure 63
0010
0000
0100
0002
0000
1003
0100
0010
,  // measure 64
0000
0100
0010
0001
0000
1000
0100
0010
,  // measure 65
0001
0000
1000
0000
0001
1000
0010
0100
,  // measure 66
0110
0000
0000
0000
0010
0000
0000
0000
1000
0000
0100
0000
0010
0001
0010
0001
,  // measure 67
0010
0000
0100
0000
1000
0000
0100
0000
0010
0100
0010
0100
1000
0000
0001
0000
,  // measure 68
1000
0000
0010
0000
0100
0001
0100
0001
0100
0000
0010
0000
1000
0000
0000
0000
,  // measure 69
1000
0100
0010
2002
0000
3003
0000
0000
;

//---------------dance-single - ----------------
#NOTES:
     dance-single:
     :
     Beginner:
     3:
     0.199,0.260,0.093,0.252,0.000,112.000,10.000,27.000,0.000,0.000,0.000,0.199,0.260,0.093,0.252,0.000,112.000,10.000,27.000,0.000,0.000,0.000:
2002
0000
0000
0000
,
3003
0000
0000
0000
,
0001
0000
0001
0000
,
1000
0000
1000
0000
,
0010
0000
0010
0000
,
0100
0000
0100
0000
,
1000
0000
1000
0000
,
0001
0001
0001
0000
,
1000
0000
1000
0000
,
0010
0000
0010
0000
,
0220
0000
0330
0000
,
0000
2002
0000
0000
3003
0000
0000
0000
,
1000
0000
0000
0000
,
0010
0000
0000
0000
,
0100
0000
0000
0000
,
0001
0000
0001
0000
,
0001
0000
0000
0000
,
0010
0000
0000
0000
,
0100
0000
0000
0000
,
1000
0000
0000
0000
,
0010
0000
0000
0000
,
0100
0000
0000
0000
,
0010
0000
0000
0000
,
0100
0000
0010
0000
,
2002
3003
0000
0000
,
1000
0000
0000
0000
,
0001
0000
0000
0000
,
0010
0000
0000
0000
,
0100
0000
0100
0000
,
0010
0000
0010
0000
,
0220
0000
0330
0000
,
2002
0000
3003
0000
,
0002
0000
0003
0000
,
0200
0000
0300
0000
,
1000
1000
1000
0000
,
0010
0010
0010
0000
,
0100
0000
1000
0000
,
0100
0000
0010
0000
,
0001
0000
0010
0000
,
0001
0000
0100
0000
,
0020
0000
0030
0000
,
2000
0000
3000
0000
,
0001
0001
0001
0000
,
1000
1000
1000
0000
,
0010
0000
0100
0000
,
1000
0000
0100
0000
,
0001
0000
0010
0000
,
0100
0000
0010
0000
,
0001
0000
0000
0000
,
1000
0000
0000
0000
,
0020
0000
0030
0000
,
0200
0000
0300
0000
,
0002
0000
0000
0000
,
0003
0000
0000
0000
,
2000
0000
3000
0000
,
0020
0000
0030
0000
,
0200
0000
0300
0000
,
0220
0000
0330
0000
,
1001
0000
0001
0001
,
0002
0000
0003
0000
,
0100
0100
0100
0000
,
0010
0010
0010
0000
,
1000
0000
0010
0000
,
0100
0000
0001
0000
,
1000
0000
0100
0000
,
0010
0000
0001
0000
,
1001
0000
0100
0100
,
0100
0000
0010
0010
,
0010
0000
1000
0000
,
2002
0000
0000
0000
0000
3003
0000
0000
;

//---------------dance-single - ----------------
#NOTES:
     dance-single:
     :
     Easy:
     6:
     0.335,0.356,0.093,0.383,0.000,200.000,10.000,41.000,0.000,0.000,0.000,0.335,0.356,0.093,0.383,0.000,200.000,10.000,41.000,0.000,0.000,0.000:
2002
0000
0000
0000
,
0000
0000
3003
0000
,
0002
0003
0020
0030
,
0200
0300
2000
3000
,
0010
0100
0010
0000
,
1000
0001
1000
0000
,
0001
0010
0001
0000
,
0100
1000
0100
0010
,
0100
0001
0100
0000
,
0001
0010
0100
0000
,
1000
0000
0000
0100
0000
0000
0010
0000
,
0000
2001
0000
0000
3001
0000
0010
0000
,
1000
1000
0100
0100
,
0010
0010
0001
0001
,
0100
0100
0010
0010
,
2000
3010
0200
0301
,
0010
0000
0000
0002
0000
0000
0003
0000
,
0010
0000
0000
2000
0000
0000
3000
0000
,
0200
0310
0002
1003
,
1000
0000
0001
0000
,
1000
0100
1000
0000
,
0001
0010
0001
0000
,
0100
0010
0100
0000
,
1001
0000
0001
1000
,
0220
0000
0330
0000
0000
1000
0000
0002
,
0000
1003
0100
0100
,
0010
0001
0010
0100
,
1000
0010
0100
1000
,
0001
0100
0010
0100
,
0001
0000
0100
0000
0000
0001
0000
2002
,
0000
0000
0000
3003
,
0220
0000
0330
0001
0000
1000
0000
0002
,
0000
0000
1003
0000
0010
0000
0000
0200
,
0000
0000
0310
0000
0001
0000
0000
1000
,
0000
0000
0100
0000
0100
0000
0000
1000
,
0000
0010
0010
0000
,
0001
0010
0100
0000
,
1000
0100
0010
0000
,
0100
0010
1000
0000
,
0010
0000
0100
0000
0001
0000
0000
2000
,
0000
0000
3010
0000
0100
0000
0000
0002
,
0000
0000
0103
0000
0010
0000
0000
0001
,
0000
0000
0100
0000
0100
0000
0000
0001
,
0000
0010
0010
0000
,
1000
0001
0100
0000
,
0001
1000
0010
0000
,
2000
3100
2000
3010
,
0001
0010
0100
1000
,
0002
0010
0013
0000
,
2000
0100
3100
0000
,
0002
0000
0000
0003
,
0200
0000
0000
0300
,
0020
0000
0000
0000
,
0030
0000
0000
0000
,
2000
0000
0000
3000
,
0002
0000
0203
0000
,
0320
0000
0000
0030
,
0110
0000
0000
1000
0000
0001
0000
2000
,
0000
3010
0100
0010
,
0210
0000
0301
0000
1000
0000
0000
0010
,
0000
0000
0100
0000
0100
0000
0000
0001
,
0000
0100
0100
0000
,
1000
0010
0100
0000
,
0001
0000
1000
0000
0000
0010
0000
0100
,
0000
1000
0000
0100
0000
1000
0000
0020
,
0000
0130
1000
0001
,
0200
0001
0010
0301
,
0020
1000
0100
1030
,
2000
0001
0100
3001
,
0110
0000
0000
1001
0000
0000
0000
0000
;

//---------------dance-single - ----------------
#NOTES:
     dance-single:
     :
     Medium:
     10:
     0.482,0.520,0.103,0.486,0.042,298.000,11.000,52.000,0.000,0.000,0.000,0.482,0.520,0.103,0.486,0.042,298.000,11.000,52.000,0.000,0.000,0.000:
2002
0000
0000
0000
,
0000
0000
0000
3003
,
0220
0330
2020
3030
,
0202
0303
0022
0033
,
2000
0000
3020
0000
1030
0100
0000
0001
,
0000
0100
0000
1000
0010
0010
0100
0000
,
0001
1000
0001
0000
0100
0000
0010
0000
,
1000
0000
0000
0000
0100
0000
0000
1000
0000
0000
0001
0000
0010
0000
0100
0000
,
2000
0000
3002
0000
1003
0010
0000
0100
,
0000
0001
0000
1000
0001
0001
0100
0000
,
1000
0000
0000
0100
0000
0000
0010
0000
0000
0001
0000
0000
0010
0000
0000
0100
,
0000
2001
0000
0000
0000
0010
0000
3010
,
0100
0100
1000
1000
,
0100
0100
0001
0001
,
0010
0010
0001
0001
,
1000
0100
0010
0000
0001
0010
0100
0000
,
1000
0000
1000
0002
0000
0000
0003
0000
,
0010
0000
0010
0200
0000
0000
0310
0000
,
1000
0001
0100
0001
,
0010
0010
0100
0100
,
1000
0000
0100
0000
0010
0000
0000
0000
1000
0000
0000
0001
0000
0000
1000
0000
,
0010
0000
0100
0000
0010
0000
0000
0000
0001
0000
0000
1000
0000
0000
0001
0000
,
0100
0000
0010
0000
0100
0000
0000
0000
1000
0000
0000
0010
0000
0000
0100
0000
,
0002
0000
0000
0000
0003
0000
0000
0000
1000
0000
0000
0001
0000
0000
0010
0000
,
0220
0000
0330
0000
0000
1000
0001
2000
,
0000
3010
0001
0010
,
2000
3100
2000
3010
,
0002
0013
0002
0103
,
0010
0000
0100
0000
0010
0000
0100
0010
,
1000
0000
0001
0000
1000
0010
0000
0220
,
0000
0000
0000
0330
,
1001
0000
0000
1000
0000
0001
0000
0200
,
0000
0000
0310
0000
1000
0000
1000
0020
,
0000
0000
0130
0000
0001
0000
0001
1000
,
0000
1000
0010
0000
0100
1000
0100
0010
,
0000
0010
0001
0000
0010
0100
0001
0010
,
0002
1003
0020
0130
,
1000
0100
1000
0000
0001
0010
0001
0000
,
2000
3010
0200
0301
,
0010
0001
0010
0000
0100
1000
0100
2000
,
0000
0000
3010
0000
0100
0000
0100
0002
,
0000
0000
0103
0000
0010
0000
0010
1000
,
0000
1000
0100
0000
0100
0001
0100
0010
,
0000
0010
1000
0000
0100
0010
0100
0000
,
2000
3100
0020
0031
,
0100
0010
0100
0000
0001
1000
0001
0000
,
0002
0000
0000
0103
0020
0000
0000
1030
,
0100
1000
0010
0100
0000
1000
0001
1000
,
0001
0010
0001
0000
0100
0010
0100
0000
,
1000
0010
1000
0000
0100
0001
0100
0000
,
2000
0000
0000
0000
3000
0000
1000
0020
,
0000
0000
0000
0000
0000
0030
0000
0200
,
0000
0000
0000
0000
,
0000
0000
0300
0000
0000
0001
1000
0020
,
0000
0000
0000
0000
,
0000
0000
2030
0000
,
3002
0000
0000
0003
,
1001
0000
0000
1000
0000
0001
0000
0200
,
0000
0000
0000
0000
0310
0000
0000
0000
0001
0000
0000
1000
0000
0000
0001
0000
,
0200
0000
0310
0000
1000
0000
1000
0001
,
0000
0001
0100
0000
0010
1000
0100
0010
,
0000
0010
0001
0000
0100
0010
1000
0000
,
0200
1300
0020
0031
,
0100
0010
0100
0000
0001
1000
0001
1000
,
0000
0100
1000
0100
0000
0010
0001
0020
,
0000
0000
0031
0000
1000
0010
1000
0010
,
0100
0000
0010
0000
1000
0000
0010
0010
,
1000
0000
0100
0000
0001
0001
0010
0001
,
0010
0000
1000
1000
0010
1000
0010
0000
,
0001
0010
0100
0220
0000
0330
0000
0000
;
