#TITLE:Trigger Happy;
#SUBTITLE:;
#ARTIST:P*Light;
#TITLETRANSLIT:;
#SUBTITLETRANSLIT:;
#ARTISTTRANSLIT:;
#CREDIT:;
#BANNER:;
#BACKGROUND:;
#LYRICSPATH:;
#CDTITLE:;
#MUSIC:Trigger Happy.mp3;
#OFFSET:-0.125;
#SAMPLESTART:32.487;
#SAMPLELENGTH:19.327;
#SELECTABLE:YES;
#BPMS:0.000=184.960,180.000=92.500,183.000=185.000;
#STOPS:;
#BGCHANGES:;

//---------------dance-single - Copied from Copied f----------------
#NOTES:
     dance-single:
     :
     Challenge:
     19:
     1.000,1.000,0.715,0.477,1.000:
0000
0000
0000
0000
,
1001
0000
1000
0000
0000
0000
0101
0000
0001
0000
0000
0000
1000
0000
0001
1000
,
1001
0000
0001
0000
0000
0000
1100
0000
1000
0000
0100
0000
0010
0001
0010
0001
,
0011
0000
0001
0000
0000
0000
1001
0000
1000
0000
0000
0000
0001
0000
1000
0010
,
1010
0000
0000
0000
0000
0000
0100
0000
0000
0000
0000
0000
0001
0000
0000
0000
0000
0000
1000
0000
0000
0000
0000
0000
1000
0000
0000
0001
0000
0000
1000
0000
0000
0010
0000
0000
1000
0000
0100
0000
1000
0000
0100
0000
1000
0000
0100
0000
,
2000
0000
3200
0000
0310
0000
0002
0000
2003
0000
3010
0000
0100
0000
0001
1000
,
0001
0000
1000
0000
0010
0000
0100
0001
0100
0000
0010
1000
0000
0000
0010
0000
,
1000
0000
0000
0000
0000
0000
1000
0000
0000
0000
0000
0000
0001
0000
0000
0000
0000
0000
0001
0000
0000
0000
0000
0000
0100
0000
0000
0010
0000
0000
0100
0000
0000
0010
0000
0000
1000
0000
0010
0000
1000
0000
0010
0000
1000
0000
0010
0000
,
1000
0010
0100
0002
2000
3003
1001
0000
,
1010
0000
1000
0000
0001
0100
0000
0002
0000
0000
1003
0000
0010
0000
1000
0000
,
0100
0000
0010
0000
0001
1000
0000
0001
0000
0000
1000
0100
0010
0100
0010
0000
,
0110
0000
0010
0000
0001
1000
0000
0010
0000
0000
0100
0001
0100
0000
0010
0000
,
1000
0100
1000
0100
0010
0001
0010
0001
1000
0010
1000
0010
0100
0000
0001
0000
,
0101
0000
0010
0000
1000
0001
0000
1000
0000
0000
0010
0100
0010
1000
0010
0000
,
1010
0000
1000
0000
0001
0100
0000
0001
0000
0000
1000
0100
0010
0100
1000
0000
,
1001
0000
0001
0000
1000
0010
0000
1000
0001
0000
1001
0000
1010
0000
0101
0000
,
1000
0000
0000
0000
0000
0000
0001
0000
0000
0100
0000
0000
0010
0000
0000
0000
0000
0000
1000
0000
0000
0000
0000
0000
0002
0000
0000
0000
0000
0000
0000
0000
0000
0000
0000
0000
1003
0000
0001
0000
1000
0000
0001
0000
1000
0000
0001
0000
,
1000
0000
0010
0000
1000
0100
0000
1000
0000
0000
0001
0100
0010
1000
0001
1000
,
0100
0000
0010
0000
0001
1000
0000
0001
0000
0000
0001
1000
0001
0000
1000
0100
,
1000
0000
0001
0000
0100
0010
0000
1000
0001
0000
1000
0100
0010
0001
0010
0000
,
0011
0000
0001
0100
0010
0000
1000
0010
0100
0001
0100
0010
1000
0000
1100
0000
,
1001
0000
0001
0000
1000
0010
0000
0010
1000
0000
0001
0100
0001
0100
0001
0000
,
1001
0000
0000
0000
0000
0000
1000
0000
0000
0100
0000
0000
0010
0000
0000
0000
0000
0000
0001
0000
0000
0010
0000
0000
0100
0000
0000
0000
0000
0000
1000
0000
0000
0000
0000
0000
0001
0000
0100
0000
0001
0000
0100
0000
0001
0000
0100
0000
,
0001
0000
0000
0000
0000
0000
1000
0000
0000
0000
0000
0000
0001
0000
0000
0100
0000
0000
0010
0000
0000
0100
0000
0000
0001
0000
0000
1000
0000
0000
0100
0000
0000
0010
0000
0000
0001
0000
1000
0000
0001
0000
1000
0000
0001
0000
1000
0000
,
0002
0103
0002
1003
0001
0000
1001
0000
,
1010
0000
1010
0101
0000
1001
0000
0202
,
0000
0000
0000
0303
,
1001
0000
0001
0000
1000
0100
0010
0000
0001
0010
0100
1000
0001
0000
0000
0000
,
MMM0
0000
MM00
0000
M000
0000
1001
0001
,
2000
0000
3100
0000
2000
0000
3010
0000
1000
0100
0010
0001
1000
0000
0010
0000
,
0100
0001
0100
0001
1000
0010
1000
0010
1000
0100
0010
0001
2000
0000
3010
0000
,
0200
0000
0301
0000
0200
0000
0310
0000
1000
0001
0100
0010
1000
0000
0001
0000
,
1000
0000
0000
0001
0100
0001
0100
0000
0000
0010
1000
0010
1000
0000
0000
0001
0000
0000
1001
0000
0000
0000
0000
0000
,
1000
0100
0001
0100
1000
0010
0100
0100
,
0101
0101
0010
1000
0100
1000
1001
0011
,
1001
1000
0100
0010
0001
0100
0010
1000
,
1100
1100
0011
0011
1001
0000
1100
0000
,
1000
0000
0000
0010
0000
0000
0100
0000
0001
1000
0100
1000
0001
0000
0010
0000
,
0200
2300
3200
0320
0032
0010
0013
0010
,
0001
0000
1000
0010
0100
0010
0100
0001
1000
0100
0010
0100
1000
0001
0100
0010
,
2000
0000
3200
0000
0320
0000
0032
0000
1003
0010
0100
0001
2000
0000
0000
0000
,
3002
0000
0100
0203
0000
0310
0020
0000
,
2030
0000
0001
0000
0001
0000
3002
0000
0000
0000
1000
0000
1003
0010
1000
0000
,
0000
0000
1001
0000
0000
0101
0000
0000
1001
0000
0000
1010
0000
0000
1000
0100
,
0000
0000
1001
0000
0000
0101
0000
0000
0001
0010
0100
1000
0100
0010
0001
1000
,
1001
0000
0000
0000
0000
0000
0000
0000
0000
0000
0000
0000
1000
0100
1000
0000
,
1100
0000
0000
0000
1000
0000
0100
0000
0001
0000
0100
0000
1000
0000
0001
0100
,
0000
0001
0100
0000
0010
0000
1000
0010
1000
0000
0010
0000
1000
0000
0001
0100
,
0010
0000
1000
0010
0100
0000
0001
0000
1000
0000
0100
0000
0010
0000
0001
1000
,
0000
0010
1000
0000
0001
0000
0001
0000
0100
0000
0100
0000
0010
0000
1000
0001
,
1000
0000
0001
0100
0001
0000
1000
0000
0100
0000
0010
0000
0001
0000
1000
0010
,
0000
1000
0010
0000
0100
0000
0001
1000
0001
0000
1000
0000
0100
0000
0010
0001
,
1000
0000
0001
1000
0001
0000
1000
0000
0010
0000
0100
0000
0001
0000
1000
0100
,
0000
1000
0100
0000
0010
0000
0010
0000
0001
0000
0001
0000
1000
0000
0001
1000
,
1001
0001
0102
0100
0103
2010
0010
3010
,
0100
0000
0001
0000
1001
0000
1000
0100
1000
0000
0001
0000
0100
0000
0010
1000
,
0010
0000
0100
0001
0102
0000
0100
0000
0103
0000
2010
0000
0010
0000
3010
0100
,
0001
0100
0010
1000
0001
0000
0010
0000
0001
0000
1000
0000
0010
0000
0010
1000
,
0010
0000
1000
0001
1001
0000
0001
0000
0100
0000
0010
0000
0110
0000
0010
1000
,
0100
1000
0001
1000
1001
0000
0001
0100
0010
0000
1000
0001
1001
0000
0001
0100
,
0010
1000
0010
1000
1001
0000
0001
0000
0101
0000
0100
0000
0010
1000
0010
1000
,
0001
0100
0001
0100
0001
0000
0010
0000
0100
0000
1000
0000
0020
0000
0030
0000
,
1010
0000
0000
0000
1001
0001
0100
0010
1000
0001
0000
1000
0200
0310
0001
0100
,
0010
1000
0000
0100
0020
0031
0100
0010
1000
0001
0000
1000
0200
0310
0001
0100
,
0010
0000
0000
1000
0000
0000
0000
0000
0000
0001
0000
0000
1000
0000
0000
0100
0000
0000
0010
0000
0000
0001
0000
0000
0100
0000
0000
0010
0000
0000
1000
0000
0000
0100
0000
0000
0010
0000
0000
0001
0000
0000
1000
0000
0001
0000
1000
0000
,
0001
0000
0000
1000
0000
0000
0001
0000
0010
0000
0001
0000
0010
0000
0000
0000
0000
0000
0011
0000
0000
0000
0000
0000
0000
0000
0000
0000
0000
0000
1001
0000
0000
0000
0000
0000
1001
0000
0000
0000
0000
0000
0000
0000
0000
0000
0000
0000
,
2020
0000
3030
0000
1001
0000
1000
0000
0001
0100
0000
0010
0000
0000
1000
0010
,
1000
0010
1000
0000
1010
0000
0100
0001
0100
0010
0000
1000
0000
0000
1000
0100
,
0010
0001
0100
0000
1010
0000
1000
0001
0100
0010
0000
2000
3000
0000
0001
0100
,
0010
1000
0001
0000
1000
0100
1000
0100
0010
0001
1000
0100
0010
0100
1000
0001
,
0100
0000
0010
0000
1010
0000
1000
0000
0001
1000
0000
0020
0000
0000
0130
1000
,
0001
1000
0010
0000
0101
0000
0001
0000
1000
0010
0000
2000
0000
0000
3001
0100
,
0010
1000
0100
0000
0011
0000
0001
0000
0100
0010
0000
1000
1010
0000
1010
0000
,
0101
0000
0101
0000
1000
0000
0001
0100
0010
0000
1000
0000
0002
0000
0000
0000
,
1003
0000
0001
0000
1000
0000
0001
0000
1000
0000
0001
0000
1000
0000
0000
0010
0000
0000
0100
0000
0000
0001
0000
0000
1000
0000
0000
0100
0000
0000
0000
0000
0000
0010
0000
0000
0000
0000
0000
0000
0000
0000
0001
0000
0000
0100
0000
0000
,
0010
1000
0001
0100
0010
0000
1000
0010
0100
0001
0000
1000
0000
0000
0001
0100
,
0010
1000
0100
0010
0001
0000
1000
0000
0010
0100
0001
0100
0000
0000
0010
1000
,
0010
1000
0010
0100
0001
0010
0001
1000
0100
0010
0100
1000
0001
0100
0010
1000
,
0001
0000
1000
0000
1001
0000
1000
0000
0001
0100
0000
0002
0000
0000
1003
0010
,
0100
0001
1000
0001
0100
0000
0100
0001
1000
0000
1000
0100
0020
0000
0032
0000
,
1003
0000
0100
0000
1000
0000
0100
0000
1000
0000
0100
0000
1000
0000
0000
0000
0000
0000
0001
0000
0000
0000
0000
0000
1001
0000
0000
1000
0000
0000
0000
0000
0000
0001
0000
0000
1000
0000
0000
0100
0000
0000
0010
0000
0000
0001
0000
0000
,
1000
0100
0010
0001
0010
0100
1000
0000
0000
0000
0000
0000
1002
0000
0000
2003
0000
0000
0020
0000
0000
3030
0000
0000
,
1010
2002
0000
0000
,
0000
0000
0000
3003
0000
0000
1000
0001
1000
0000
0000
0000
,
0000
0000
1000
0000
;

//---------------dance-single - ----------------
#NOTES:
     dance-single:
     :
     Easy:
     10:
     0.490,0.484,0.380,0.177,0.018:
0000
0000
0000
0000
,
1001
0000
0000
1001
0000
0000
0000
0000
,
0101
0000
0000
0101
0000
0000
0000
0000
,
1001
0000
0000
1001
0000
0000
0000
0000
,
1000
0001
0100
0010
,
1001
0000
0000
1001
0000
0000
0001
0000
,
0100
0000
0001
0000
,
1000
0001
0100
0010
,
1000
0000
0001
1001
,
0010
1000
0010
0100
,
0001
1000
0100
0010
,
0001
1000
0010
0100
,
0001
0010
0001
0000
1000
0100
1000
0000
,
0001
0100
0010
1000
,
0100
0010
0001
0100
,
0101
0010
1010
1000
,
0001
1000
0010
0110
,
0001
1000
0010
0100
,
0001
1000
0100
0010
,
0001
0100
0010
1000
,
0001
0100
0001
0000
1000
0010
1000
0000
,
0001
0100
0001
0000
1000
0000
0010
0000
,
0100
0010
0100
0000
0001
1000
0001
0000
,
2000
0000
3200
0000
,
0310
0001
1000
1001
,
0010
0000
1000
0001
0000
1001
0000
2020
,
0000
0000
3030
0000
,
1000
0001
0100
0010
,
1000
0001
0100
0010
,
1000
0000
0001
0000
0100
0010
0100
0000
,
0001
0010
0001
0000
1000
0100
1000
0000
,
0001
0000
0100
0000
0010
1000
0010
0000
,
1000
0001
1000
0000
0001
0100
0001
0000
,
1001
0000
0000
1010
0000
0000
1000
0000
,
0001
0001
0000
0000
1001
0000
0000
0000
,
1001
0000
0000
1010
0000
0000
1000
0000
,
0001
0001
1000
1000
0001
0000
0000
0000
,
2000
0000
3002
0000
,
0103
0010
0100
0010
1000
0000
2000
0000
,
3002
0000
0203
0000
,
0310
1000
0010
0100
0010
1000
0010
0000
,
2000
0000
0000
3200
0000
0000
0310
0000
,
0002
0000
0000
0203
0000
0000
0310
0000
,
0000
0000
1000
0000
0000
0001
0000
0000
1000
0000
0000
0001
0000
0000
1000
0000
,
0000
0000
0010
0000
0000
0100
0000
0000
0010
0000
0000
0100
0000
0000
0010
0000
,
1000
0000
0000
1000
,
1001
0001
1000
0010
,
0000
0100
0001
0010
,
0010
0100
0100
1000
,
0000
0001
0100
0010
,
1000
0001
0100
0010
,
0000
1000
0001
0100
,
0100
0010
1000
0001
,
0010
0100
0100
1000
,
1001
0000
2010
0000
0000
3001
0000
0000
,
0100
0000
1020
0000
0000
1030
0000
0000
,
0001
0000
2001
0000
0000
3010
0000
0000
,
0100
0001
0100
0010
,
1000
1001
0100
1001
,
0010
1001
0100
1001
,
0010
0000
1000
0100
1000
0100
0010
0001
,
0010
0001
2000
0000
0000
0000
0000
0000
,
3000
0110
1000
0110
,
0001
1001
0010
1001
,
0100
0000
1000
0100
1000
0000
0001
0010
,
0001
0000
1001
0000
1000
0010
0000
0000
,
0000
1001
0001
1000
,
0001
1000
0001
1000
,
0001
1000
0001
0100
,
0010
0000
1000
0010
0100
0010
1000
0010
,
0100
1001
1000
0010
,
0100
1001
1000
0010
,
0100
0000
1001
0000
0010
0000
0001
1000
,
0001
1000
0002
0000
0000
0000
0003
0000
,
1001
0010
1000
0010
,
0100
0001
0010
0100
,
1000
0001
0100
0010
,
1000
0000
0001
0100
0010
1000
0001
0100
,
0001
1000
0010
1000
,
0001
1001
0010
0110
,
0010
0000
1000
0000
0001
0000
0100
0010
,
1000
0010
0000
0000
1000
0001
1000
0000
,
1001
2002
0000
0000
,
0000
0000
0000
0000
,
0000
3003
0000
0000
;

//---------------dance-single - Copied from Copied f----------------
#NOTES:
     dance-single:
     Copied from Copied f:
     Hard:
     15:
     0.791,0.809,0.371,0.389,0.331:
0000
0000
0000
0000
,
0001
0001
0000
1000
1000
0000
0001
0010
,
0001
0001
0000
1000
1000
0010
0100
0100
,
0001
0001
0000
1000
1000
0000
0001
1000
,
0010
0010
0100
0001
1000
0010
0100
0001
,
1000
0000
0100
0000
0010
0000
0001
0000
1000
0000
0010
0000
0100
0000
0001
1000
,
0001
0000
1000
0000
0010
0000
0100
0001
0100
0000
0000
0010
0000
0000
1000
0000
,
0001
0000
0010
0000
0001
0000
0010
0000
0100
1000
0100
1000
0002
0000
0000
0000
,
0013
0100
1000
0100
0010
0000
1001
0000
,
1010
0000
1000
0000
0001
0100
0000
0002
0000
0000
1003
0000
0010
0000
1000
0000
,
0100
0000
0010
0000
0001
1000
0000
0001
0000
0000
1000
0000
0100
0000
0010
0000
,
0001
0000
0010
0000
0001
1000
0000
0010
0000
0000
0100
0000
0001
0000
0010
0000
,
0100
1000
0100
1000
0001
0100
0010
0000
,
1001
0000
0001
0000
1000
0001
0000
1000
0000
0000
0010
0000
1000
0000
0100
0000
,
0010
0000
0001
0000
0010
0100
0000
1000
0000
0000
0001
0000
0100
0000
0001
0000
,
1000
0000
0100
0000
1000
0001
0000
1000
0010
0000
0010
0000
0100
0000
0100
0000
,
0001
0000
0010
0001
0010
0000
0100
0000
2000
0000
0000
0000
3002
0000
0000
0000
,
0103
0000
0010
0000
0100
0001
0000
1000
0000
0000
0001
0000
0100
0000
0010
0000
,
1000
0000
0001
0000
1000
0010
0000
1000
0000
0000
0001
0000
0100
0000
0010
0000
,
1000
0000
0001
0000
1000
0010
0000
1000
0000
0000
0100
0000
0010
0000
0001
0000
,
1000
0100
0001
0100
1000
0100
0010
0000
,
1001
0000
0001
0000
1000
0000
0000
0010
0000
0000
0100
0000
0001
0000
0010
0001
,
0010
0000
0001
0000
1000
0000
0001
0010
0001
0000
1000
0000
0002
0000
0000
0000
,
1003
0000
1000
0000
0010
0000
0010
0000
0100
0001
0100
0001
2000
0000
0000
0000
,
3002
0000
0003
1001
,
1010
0000
1000
0001
0000
1001
0000
0202
,
0000
0000
0000
0303
,
1001
0001
1000
0100
0010
0001
0001
0000
,
0000
0000
0000
0000
,
1001
0001
1000
0001
0100
0010
1000
0010
,
0100
0010
1000
0100
0010
0001
0100
0010
,
1000
0010
0100
0010
1000
0010
0100
0010
,
1000
0100
0001
0100
1000
0010
1010
0000
,
1000
0000
0000
1000
0000
0000
0010
0000
0000
0010
0000
0000
0100
0000
0001
0000
,
0100
0000
0100
0000
0000
0010
0000
0000
1000
0000
0000
0000
1000
0000
0001
0000
,
1000
0000
0000
0010
0000
0000
1000
0000
0000
0010
0000
0000
0100
0000
0001
0000
,
1000
0100
0010
0001
1001
0000
1100
0000
,
1000
0000
0000
0010
0000
0000
0100
0000
0001
0000
0100
0000
0001
0000
0010
0000
,
0200
2300
3200
0320
0032
0010
0013
0010
,
0001
0100
0010
1000
0100
1000
0001
0100
,
0002
0203
0320
2030
3020
0230
0302
0003
,
2000
0000
0000
3020
0000
0000
0230
0000
,
0302
0000
0000
2003
0000
0000
3020
0000
,
1030
0000
1001
0000
0000
0101
0000
0000
1001
0000
0000
1010
0000
0000
1000
0100
,
0000
0000
1001
0000
0000
0101
0000
0000
1001
0000
0000
1010
0000
0000
1000
0000
,
1001
0000
0000
0000
0000
0000
1000
0001
,
1001
0000
0000
0000
1000
0000
0000
0000
0010
0000
0000
0000
0100
0000
0000
0001
,
0000
0000
0100
0000
0000
0000
0001
1000
0001
0000
0000
0000
1000
0000
0000
0010
,
0000
0000
1000
0000
0001
0000
0000
0000
0100
0000
0000
0000
0010
0000
0000
1000
,
0000
0000
0010
0000
0000
0000
1000
0000
0100
0000
0010
0000
0001
0000
1000
0100
,
1000
0000
0001
0010
0001
0000
0000
0000
1000
0000
0000
0000
0001
0000
0000
0100
,
0000
0000
0010
0000
1000
0000
0001
0100
0001
0000
1000
0000
0010
0000
0000
0100
,
0000
0000
0001
0000
1000
0000
0000
0000
0010
0000
0000
0000
1000
0000
0000
0100
,
0000
0001
0100
1000
0001
0010
0100
0000
,
1001
0000
2020
3030
0000
0202
0303
0000
,
0001
0000
0022
0033
0000
2002
3003
0000
,
0010
0000
2020
3030
0000
2002
3003
0000
,
0001
0100
0010
0000
0010
0000
0010
0000
,
1000
0001
1000
1000
0000
0001
0001
0000
,
1000
0100
0001
0001
0100
1000
0100
0010
,
0100
0000
0000
0000
0010
0000
0001
0000
0010
0000
0001
0000
1000
0001
1000
0001
,
1000
0001
1000
0001
1000
0000
0010
0000
0100
0000
0001
0000
1000
0000
0000
0000
,
1010
0000
1010
0010
1000
0000
0101
0001
,
0100
0000
1010
0010
1000
0000
0101
0001
,
0100
0000
0010
1000
0010
1000
0100
0010
,
0001
1000
0000
0011
0000
1001
1001
0000
,
2020
0000
3030
0000
0001
0000
1000
0000
0001
0000
0000
0010
0000
0000
0001
0000
,
1000
0000
0001
0000
0100
0000
0010
0000
1000
0000
0000
0010
0000
0000
1000
0000
,
0001
0000
1000
0000
0010
0000
0100
0000
0001
0000
0000
0001
0000
0000
1000
0000
,
0100
0010
0001
0100
1000
0100
0001
0100
,
0010
0000
0000
0000
0010
0000
1000
0000
0001
0000
0000
0010
0000
0000
0001
0000
,
0100
0000
0010
0000
1000
0000
0100
0000
0010
0000
0000
0001
0000
0000
1000
0000
,
0010
1000
0001
0100
0001
0000
1000
0100
,
0001
0100
1000
0001
0100
0010
1000
0000
,
2000
0000
0000
0000
3001
0000
0100
0000
1000
0000
0000
0100
0000
0000
0001
0000
,
0100
0000
0010
0000
1000
0000
0100
0000
0001
0000
0000
0100
0000
0000
0010
0000
,
0001
0000
1000
0000
0001
0000
0100
0000
0001
0000
0000
1000
0000
0000
0010
0000
,
0100
0000
0001
0000
1000
0100
1000
0100
0010
0001
0010
0001
1000
0001
1000
0001
,
1000
0000
0010
0000
0100
0000
0001
0000
1000
0000
0000
0010
0000
0000
0100
0000
,
0001
0000
1000
0000
0100
0000
0010
0001
0010
0000
0100
1000
0100
0000
0010
0000
,
0001
0000
0000
0000
1000
0000
0100
0000
0010
0000
0001
0000
1000
0010
0100
0001
,
1000
0100
1000
0100
0000
0000
0000
0000
1001
0000
1000
0000
0010
0000
0000
0000
,
1010
2002
0000
0000
,
0000
3003
0000
0000
;

//---------------dance-single - Copied from Copied f----------------
#NOTES:
     dance-single:
     Copied from Copied f:
     Medium:
     13:
     0.623,0.588,0.300,0.185,0.102:
0000
0000
0000
0000
,
0001
0010
0000
0100
1000
0000
0001
0000
,
0010
0100
0000
1000
0100
0000
0010
0000
,
0010
0001
0000
0001
1000
0000
0001
0000
,
1000
0010
0100
0000
0001
0000
1000
0000
,
1000
0001
0000
0100
0010
0000
0010
1000
,
0010
0000
1000
0000
0001
0000
0000
0000
1000
0000
0000
0010
0000
0000
1000
0000
,
0001
0010
0001
0010
0100
1000
0002
0000
,
0013
0100
1000
0100
0010
0000
1001
0000
,
1000
0010
1000
0000
0001
0000
0100
0000
,
0010
1000
0010
0000
1000
0000
0001
0000
,
0010
0100
0010
0000
0100
0000
0010
0000
,
0001
1000
0001
1000
0010
0100
0010
0000
,
1000
0001
1000
0000
0001
0000
1000
0000
,
0010
0100
0010
0000
1000
0000
0001
0000
,
0010
0001
0010
0000
0001
1000
0001
1000
,
0001
0010
0100
1000
2000
0000
3002
0000
,
0103
0000
0010
1000
0010
0000
0100
0000
,
0010
1000
0010
0000
0100
0000
0010
0000
,
1000
0100
0010
0000
0001
0000
0100
0000
,
0010
1000
0010
0100
0001
1000
0001
0000
,
1000
0100
0010
0000
0001
0000
0100
0000
,
0010
1000
0010
0000
1000
0001
2000
0000
,
3001
0010
0001
0100
0001
1000
0020
0000
,
2030
0000
3000
1001
,
1010
0000
1000
0001
0000
1001
0000
0202
,
0000
0000
0000
0303
,
1000
0001
1000
0000
0010
0001
1000
0000
,
0000
0000
0000
0000
,
1001
0000
0101
0000
0010
1000
0010
0000
,
1000
0100
0010
0001
0100
0001
1000
0000
,
0010
0100
0010
0000
1000
0010
1000
0000
,
0001
0100
0001
1000
0001
0100
0001
0000
,
1001
0000
0000
1010
0000
0000
1000
0001
,
1000
1000
0000
0000
1001
0000
0010
0000
,
1000
0000
0000
0001
0000
0000
1000
0000
0000
0001
0000
0000
1000
0000
0000
0000
,
1000
0100
0010
0001
1000
0000
1100
0000
,
1000
0000
0000
0010
0000
0000
0100
0000
0001
0000
0100
0000
0001
0000
0010
0000
,
0200
2300
3002
0000
,
1003
0000
0010
0000
1000
0001
1000
0000
,
0001
0100
0010
1000
0010
0100
0001
0000
,
2000
0000
0000
3020
0000
0000
0230
0000
,
0302
0000
0000
2003
0000
0000
3020
0000
,
0030
0000
1001
0000
0000
0101
0000
0000
1001
0000
0000
1010
0000
0000
1100
0000
,
0000
0000
1001
0000
0000
0101
0000
0000
1001
0000
0000
1010
0000
0000
1000
0000
,
0001
0000
0000
0000
0000
0000
1000
0001
,
1000
0000
0000
0000
1000
0000
0000
0000
0010
0000
0000
0000
0100
0000
0000
0001
,
0000
0000
0100
0000
0000
0000
0000
0000
0001
0000
0000
0000
1000
0000
0000
0010
,
0000
0000
1000
0000
0001
0000
0000
0000
0100
0000
0000
0000
0010
0000
0000
1000
,
0000
0010
0000
1000
0100
0010
0001
1000
,
0010
0000
0100
0000
0001
0000
0000
0000
1000
0000
0000
0000
0001
0000
0000
0100
,
0000
0000
0010
0000
0000
0000
1000
0000
0100
0000
1000
0000
0010
0000
0000
0100
,
0000
0000
0001
0000
1000
0000
0000
0000
0010
0000
0000
0000
1000
0000
0000
0100
,
0000
1000
0100
1000
0001
0010
0100
0000
,
1001
0000
1010
0000
0000
0101
0000
0000
,
0001
0000
0011
0000
0000
1001
0000
0000
,
0010
0000
1010
0000
0000
1001
0000
0000
,
0001
0100
0010
0000
0010
0000
0010
0000
,
1000
0001
1000
0100
0000
0010
0001
0000
,
1000
0100
0010
0000
0001
1000
0100
0000
,
0010
0000
0010
0001
0010
0001
2000
0000
,
0000
0000
3001
0010
0100
1000
0010
0000
,
1010
0000
1000
0010
1000
0000
0100
0001
,
0100
0000
1000
0010
1000
0000
0001
0100
,
0001
0000
1000
0010
0100
0001
0100
0010
,
1000
0001
0000
0011
0000
1000
0001
0000
,
1010
0000
0000
0000
0001
0000
1000
0000
0001
0000
0000
0010
0000
0000
0001
0000
,
1000
0000
0001
0000
0100
0000
0010
0000
1000
0000
0000
0010
0000
0000
1000
0000
,
0001
0000
1000
0000
0010
0000
0100
0000
0001
0000
0000
0001
0000
0000
1000
0000
,
0100
0010
0001
0100
0010
0000
1000
0100
,
0010
0000
0000
0000
0001
0000
1000
0000
0001
0000
0000
0010
0000
0000
0001
0000
,
0100
0000
0010
0000
1000
0000
0100
0000
0010
0000
0000
0001
0000
0000
1000
0000
,
0010
1000
0001
0100
0001
0000
1000
0100
,
0010
0100
1000
0001
0100
0010
1000
0000
,
2000
0000
0000
0000
3001
0000
0100
0000
0010
0000
0000
0100
0000
0000
0001
0000
,
0100
0000
0010
0000
1000
0000
0100
0000
1000
0000
0000
0100
0000
0000
0010
0000
,
0001
0000
1000
0000
0001
0000
0100
0000
0001
0000
0000
1000
0000
0000
0010
0000
,
0100
0001
1000
0100
1000
0000
0001
0010
,
0001
0000
0010
0000
0100
0000
1000
0000
0001
0000
0000
0010
0000
0000
0100
0000
,
1000
0010
0100
0000
1100
0000
1001
0000
,
0001
0000
1000
0100
0010
0001
1000
0010
,
0100
0001
0000
0000
0001
1000
0010
0000
,
1010
2002
0000
0000
,
0000
3003
0000
0000
;

//---------------dance-single - ----------------
#NOTES:
     dance-single:
     :
     Beginner:
     8:
     0.353,0.441,0.389,0.265,0.000: // measure 1
0000
0000
0000
0000
,  // measure 2
1001
0000
0000
0000
,  // measure 3
0110
0000
0000
0000
,  // measure 4
1001
0000
0000
0000
,  // measure 5
1000
0000
0001
0000
,  // measure 6
1001
0000
0010
0000
,  // measure 7
0110
0000
1001
0000
,  // measure 8
1000
0001
1000
0001
,  // measure 9
1001
0000
0000
0110
,  // measure 10
1001
0000
1000
0000
,  // measure 11
0001
0000
1000
0000
,  // measure 12
0001
0000
1000
0000
,  // measure 13
0010
0010
0010
0010
,  // measure 14
1001
0000
0010
0000
,  // measure 15
1001
0000
0010
0000
,  // measure 16
1000
0001
1000
0001
,  // measure 17
1000
0001
1000
0110
,  // measure 18
0001
1000
0001
0000
,  // measure 19
0001
0100
0001
0000
,  // measure 20
1000
0001
1000
0000
,  // measure 21
0010
0010
0010
0010
,  // measure 22
1001
0000
0000
0000
,  // measure 23
1001
0000
0000
0000
1000
1000
1000
0000
,  // measure 24
1001
0000
0010
0010
,  // measure 25
2002
0000
3003
1001
,  // measure 26
1001
0000
0000
0010
0000
0010
0000
2002
,  // measure 27
0000
0000
3003
0000
,  // measure 28
1000
0000
0001
0000
,  // measure 29
2000
0000
0000
3000
,  // measure 30
0001
0100
0001
0000
,  // measure 31
1000
0010
1000
0000
,  // measure 32
0001
1000
0001
0000
,  // measure 33
1000
0010
1000
0000
,  // measure 34
0001
0000
0000
0001
0000
0000
0001
0000
,  // measure 35
1000
0000
1000
0000
,  // measure 36
0001
0000
0000
0001
0000
0000
1000
0000
,  // measure 37
0010
0010
0010
0010
0010
0000
0000
0000
,  // measure 38
1000
0000
0001
0000
,  // measure 39
0100
0000
0010
0000
1000
2000
0000
0000
,  // measure 40
3001
0000
0100
0000
,  // measure 41
0010
1000
0020
0000
,  // measure 42
2030
0000
0000
0000
,  // measure 43
3002
0000
0000
0000
,  // measure 44
0003
1000
0000
0000
1000
0000
0000
1000
,  // measure 45
0000
0001
0000
0000
0001
0000
0000
0000
,  // measure 46
1001
0000
0000
0000
,  // measure 47
0000
1001
0000
1000
,  // measure 48
0000
0000
0001
0100
,  // measure 49
0000
0010
0000
1000
,  // measure 50
0000
0001
1000
0001
,  // measure 51
0000
1000
0000
1000
,  // measure 52
0000
0001
0100
0001
,  // measure 53
0000
1000
0000
1000
,  // measure 54
0000
0010
0010
0010
,  // measure 55
1001
2000
0000
0000
,  // measure 56
0000
3002
0000
0000
,  // measure 57
0000
2003
0000
0000
,  // measure 58
0000
3010
0100
0001
,  // measure 59
0000
1001
0000
1001
,  // measure 60
0000
1001
0000
1001
,  // measure 61
0000
1001
1001
1001
,  // measure 62
1001
2002
0000
3003
,  // measure 63
0000
0110
0000
0110
,  // measure 64
0000
0110
0000
1001
,  // measure 65
0000
0000
1000
0001
1000
0001
1000
0001
,  // measure 66
1000
0000
0000
0000
,  // measure 67
1001
0002
0000
2003
,  // measure 68
0000
3020
0000
0230
,  // measure 69
0000
0302
0000
2003
,  // measure 70
0000
0000
3001
0100
0001
0100
0001
0100
,  // measure 71
0001
1001
0000
0010
,  // measure 72
0000
1001
0000
0100
,  // measure 73
0000
0000
1001
0000
0000
0000
1000
1000
,  // measure 74
1000
1000
1000
0000
0000
0000
0000
0000
,  // measure 75
1001
0002
0000
2003
,  // measure 76
0000
3020
0000
0230
,  // measure 77
0000
0302
0000
2003
,  // measure 78
0000
0000
3010
0100
0010
0100
0010
0100
,  // measure 79
0010
1001
0000
0100
,  // measure 80
0000
1001
0000
1000
,  // measure 81
1000
0001
1000
0001
,  // measure 82
1000
0000
2002
0000
,  // measure 83
3003
2002
0000
0000
,  // measure 84
0000
3003
0000
0000
;
