#TITLE:Space Diver Tama;
#SUBTITLE:;
#ARTIST:黒魔;
#TITLETRANSLIT:;
#SUBTITLETRANSLIT:;
#ARTISTTRANSLIT:Kuroma;
#CREDIT:Pandemonium X;
#BANNER:bn.png;
#BACKGROUND:bg.png;
#LYRICSPATH:;
#CDTITLE:;
#MUSIC:Space Diver Tama.mp3;
#OFFSET:-2.044;
#SAMPLESTART:47.200;
#SAMPLELENGTH:12.000;
#SELECTABLE:YES;
#BPMS:0.000=170.000;
#STOPS:1.000=0.706
,7.000=0.706
,13.000=0.706
,19.000=0.706
,188.000=3.882
,285.000=0.353
,285.500=0.353
,286.000=0.353
,286.500=0.353
,287.000=0.176
,287.500=0.176
,288.000=0.353
,288.500=0.353
,289.000=0.353
,289.500=0.353
,290.000=0.176
,290.500=0.176
;
#BGCHANGES:;

//---------------dance-single - Pandemonium X----------------
#NOTES:
     dance-single:
     Pandemonium X:
     Hard:
     13:
     0.535,0.765,0.118,0.101,0.172: // measure 1
0000
0000
0000
0000
,  // measure 2
0000
0000
0000
0000
,  // measure 3
0000
0000
0000
0000
,  // measure 4
1000
0010
0100
0000
0001
0100
0010
0100
,  // measure 5
0000
0001
0000
0001
0000
0000
0000
0000
0010
0000
0100
0000
1000
0000
0000
0000
,  // measure 6
0100
0010
0001
1000
0020
0000
0000
0000
,  // measure 7
0130
0001
1000
0001
0000
1000
0100
1000
,  // measure 8
0001
0100
0010
0100
0000
0100
0010
1000
,  // measure 9
0001
1000
0010
1000
0000
0001
0100
0001
,  // measure 10
0100
0001
0010
0100
0000
0010
0001
0100
,  // measure 11
1000
0100
0010
0100
0000
0010
1000
0001
,  // measure 12
0010
0100
0010
0001
0000
1000
0100
1000
,  // measure 13
0010
0100
0001
0010
0000
0100
0010
0010
,  // measure 14
0001
1000
0100
1000
0000
0001
0100
1000
,  // measure 15
0100
0000
0000
0100
0000
0000
0100
0000
0001
0000
1000
0000
0100
0000
1000
0000
,  // measure 16
0001
0001
0010
0001
0000
0001
0010
0010
,  // measure 17
0100
1000
0010
0100
0000
0100
0010
1000
,  // measure 18
0001
1000
0010
1000
0000
0100
0100
0010
,  // measure 19
0001
1000
0100
0001
0000
0001
0100
0010
,  // measure 20
0001
1000
0010
0100
0000
0100
1000
0100
,  // measure 21
0010
1000
0001
0010
0000
0001
1000
0100
,  // measure 22
0001
0100
0010
0001
0000
0001
0010
0100
,  // measure 23
2000
0000
0000
0000
,  // measure 24
0000
0000
0000
0000
,  // measure 25
3000
0000
0000
0000
,  // measure 26
0000
0000
0000
0000
,  // measure 27
1000
0001
0010
0100
0010
0010
0100
0000
,  // measure 28
0100
0010
0001
0010
0100
1000
0100
0000
,  // measure 29
0100
0010
0001
1000
0010
0010
1000
0000
,  // measure 30
1000
0100
0010
0100
1000
0010
0100
0000
,  // measure 31
1001
0001
0010
0001
1000
0100
0000
1000
,  // measure 32
0000
1000
0100
0001
0000
0001
0100
0010
,  // measure 33
0001
0100
0000
0001
0000
0100
0000
0001
,  // measure 34
0100
0010
1000
0001
0000
0001
0010
0100
,  // measure 35
0010
0001
0010
0001
0010
0100
0000
0100
,  // measure 36
1000
0010
0100
0001
1000
0000
1000
0100
,  // measure 37
1000
0100
1000
0010
0000
0100
0001
0100
,  // measure 38
0010
1000
0001
1000
0001
0010
0100
0010
,  // measure 39
0001
1000
0010
1000
0001
0010
0001
1000
,  // measure 40
0010
1000
0100
0010
0100
1000
0000
0100
,  // measure 41
0010
0001
0000
0000
0000
0000
0001
1000
,  // measure 42
0010
0010
0010
0100
0000
0000
0002
0000
,  // measure 43
1003
0000
1000
0100
0000
0100
0010
0000
0010
0001
0000
0001
,  // measure 44
0010
0000
0010
0100
0000
0100
1000
0000
1000
0001
0000
0001
,  // measure 45
1000
0100
0010
0001
1000
0100
0010
0001
1000
0100
0010
0001
,  // measure 46
1000
0100
0010
0001
1000
0100
0010
0001
1000
0100
0010
0001
,  // measure 47
2000
0000
0000
0000
,  // measure 48
3010
0000
0001
0100
0000
0100
0010
0100
,  // measure 49
0000
0010
1000
0010
0000
0100
0010
0100
,  // measure 50
0000
0001
0100
0001
0000
1000
0100
1000
,  // measure 51
0000
0010
0100
0010
0000
0100
0001
0100
,  // measure 52
0000
0001
1000
0100
0000
1000
0001
0100
,  // measure 53
0000
0001
1000
0100
0000
1000
0001
0100
,  // measure 54
0000
0001
0010
0100
0000
0100
1000
0010
,  // measure 55
0000
0100
0010
1000
0000
1000
0010
0000
,  // measure 56
0100
0000
0001
0000
0010
0000
0000
0001
0000
0000
0010
0000
0000
0001
0000
0000
,  // measure 57
0100
0000
0010
0000
1000
0000
0000
1000
0100
0000
0000
0100
0010
0000
0000
0010
,  // measure 58
0001
0000
0000
0001
0100
0000
0000
0001
0000
0000
0100
0000
0000
0001
0000
0000
,  // measure 59
0100
0000
0010
0000
1000
0000
0000
0100
0000
0000
0010
0000
0000
0100
0000
0000
,  // measure 60
1000
0000
0001
0000
1000
0000
0000
0001
0000
0000
0100
0000
0001
0000
0000
0000
,  // measure 61
0100
0000
0010
0000
1000
0000
0000
0001
0000
0000
0010
0000
0100
0000
0000
0000
,  // measure 62
0010
0001
0200
0000
0010
0000
0301
0000
,  // measure 63
0001
1000
0200
0000
1000
0000
0310
0000
,  // measure 64
0010
0100
1000
0100
0001
0100
0010
0000
,  // measure 65
0100
0010
0001
0100
1000
0100
0010
0000
,  // measure 66
1000
0000
0000
0000
0001
0000
0000
0100
0000
0000
0001
0000
0000
1000
0000
0000
,  // measure 67
0100
0010
0100
1000
0001
0100
0010
0000
,  // measure 68
0100
0010
2000
0000
0000
0000
0000
0000
,  // measure 69
3000
0002
0000
0000
,  // measure 70
0003
0020
0030
0200
,  // measure 71
0300
0020
0030
0002
,  // measure 72
0003
0000
1001
0101
1100
1001
0101
1010
,  // measure 73
1100
0110
0011
0101
1010
0101
1001
0000
;

//---------------dance-single - Pandemonium X----------------
#NOTES:
     dance-single:
     Pandemonium X:
     Medium:
     8:
     0.342,0.490,0.126,0.109,0.000: // measure 1
0000
0000
0000
0000
,  // measure 2
0000
0000
0000
0000
,  // measure 3
0000
0000
0000
0000
,  // measure 4
1000
0000
0010
0000
0100
0001
0100
0001
,  // measure 5
0000
0000
0001
0010
,  // measure 6
0100
1000
0100
0010
0002
0000
0000
0000
,  // measure 7
1003
0000
0000
0001
0000
0000
0100
0000
,  // measure 8
0001
0000
0000
1000
0000
0000
0100
0000
,  // measure 9
1000
0000
0000
0010
0000
0000
0001
0000
,  // measure 10
0010
0000
0000
0010
0000
0000
0100
0000
,  // measure 11
0001
0000
0000
1000
0000
0000
0100
0000
,  // measure 12
0100
0000
0000
1000
0000
0000
0010
0000
,  // measure 13
0100
0000
0000
0100
0000
0000
0001
0000
,  // measure 14
1000
0000
0000
1000
0000
0000
0001
0000
,  // measure 15
2002
0000
0000
3003
,  // measure 16
0001
1000
0010
1000
0000
0000
0010
0000
,  // measure 17
0100
0000
0000
0100
0000
0000
0001
0000
,  // measure 18
1000
0100
0010
0001
0000
0000
0010
0000
,  // measure 19
0001
0000
0000
0100
0000
0000
0010
0000
,  // measure 20
0100
0001
1000
0001
0000
0000
1000
0000
,  // measure 21
0100
0000
0000
0100
0000
0000
1000
0100
,  // measure 22
0010
0001
0010
0100
0000
0010
0001
1000
,  // measure 23
0020
0000
0000
0000
,  // measure 24
0000
0000
0000
0000
,  // measure 25
0030
0000
0000
0000
,  // measure 26
0000
0000
0000
0000
,  // measure 27
0110
0000
0000
1001
0000
0000
0101
0000
,  // measure 28
0000
1001
0000
0000
1000
0000
0100
0000
,  // measure 29
0110
0000
0000
0011
0000
0000
1100
0000
,  // measure 30
0000
0101
0000
0000
0001
0000
1000
0000
,  // measure 31
0010
0000
0100
0000
0001
0000
0000
0100
,  // measure 32
0000
0010
0100
0010
0000
0100
0010
0000
,  // measure 33
1000
0001
0000
1000
0000
0100
0000
1000
,  // measure 34
0001
1000
0001
1000
0000
0001
0100
0000
,  // measure 35
0001
0100
0010
0000
,  // measure 36
0100
0000
0001
0000
1000
0000
0100
0010
,  // measure 37
0001
0010
0100
1000
,  // measure 38
0010
0001
0010
0100
,  // measure 39
0010
1000
0001
0000
0001
0100
0000
0010
,  // measure 40
1000
0000
0001
0100
0010
0100
0000
0001
,  // measure 41
1000
1000
0000
0000
0000
0000
1000
0100
,  // measure 42
0010
0001
0010
0100
0000
0000
0001
0000
,  // measure 43
0100
0001
0010
1000
,  // measure 44
0010
0001
0100
1000
,  // measure 45
0020
2030
3200
0320
,  // measure 46
0032
0023
0230
2300
,  // measure 47
0002
0000
0000
0000
,  // measure 48
3003
0001
0001
1000
,  // measure 49
1000
0001
0001
1000
,  // measure 50
1000
0010
0010
0100
,  // measure 51
0100
0010
0010
0100
,  // measure 52
0000
0001
0000
1000
,  // measure 53
0000
0100
0010
0001
,  // measure 54
0000
0010
0100
1000
,  // measure 55
0001
1000
0010
0100
,  // measure 56
0001
0101
0001
0100
,  // measure 57
0010
1000
0010
0100
,  // measure 58
0010
1000
0100
1000
,  // measure 59
0010
0100
0001
0010
,  // measure 60
0100
1000
0100
0010
,  // measure 61
0100
1000
0010
0000
0100
0000
0010
0000
,  // measure 62
0100
0001
1000
0000
1000
0000
0001
0000
,  // measure 63
0001
1000
0001
1000
,  // measure 64
0001
0000
0100
0000
0001
0100
0010
0000
,  // measure 65
0101
0000
0001
0000
0001
0010
0100
0000
,  // measure 66
1100
0100
1000
0010
,  // measure 67
0001
0000
0010
0000
0010
0100
0001
0000
,  // measure 68
1000
1001
0000
0000
,  // measure 69
0000
0110
0000
0000
,  // measure 70
0000
1000
0000
0001
,  // measure 71
0000
0010
0000
0100
,  // measure 72
0000
0000
1000
0001
1000
0001
1000
1000
,  // measure 73
0010
0100
0010
0100
0010
0010
1001
0000
;

//---------------dance-single - Pandemonium X----------------
#NOTES:
     dance-single:
     Pandemonium X:
     Easy:
     5:
     0.227,0.306,0.042,0.059,0.000: // measure 1
0000
0000
0000
0000
,  // measure 2
0000
0000
0000
0000
,  // measure 3
0000
0000
0000
0000
,  // measure 4
1000
1000
0001
0100
,  // measure 5
0000
0000
0001
0001
,  // measure 6
1000
0001
0200
0000
,  // measure 7
0301
0000
0100
0000
,  // measure 8
0010
1000
0010
0000
,  // measure 9
0100
0000
0001
0000
,  // measure 10
1000
1000
1000
0000
,  // measure 11
0001
0000
1000
0000
,  // measure 12
0100
0010
0001
0000
,  // measure 13
0001
0000
0100
0000
,  // measure 14
0010
1000
0010
0000
,  // measure 15
1001
0000
0000
0000
,  // measure 16
1000
0001
1000
0000
,  // measure 17
0100
0000
1000
0000
,  // measure 18
0010
0100
0010
0000
,  // measure 19
0100
0000
0001
0000
,  // measure 20
1000
0100
0010
0000
,  // measure 21
0100
0000
1000
0000
,  // measure 22
0001
0100
0010
0100
,  // measure 23
2002
0000
0000
0000
,  // measure 24
0000
0000
0000
0000
,  // measure 25
3003
0000
0000
0000
,  // measure 26
0000
0000
0000
0000
,  // measure 27
1000
0000
0010
0000
,  // measure 28
0100
0000
0001
0001
,  // measure 29
1000
0000
0001
0000
,  // measure 30
0100
0000
0010
0010
,  // measure 31
1000
0010
0100
0000
,  // measure 32
0010
0000
1000
0000
,  // measure 33
0100
0000
1000
0000
,  // measure 34
0001
0000
0100
0000
,  // measure 35
0001
0100
0010
0000
,  // measure 36
0100
0001
0010
0100
,  // measure 37
1000
0000
0100
0000
,  // measure 38
1000
0010
0100
0000
,  // measure 39
0001
0100
0010
1000
,  // measure 40
0001
0100
0010
0000
,  // measure 41
0100
0000
0000
0010
,  // measure 42
1000
0100
0000
0010
,  // measure 43
0001
0001
0001
0001
,  // measure 44
1000
1000
1000
1000
,  // measure 45
0010
0100
0001
1000
,  // measure 46
0010
0100
0001
1000
,  // measure 47
2002
0000
0000
0000
,  // measure 48
3003
0001
0000
1000
,  // measure 49
0000
0001
0000
1000
,  // measure 50
0000
0010
0000
0100
,  // measure 51
0000
0001
0000
0100
,  // measure 52
0000
0001
0000
1000
,  // measure 53
0000
0100
0000
1000
,  // measure 54
0000
0001
0000
0100
,  // measure 55
0000
0001
0000
1000
,  // measure 56
0000
0100
0000
1000
,  // measure 57
0000
0010
0100
0010
,  // measure 58
1000
0001
0000
1000
,  // measure 59
0000
0100
1000
0010
,  // measure 60
0100
0001
0000
1000
,  // measure 61
0100
0010
0000
0100
,  // measure 62
1000
0001
0100
0001
,  // measure 63
0010
0001
1000
0100
,  // measure 64
1000
0001
0010
0100
,  // measure 65
0010
0001
1000
0100
,  // measure 66
1000
0001
0100
0001
,  // measure 67
0010
0100
0100
0100
,  // measure 68
0010
1001
0000
0000
,  // measure 69
0000
0010
0000
0000
,  // measure 70
0000
0100
0000
0001
,  // measure 71
0000
1000
0000
0010
,  // measure 72
0000
0000
0200
0000
0000
0000
0000
0300
,  // measure 73
0020
0000
0000
0000
0000
0030
1001
0000
;

//---------------dance-single - Pandemonium X----------------
#NOTES:
     dance-single:
     Pandemonium X:
     Beginner:
     2:
     0.130,0.214,0.042,0.000,0.000: // measure 1
0000
0000
0000
0000
,  // measure 2
0000
0000
0000
0000
,  // measure 3
0000
0000
0000
0000
,  // measure 4
1000
0000
0001
0000
,  // measure 5
0000
0000
1000
0000
,  // measure 6
0001
0000
0000
0000
,  // measure 7
0100
0000
0000
0000
,  // measure 8
0010
0000
0000
0000
,  // measure 9
1000
0000
0000
0000
,  // measure 10
0001
0000
0000
0000
,  // measure 11
0100
0000
0000
0000
,  // measure 12
0001
0000
0000
0000
,  // measure 13
1000
0000
0000
0000
,  // measure 14
0010
0000
0000
0000
,  // measure 15
0100
0000
0010
0000
,  // measure 16
1000
0000
0000
0000
,  // measure 17
0100
0000
0000
0000
,  // measure 18
1000
0000
0000
0000
,  // measure 19
0001
0000
0000
0000
,  // measure 20
0100
0000
0000
0000
,  // measure 21
0001
0000
0000
0000
,  // measure 22
1000
0000
0000
0000
,  // measure 23
0010
0000
0000
0000
,  // measure 24
0000
0000
0000
0000
,  // measure 25
0000
0000
0000
0000
,  // measure 26
0000
0000
0000
0000
,  // measure 27
1000
0000
0000
0000
,  // measure 28
0001
0000
0000
0000
,  // measure 29
0100
0000
0000
0000
,  // measure 30
0001
0000
0000
0000
,  // measure 31
1000
0000
0001
0000
,  // measure 32
0100
0000
0000
0000
,  // measure 33
0001
0000
1000
0000
,  // measure 34
0100
0000
0000
0000
,  // measure 35
1000
1000
1000
0000
,  // measure 36
0001
0000
0100
0000
,  // measure 37
0010
0000
0100
0000
,  // measure 38
0001
0000
1000
0000
,  // measure 39
0010
0010
0010
0000
,  // measure 40
0100
0100
0100
0000
,  // measure 41
0001
0000
0000
1000
,  // measure 42
1000
1000
0000
0001
,  // measure 43
1000
0000
1000
0000
,  // measure 44
0001
0000
0001
0000
,  // measure 45
0100
0000
0010
0000
,  // measure 46
1000
0000
0001
0000
,  // measure 47
1001
0000
0000
0000
,  // measure 48
0000
0010
0000
0000
,  // measure 49
0000
0100
0000
0000
,  // measure 50
0000
0001
0000
0000
,  // measure 51
0000
1000
0000
0000
,  // measure 52
0000
1000
0000
0000
,  // measure 53
0000
0100
0000
0000
,  // measure 54
0000
1000
0000
0000
,  // measure 55
0000
0010
0000
0000
,  // measure 56
0100
0010
0000
0000
,  // measure 57
0000
0100
0000
0001
,  // measure 58
0000
1000
0000
0000
,  // measure 59
1000
1000
0000
0000
,  // measure 60
0000
0001
0000
0000
,  // measure 61
0100
0100
0000
0000
,  // measure 62
0010
0010
0000
1000
,  // measure 63
0000
0001
0000
1000
,  // measure 64
0000
0100
0100
0100
,  // measure 65
0000
0010
0010
0010
,  // measure 66
0000
0001
0000
1000
,  // measure 67
0000
0110
0000
1000
,  // measure 68
0000
1001
0000
0000
,  // measure 69
0000
0010
0000
0000
,  // measure 70
0000
0100
0000
0100
,  // measure 71
0000
0010
0000
0010
,  // measure 72
0000
1001
0000
0000
,  // measure 73
0010
0000
0000
1001
;
