#TITLE:PANIC HOLIC;
#SUBTITLE:;
#ARTIST:C-Show;
#TITLETRANSLIT:;
#SUBTITLETRANSLIT:;
#ARTISTTRANSLIT:;
#GENRE:;
#CREDIT:;
#MENUCOLOR:;
#METERTYPE:DDR;
#BANNER:PANIC HOLIC.png;
#BACKGROUND:PANIC HOLIC-bg.png;
#LYRICSPATH:;
#CDTITLE:;
#MUSIC:PANIC HOLIC.mp3;
#OFFSET:-1.360;
#SAMPLESTART:47.090;
#SAMPLELENGTH:12.000;
#SELECTABLE:YES;
#LISTSORT:;
#BPMS:0.000=220.000;
#STOPS:164.000=0.273
,165.000=0.273
;
#BGCHANGES:;
#ATTACKS:;

//---------------dance-single - Steps by Darkstorm09----------------
#NOTES:
     dance-single:
     Steps by Darkstorm09:
     Hard:
     14:
     0.829,0.846,0.324,0.361,0.005:
0000
0000
0000
0000
,
0000
0000
0000
0000
,
1000
0010
0100
0001
0000
0010
0100
0010
,
0000
0001
0010
1000
0000
1000
0010
0001
,
0000
0100
0010
1000
0000
0100
1000
0001
,
2000
0000
0000
0000
3010
0000
0000
0000
1001
0000
0000
0001
0000
0000
0001
0000
,
1000
0010
0100
0010
0000
0100
0001
0010
,
0000
0100
0010
0001
0000
1000
0010
0100
,
0000
0001
1000
0010
1000
0100
0010
0000
,
0120
0000
0100
0230
0000
1300
0001
0000
,
0100
0010
0000
0001
0010
0000
1000
0100
,
0000
0010
0100
1000
0010
0000
0100
0010
,
0000
1000
0000
0010
0100
0000
0010
0100
,
0001
0001
0000
1010
0000
0001
1000
0010
,
0100
0001
0000
1000
0100
0000
0010
0100
,
0000
1000
0010
0100
0001
0000
0010
0001
,
0100
0010
0010
0000
1000
0100
0010
0001
,
0100
0000
0000
0011
0000
0001
0001
0000
,
1000
0100
0000
0001
0100
0000
0010
0100
,
0000
0010
0100
1000
0100
0000
0010
0001
,
0000
0010
0000
0100
0010
0000
0100
1000
,
0010
0100
0000
0110
0000
0010
0100
0010
,
1000
0100
0000
0010
0001
0000
0100
0010
,
0000
1000
0010
0100
0010
0000
0100
0001
,
0000
0010
0001
0100
0010
0000
0100
0000
,
0101
0000
0100
0010
0000
2002
3003
0000
,
0010
0100
0010
0100
0001
0010
0100
1000
,
0100
0010
0100
1000
0010
0100
0001
0010
,
0100
0010
0001
1000
0010
0100
0001
1000
,
0010
0010
0000
0210
0000
0301
1000
0001
,
0100
0010
0100
0001
0010
0100
1000
0100
,
0010
0100
1000
0010
0100
0001
0010
0100
,
0010
0001
1000
0010
0100
0010
1000
0001
,
0010
0100
0010
0002
0000
0000
0203
0000
,
0310
0100
0001
1000
0100
0010
1000
0010
,
0001
0100
0010
1000
0100
0010
0001
0010
,
0100
0010
0001
0100
0010
1000
0001
0010
,
0001
0001
0000
0120
0000
0130
1000
0100
,
0010
0100
1000
0001
0010
0100
1000
0100
,
0010
0100
1000
0010
0100
0001
0010
0000
,
0110
0001
0110
1000
,
0011
1100
1001
0200
,
0310
1000
1000
1000
0000
0010
0010
0010
,
0100
0001
2000
0000
3001
0010
0100
0010
,
0100
0000
1000
0010
0100
0001
0001
0001
,
0200
0000
1000
0000
0310
0000
0100
0010
,
1000
0001
0001
0001
0000
0010
0200
0000
,
1300
0010
2000
0000
3100
0010
0001
0100
,
0010
0000
0100
0010
1000
0001
0010
0100
,
0000
1000
0100
1000
0002
0000
0103
0010
,
0000
1000
1000
1000
0000
0010
0010
0010
,
0100
0001
2000
0000
3010
0100
0001
0010
,
0100
0000
0010
0001
0100
0010
0010
0010
,
2000
3100
2002
0003
,
3100
0010
0010
0010
0001
0100
0010
0000
,
0100
0001
0020
0000
0130
1000
0100
0010
,
0100
0000
0010
0001
2000
3200
0320
0032
,
0023
0230
1300
0000
0210
0000
0000
0301
,
0000
0001
0010
0100
0000
0010
0100
1000
,
0010
0100
0010
0000
2010
0000
0000
3100
,
0000
0001
0010
0100
0010
0100
1000
0010
,
0200
0000
0310
0000
1020
0000
0000
0130
,
0000
0001
0010
0100
0000
0010
0100
1000
,
0010
0100
0010
0000
1020
0000
0000
0130
,
0000
0100
0010
0100
0001
0100
0010
1000
,
0000
1100
0000
0000
2010
0000
0000
3100
,
0000
0100
0010
0000
0120
0000
0000
0031
,
0000
0001
0010
0000
0102
0000
0000
1003
,
0000
0010
0100
0000
1200
0000
0000
0310
,
0000
1001
0000
0000
0101
0000
0010
0000
,
1100
0001
1010
0100
,
0011
1000
0120
0001
,
0100
0000
1000
0000
0130
0010
0100
0010
,
1000
0100
0001
0000
0100
1000
0010
0100
,
0001
0010
0100
1000
0100
0010
0100
1000
,
0010
0100
0001
0010
0100
1000
0100
0010
,
0100
0001
0100
1000
0010
0100
0010
1000
,
0002
0000
0013
0000
0100
1000
0010
0100
,
0010
0001
0010
1000
0001
0010
0100
1000
,
0100
0010
0100
1000
0010
0100
0010
0001
,
0010
1000
0001
0010
0100
1000
0100
0010
,
0000
0120
0000
0000
1030
0100
1000
0100
,
0010
0001
1000
0001
0010
0100
1000
0100
,
0010
0100
1000
0010
0100
0010
0001
0010
,
1000
0001
0010
0100
1000
0100
0010
0100
,
2000
0000
3001
0000
0100
0010
0001
0010
,
1000
0100
0010
0001
1000
0100
0010
0100
,
1000
0010
0100
0010
0001
0010
1000
0001
,
0010
0100
1000
0100
0010
0100
1000
0010
,
0000
1100
0000
0000
0101
0000
0100
0000
,
0010
0001
0010
1000
,
0010
0110
0000
0000
1001
0000
0000
0000
;

//---------------dance-single - ----------------
#NOTES:
     dance-single:
     :
     Medium:
     11:
     0.646,0.804,0.213,0.324,0.000:
0000
0000
0000
0000
,
0000
0000
0000
0000
,
1000
0100
0010
0000
0000
0100
0010
0000
,
0000
0001
0100
0000
0000
0010
1000
0000
,
0000
0100
0010
0000
0000
0001
1000
0000
,
0020
0130
2002
3000
,
1003
0010
0100
0000
0000
0010
0100
0000
,
0000
0001
0010
0000
0000
0100
1000
0000
,
0000
0010
0100
0000
0000
0001
0010
0000
,
0200
0000
0310
0002
0000
0000
1003
0000
,
0010
0100
0000
0001
0010
0000
0100
0010
,
0000
0001
0100
0000
0010
0000
1000
0100
,
0000
0010
0001
0000
0010
0000
0100
0010
,
0100
0010
0000
0001
0000
0100
0010
0000
,
0100
0001
0000
0010
0100
0000
0010
0001
,
0000
0100
0010
0000
0100
0000
0001
1000
,
0000
0100
0010
0000
0100
0000
0010
0001
,
0010
0000
0001
1000
0000
1000
0001
0000
,
0100
0010
0000
0100
0001
0000
0010
0100
,
0000
1000
0010
0000
0100
0000
0001
0010
,
0000
0100
0010
0000
0001
0000
0100
0010
,
0100
0010
0000
1000
0000
0100
0010
0000
,
0001
0100
0000
0010
0100
0000
0001
1000
,
0000
0100
0010
0000
0100
0000
0010
0001
,
0000
0100
0010
0000
0100
0000
0001
1000
,
0010
0000
0100
0010
0000
0110
0000
0000
,
0100
0010
0100
0000
0010
0000
1000
0000
,
0100
0010
0100
0010
0001
0000
0100
0000
,
0010
0100
0010
0000
0100
0000
0001
0000
,
1000
0010
0000
0200
0000
0310
0100
0000
,
0001
0000
0010
0100
0010
0000
0100
0000
,
1000
0100
0010
0100
1000
0000
0001
0000
,
0100
0000
0010
0100
0010
0000
0100
0000
,
0001
0010
0100
2000
0000
0000
3002
0000
,
0103
0000
0010
1000
0100
0000
0010
0000
,
0001
0000
0010
0100
0010
0001
0100
0000
,
0010
0000
0100
0010
1000
0000
0001
0000
,
1000
0010
0000
2000
0000
3100
1000
0000
,
0001
0000
0100
0010
0100
0000
0001
0000
,
0010
0000
0100
0010
0001
0100
0010
0000
,
0011
0001
1100
1000
,
1001
0110
0100
0002
,
0103
0010
0100
0010
0000
0100
0001
0100
,
0001
0000
0200
0000
0310
0100
0001
0100
,
0001
0000
0010
0000
0100
0010
0001
0010
,
0200
0000
0310
0001
,
0010
0100
0010
0100
0000
1000
0200
0000
,
0310
0000
0002
0000
1003
0010
1000
0010
,
1000
0000
0010
0000
0100
0000
0001
0010
,
0000
0100
0010
0000
0002
0000
0103
0010
,
0000
1000
0100
1000
0000
0010
0100
0010
,
0100
0000
0002
0000
0013
0100
0010
0100
,
0010
0000
0001
0000
0100
0001
0100
0010
,
2000
0000
0002
3000
,
0103
0010
0100
0010
0100
0000
0001
0010
,
0001
0000
0010
0000
0100
0010
0001
0100
,
0010
0000
0100
0000
0002
2003
3002
2003
,
3002
2003
3001
0000
0120
0000
0000
0130
,
0000
0001
0010
0000
0000
0100
0010
0000
,
0001
0000
0100
0000
0210
0000
0000
0301
,
0000
1000
0100
0000
1000
0000
0001
0000
,
0010
0000
0000
0000
2001
0000
0000
3010
,
0000
1000
0100
0000
0000
0010
0001
0000
,
0010
0000
0100
0000
0021
0000
0000
0031
,
0000
0100
0010
0000
0100
0000
0001
1000
,
0000
1001
0000
0000
0120
0000
0000
1030
,
0000
0000
0001
0000
0102
0000
0000
0013
,
0000
0000
0100
0000
0210
0000
0000
0301
,
0000
0000
0100
0000
0201
0000
0000
0310
,
0000
0110
0000
0000
1001
0000
0000
0000
,
0011
0000
0101
0000
,
0110
0000
1002
0100
,
0100
0000
0100
0000
0103
0010
0100
0010
,
0100
0010
0100
0000
0001
0000
1000
0100
,
0000
0100
0010
0100
0000
0010
0001
0000
,
0100
0000
0010
0000
1000
0000
0100
1000
,
0000
0001
0100
0001
0010
0000
0100
0000
,
0010
0000
0001
0000
0100
0000
0010
1000
,
0000
0001
0100
0001
0000
0100
0001
0000
,
0010
0000
0100
0000
1000
0000
0010
0100
,
0000
0010
1000
0010
1000
0000
0001
0100
,
0000
0020
0000
0000
0130
0000
0001
0010
,
0000
0100
1000
0100
0000
1000
0010
0000
,
0100
0000
0001
0000
0010
0000
0100
1000
,
0000
0100
0010
0100
0010
0000
0001
0000
,
0100
0000
0010
0000
0100
0000
0001
1000
,
0000
0010
1000
0010
0000
1000
0100
0000
,
0010
0000
0001
0000
0010
0000
0100
0010
,
0000
0001
0100
0010
0100
0000
0001
1000
,
0000
1001
0000
0000
0110
0000
0100
0000
,
0001
0010
0100
1000
,
0010
0200
0000
0000
0310
0000
0000
0000
;

//---------------dance-single - ----------------
#NOTES:
     dance-single:
     :
     Easy:
     8:
     0.439,0.550,0.324,0.222,0.000: // measure 1
0000
0000
0000
0000
,  // measure 2
0000
0000
0000
0000
,  // measure 3
0100
0010
0000
0100
,  // measure 4
0000
0001
0000
1000
,  // measure 5
0000
0010
0000
0100
,  // measure 6
0020
0130
0120
0000
,  // measure 7
0130
0001
0000
0010
,  // measure 8
0000
0100
0000
0010
,  // measure 9
0000
0001
0000
1000
,  // measure 10
0020
0000
0000
0230
0000
0000
0310
0000
,  // measure 11
0110
0000
0001
0000
,  // measure 12
1000
0000
0100
0000
,  // measure 13
0010
0000
0100
0000
,  // measure 14
0110
0000
0000
0101
0000
0000
0000
0000
,  // measure 15
1001
0000
0001
0000
,  // measure 16
1000
0000
0010
0000
,  // measure 17
0100
0000
0001
0000
,  // measure 18
0010
0000
0000
0110
0000
1001
0000
0000
,  // measure 19
1010
0000
0010
0000
,  // measure 20
0100
0000
0001
0000
,  // measure 21
0010
0000
0100
0000
,  // measure 22
1100
0000
0000
1010
0000
0000
0000
0000
,  // measure 23
0010
0000
0100
0000
,  // measure 24
0001
0000
1000
0000
,  // measure 25
0010
0000
0100
0000
,  // measure 26
0001
0000
1000
0000
0000
0010
0000
0000
,  // measure 27
0100
0001
0010
0100
,  // measure 28
0010
0001
0100
0010
,  // measure 29
1000
0100
1000
0010
,  // measure 30
0100
0000
0000
0020
0000
0000
0130
0000
,  // measure 31
0001
0010
0100
0010
,  // measure 32
0001
0100
0010
1000
,  // measure 33
0100
1000
0010
0100
,  // measure 34
0001
0020
0000
0230
,  // measure 35
0310
0001
0100
0010
,  // measure 36
1000
0100
1000
0010
,  // measure 37
0100
0001
0010
0100
,  // measure 38
1000
0000
0000
0020
0000
0000
0130
0000
,  // measure 39
0001
0010
0100
0010
,  // measure 40
0001
1000
0010
0100
,  // measure 41
0101
0000
1010
0000
,  // measure 42
1100
0011
1001
0000
,  // measure 43
0001
0000
1000
0010
,  // measure 44
0100
0000
0001
0010
,  // measure 45
0100
0000
0010
0001
,  // measure 46
1000
0010
0100
0000
,  // measure 47
0001
0000
0010
0100
,  // measure 48
1000
0000
0010
0100
,  // measure 49
0001
1000
0010
0000
,  // measure 50
0100
0010
1000
0000
,  // measure 51
0001
0000
1000
0100
,  // measure 52
0010
0000
0100
0010
,  // measure 53
0001
0100
0010
0000
,  // measure 54
0100
0001
1000
0100
,  // measure 55
1000
0100
0010
0001
,  // measure 56
0010
0001
1000
0010
,  // measure 57
0100
0001
2000
3200
,  // measure 58
0320
0000
0031
0000
2001
0000
0000
3010
,  // measure 59
0000
0100
0000
0001
,  // measure 60
0010
0000
0100
0000
0120
0000
0000
0031
,  // measure 61
0000
1000
0010
0100
,  // measure 62
0001
0000
0000
0000
1020
0000
0000
0130
,  // measure 63
0000
0001
0000
0010
,  // measure 64
0100
0000
1000
0000
1002
0000
0000
0103
,  // measure 65
0000
0010
0100
0001
,  // measure 66
0000
1001
0000
0000
1020
0000
0000
0130
,  // measure 67
0000
0000
0000
0000
0012
0000
0000
1003
,  // measure 68
0000
0000
0000
0000
0120
0000
0000
1030
,  // measure 69
0000
0000
0000
0000
0012
0000
0000
1003
,  // measure 70
0000
1001
0000
0000
1010
0000
0000
0000
,  // measure 71
1100
0000
0101
0000
,  // measure 72
0011
0000
0220
0000
,  // measure 73
0000
0300
0100
0100
,  // measure 74
0100
0130
1001
0001
,  // measure 75
0010
0100
0010
0001
,  // measure 76
0100
0010
1000
0100
,  // measure 77
0010
0100
0010
0001
,  // measure 78
0200
0000
0310
0100
,  // measure 79
0001
1000
0100
0010
,  // measure 80
0100
0010
0001
0100
,  // measure 81
0010
1000
0010
0100
,  // measure 82
0000
0002
0000
0000
1003
0000
0100
0000
,  // measure 83
0010
0100
0010
0001
,  // measure 84
0100
0010
0100
0001
,  // measure 85
1000
0100
0010
0001
,  // measure 86
0020
0000
0031
0100
,  // measure 87
0010
1000
0100
1000
,  // measure 88
0001
0100
0010
0100
,  // measure 89
0001
0000
0010
0000
0100
0000
0000
0010
,  // measure 90
0000
0110
0000
0000
0101
0000
0001
0000
,  // measure 91
1000
0100
1000
0010
,  // measure 92
0000
0110
0000
0000
1001
0000
0000
0000
;

//---------------dance-single - ----------------
#NOTES:
     dance-single:
     :
     Beginner:
     4:
     0.207,0.339,0.157,0.000,0.000: // measure 1
0000
0000
0000
0000
,  // measure 2
0000
0000
0000
0000
,  // measure 3
0100
0000
0000
0000
,  // measure 4
0010
0000
0000
0000
,  // measure 5
0100
0000
0000
0000
,  // measure 6
0001
0000
1000
0000
,  // measure 7
0001
0000
0000
0000
,  // measure 8
0100
0000
0000
0000
,  // measure 9
0010
0000
0000
0000
,  // measure 10
0100
0000
0000
0000
,  // measure 11
0001
0000
0000
0000
,  // measure 12
0001
0000
0000
0000
,  // measure 13
0001
0000
0000
0000
,  // measure 14
0001
0000
0000
0000
,  // measure 15
1000
0000
0000
0000
,  // measure 16
1000
0000
0000
0000
,  // measure 17
1000
0000
0000
0000
,  // measure 18
1000
0000
0000
0000
,  // measure 19
0010
0000
0000
0000
,  // measure 20
0010
0000
0000
0000
,  // measure 21
0010
0000
0000
0000
,  // measure 22
0010
0000
0000
0000
,  // measure 23
0100
0000
0000
0000
,  // measure 24
0100
0000
0000
0000
,  // measure 25
0100
0000
0000
0000
,  // measure 26
0100
0000
0000
0000
,  // measure 27
0001
0000
0001
0000
,  // measure 28
1000
0000
1000
0000
,  // measure 29
0010
0000
0010
0000
,  // measure 30
0100
0100
0100
0000
,  // measure 31
0001
0000
0001
0000
,  // measure 32
0010
0000
0010
0000
,  // measure 33
0100
0000
0100
0000
,  // measure 34
0010
0010
0010
0000
,  // measure 35
0001
0000
1000
0000
,  // measure 36
0010
0000
0100
0000
,  // measure 37
0001
0000
0010
0000
,  // measure 38
0100
0100
0100
0000
,  // measure 39
0010
0000
0001
0000
,  // measure 40
1000
0000
0010
0000
,  // measure 41
1001
0000
1001
0000
,  // measure 42
1000
0001
1000
0000
,  // measure 43
0000
0000
0010
0000
,  // measure 44
0000
0000
0100
0000
,  // measure 45
0000
0000
0001
0000
,  // measure 46
0000
0000
0010
0000
,  // measure 47
0000
0000
0001
0000
,  // measure 48
0000
0000
0100
0000
,  // measure 49
0000
0000
0010
0000
,  // measure 50
0000
0000
1000
0000
,  // measure 51
0000
0000
0010
0000
,  // measure 52
0000
0000
0100
0000
,  // measure 53
0000
0000
0001
0000
,  // measure 54
0000
0000
0010
0000
,  // measure 55
0000
0000
0100
0000
,  // measure 56
0000
0000
0010
0000
,  // measure 57
0001
0000
1000
0000
,  // measure 58
0000
0000
1001
0000
,  // measure 59
0000
0000
0000
0000
,  // measure 60
0000
0000
1001
0000
,  // measure 61
0000
0000
0000
0000
,  // measure 62
0000
0000
1001
0000
,  // measure 63
0000
0000
0000
0000
,  // measure 64
0000
0000
1001
0000
,  // measure 65
0000
0000
0001
1000
,  // measure 66
0000
0000
1001
0000
,  // measure 67
0001
0000
1001
0000
,  // measure 68
1000
0000
1001
0000
,  // measure 69
0001
0000
1001
0000
,  // measure 70
1000
0000
1001
0000
,  // measure 71
1001
0000
1001
0000
,  // measure 72
1001
0000
1001
0000
,  // measure 73
0000
0000
0001
0001
,  // measure 74
0001
0000
1000
0000
,  // measure 75
0100
0000
0010
0000
,  // measure 76
0100
0000
0010
0000
,  // measure 77
0001
0000
0100
0100
,  // measure 78
0100
0000
0010
0000
,  // measure 79
0100
0000
0001
0000
,  // measure 80
1000
0000
0010
0000
,  // measure 81
0100
0000
0001
0001
,  // measure 82
0001
0000
0010
0000
,  // measure 83
0100
0000
0010
0000
,  // measure 84
0001
0000
0100
0000
,  // measure 85
0010
0000
0100
0100
,  // measure 86
0100
0000
0001
0000
,  // measure 87
1000
0000
0100
0000
,  // measure 88
1000
0000
0010
0000
,  // measure 89
0100
0000
0001
0001
,  // measure 90
0001
0000
1001
0000
,  // measure 91
0001
0000
1000
0000
,  // measure 92
0010
0000
0110
0000
;
