#TITLE:不思議玩具ガンガラディンドン;
#SUBTITLE:;
#ARTIST:マチゲリータ;
#TITLETRANSLIT:Fushigi omocha gangaradindon;
#SUBTITLETRANSLIT:;
#ARTISTTRANSLIT:Machigerita;
#GENRE:;
#CREDIT:;
#BANNER:Fushigi omocha gangaradindon.png;
#BACKGROUND:Fushigi omocha gangaradindon-bg.png;
#LYRICSPATH:;
#CDTITLE:cdtitle.png;
#MUSIC:Fushigi omocha gangaradindon.ogg;
#OFFSET:-1.618;
#SAMPLESTART:52.781;
#SAMPLELENGTH:13.400;
#SELECTABLE:YES;
#BPMS:0.000=150.000
,27.500=300.000
,220.000=100.000
,221.000=300.000
,280.000=150.000
,293.000=300.000
,359.000=150.000
,363.000=300.000
;
#STOPS:27.500=0.700,
29.000=0.200,
30.000=0.200,
277.000=0.200,
278.000=0.200,
279.000=0.200,
282.000=0.100,
282.500=0.100,
285.500=0.100,
286.000=0.100,
289.000=0.100,
289.500=0.100,
291.500=0.200,
292.000=0.200,
292.500=0.200,
419.000=0.200,
420.000=0.200,
421.000=0.200,
422.000=0.200
;
#BGCHANGES:;
#KEYSOUNDS:;
#ATTACKS:;

//---------------dance-single - ----------------
#NOTES:
     dance-single:
     :
     Hard:
     15:
     0.844,1.000,0.792,0.553,0.019,478.000,83.000,58.000,0.000,0.000,0.000,0.844,1.000,0.792,0.553,0.019,478.000,83.000,58.000,0.000,0.000,0.000: // measure 0
0000
0000
0000
0000
,  // measure 1
0000
0000
0000
0000
,  // measure 2
0000
0000
0000
0000
,  // measure 3
0000
0000
0000
0000
,  // measure 4
1000
0000
0000
1000
0001
0000
0000
1000
,  // measure 5
1000
0100
0001
0000
,  // measure 6
0001
0000
0000
0000
0000
0000
0000
0000
0000
0000
0000
0000
0001
0000
0000
0000
1000
0000
0000
0000
0001
0000
0000
0000
0000
0000
0000
0000
2002
3003
0000
0000
,  // measure 7
0000
0110
1001
1000
,  // measure 8
0100
1000
0001
1000
,  // measure 9
0100
0010
0100
0000
1000
0000
0010
0000
,  // measure 10
1000
0100
1000
0000
1000
0100
1000
0000
,  // measure 11
1010
0000
0202
0000
0303
0000
0001
0100
,  // measure 12
0010
0100
0001
0000
1000
0000
0001
0000
,  // measure 13
0010
0100
0010
0000
0001
0000
1000
0010
,  // measure 14
1000
0010
0100
0000
0101
0000
0001
0010
,  // measure 15
0001
0010
0100
1000
0100
1000
0010
0000
,  // measure 16
0100
0001
0100
0010
,  // measure 17
1000
0010
1000
0000
0001
0000
0100
0000
,  // measure 18
0001
0100
0001
0000
0001
0100
0001
0000
,  // measure 19
0110
0000
2002
0000
3003
0000
1000
0010
,  // measure 20
0001
0010
0100
0000
1000
0000
0100
0000
,  // measure 21
0001
0100
0001
0000
1000
0000
0011
0000
,  // measure 22
0000
0101
0000
0000
1100
0000
0000
0000
,  // measure 23
0200
0010
0310
0002
,  // measure 24
0100
1003
0010
2000
,  // measure 25
3100
0002
0103
1000
,  // measure 26
0010
0001
0010
0100
,  // measure 27
0001
1000
0100
0000
0001
0000
1000
0000
,  // measure 28
1000
0000
0110
0000
0000
0010
0100
0000
,  // measure 29
0100
0000
1001
0000
0000
0001
0010
0000
,  // measure 30
0100
1000
0100
0010
,  // measure 31
0011
0000
0011
0000
0001
0010
0200
0000
,  // measure 32
0010
1300
0001
0020
,  // measure 33
0031
0200
0310
1000
,  // measure 34
0010
0001
0010
0100
,  // measure 35
0010
0001
1000
0000
0100
0000
0010
0000
,  // measure 36
0010
0000
1001
0000
0000
1000
0001
0000
,  // measure 37
1000
0110
0000
1001
,  // measure 38
0011
0110
1100
1010
,  // measure 39
0000
0101
0000
0100
,  // measure 40
0000
0100
0001
0000
0000
0001
1000
0000
,  // measure 41
0000
1000
0100
0000
0000
0100
0010
0000
,  // measure 42
0000
0010
0001
0000
0000
0001
1000
0000
,  // measure 43
0100
0001
0100
1100
,  // measure 44
1100
0000
0001
0011
,  // measure 45
0011
0000
0001
2000
,  // measure 46
3010
0002
0013
2000
,  // measure 47
0000
0000
3001
0000
0001
0010
0100
0000
,  // measure 48
0000
0100
1000
0000
0000
1000
0010
0000
,  // measure 49
0000
0010
0001
0000
0000
0001
1000
0000
,  // measure 50
0000
1000
0100
0000
0010
0000
0100
0000
,  // measure 51
0001
0010
0100
1100
,  // measure 52
1100
0000
0001
0011
,  // measure 53
0011
0000
0001
1000
,  // measure 54
0100
0010
0001
0220
,  // measure 55
0330
0000
1001
0000
1000
0000
0001
0100
,  // measure 56
0000
0110
0000
0100
0001
0000
0100
0000
,  // measure 57
0010
1000
0100
0010
,  // measure 58
0001
0000
1100
0000
0100
1000
0000
1000
,  // measure 59
0001
0101
0001
0010
,  // measure 60
0100
1100
1000
0100
,  // measure 61
0010
0001
0010
1000
,  // measure 62
0010
0000
0001
0000
1000
0000
0001
0100
,  // measure 63
0001
0100
0010
0000
1000
0000
0010
1000
,  // measure 64
0000
1001
0000
0001
0100
0000
0010
0000
,  // measure 65
0100
0001
1000
0100
,  // measure 66
0010
0000
0011
0000
1000
0010
0000
0010
,  // measure 67
0100
0001
0010
0100
,  // measure 68
1000
0001
0100
0010
,  // measure 69
1000
0000
0000
0000
0000
0000
0000
0000
2002
3003
0000
0000
0000
0000
0000
0000
0220
0330
0000
0000
0000
0000
0000
0000
2002
3003
0000
0000
0000
0000
0000
0000
,  // measure 70
0100
0000
0000
0000
0000
0000
0000
0000
1001
0000
0000
0000
0000
0000
0000
0000
2002
3003
0000
0000
0022
0033
0000
0000
2002
0000
0000
0000
0000
0000
0000
0000
,  // measure 71
3003
0000
0000
0000
1001
0000
0000
0000
0000
0000
0000
0000
2002
3003
0000
0000
2020
3030
0000
0000
2200
0000
0000
0000
0000
0000
0000
0000
3300
0000
0000
0000
,  // measure 72
1001
0000
0000
0000
0000
0000
0000
0000
2002
3003
0000
0000
0022
0033
0000
0000
1001
0000
0000
0000
1001
0000
0000
0000
1001
0000
0000
0000
0001
0000
0000
0000
,  // measure 73
0010
0100
2000
0000
0000
0000
3001
0000
,  // measure 74
0100
0010
0100
0010
1000
0100
1000
0100
,  // measure 75
0010
0001
0010
0001
0100
0000
0001
0010
,  // measure 76
0100
1000
0010
0100
0010
0100
0010
1000
,  // measure 77
0100
0010
0001
1000
0001
0000
1000
0100
,  // measure 78
1000
0001
0100
0010
0100
0010
0100
0001
,  // measure 79
0010
0100
1000
0100
1000
0100
0010
0001
,  // measure 80
0010
0001
0100
0010
1000
0100
0010
0001
,  // measure 81
0010
0100
2000
0000
0000
0000
3001
0000
,  // measure 82
0010
0001
0100
0001
1000
0001
1000
0100
,  // measure 83
1000
0010
0100
1000
0100
0001
0010
0000
,  // measure 84
0001
0000
0000
1000
0000
0000
0010
0000
0000
1000
0000
0000
0100
0000
0000
1000
0000
0000
0001
0000
0100
0000
0001
0000
,  // measure 85
0100
0001
0100
0010
0000
0000
1000
0000
0000
0001
0000
0000
,  // measure 86
0000
0100
0000
0000
0001
0000
0010
0000
,  // measure 87
0100
1000
0001
0011
,  // measure 88
0000
0101
0000
0000
0110
0000
0000
0000
,  // measure 89
1010
0000
0000
0000
0000
0000
0000
0000
0000
0000
0000
0000
0000
0000
0000
0000
0010
0000
0000
0000
0100
0000
0000
0000
0002
0003
0000
0000
0000
0000
0000
0000
,  // measure 90
0020
0030
0000
0000
0000
0000
0000
0000
0200
0300
0000
0000
0000
0000
0000
0000
2000
3000
0000
0000
0000
0000
0000
0000
0101
0000
0000
0000
0000
0000
0000
0000
,  // measure 91
0100
0110
0010
1010
,  // measure 92
0001
0100
0000
0100
0001
0000
1100
0000
,  // measure 93
0100
0110
0010
0011
,  // measure 94
1000
0100
0000
0100
1000
0000
1001
0000
,  // measure 95
0001
0011
0010
0110
,  // measure 96
1000
0001
0000
0001
1000
0000
0002
0000
,  // measure 97
0010
0023
0100
0230
,  // measure 98
1000
2300
0000
3001
,  // measure 99
0010
0000
0100
0001
0100
0000
0110
0000
,  // measure 100
0010
0001
0000
0001
0100
0000
1000
0000
,  // measure 101
0100
0000
0010
1000
0010
0000
0110
0000
,  // measure 102
0100
0001
0000
0001
1000
0000
1100
0000
,  // measure 103
0001
0000
0010
0100
0001
0000
0100
0000
,  // measure 104
1000
0000
0000
0000
0010
0000
0000
0000
0001
0000
0000
0000
0010
0000
0000
0000
0100
0000
0000
0000
0000
0000
0000
0000
0220
0330
0000
0000
0000
0000
0000
0000
,  // measure 105
0202
0303
0000
0000
0000
0000
0000
0000
0022
0033
0000
0000
0000
0000
0000
0000
2200
3300
0000
0000
0000
0000
0000
0000
1001
0000
0000
0000
0000
0000
0000
0000
,  // measure 106
1100
0110
0011
0101
,  // measure 107
1010
1001
0000
0000
;

//---------------dance-single - ----------------
#NOTES:
     dance-single:
     :
     Medium:
     11:
     0.567,1.000,0.372,0.477,0.000,327.000,39.000,50.000,0.000,0.000,0.000,0.567,1.000,0.372,0.477,0.000,327.000,39.000,50.000,0.000,0.000,0.000: // measure 0
0000
0000
0000
0000
,  // measure 1
0000
0000
0000
0000
,  // measure 2
0000
0000
0000
0000
,  // measure 3
0000
0000
0000
0000
,  // measure 4
1000
0000
0110
0000
,  // measure 5
0001
0001
0110
0000
,  // measure 6
1000
0000
0000
0000
0001
0000
0000
0110
,  // measure 7
0000
0100
0100
0001
,  // measure 8
0000
1000
0000
0001
,  // measure 9
0100
0001
0100
0010
,  // measure 10
0000
0010
0000
0010
,  // measure 11
1000
0100
0000
1000
,  // measure 12
0000
0001
0000
1000
,  // measure 13
0100
1000
0100
0010
,  // measure 14
0010
0010
0000
0001
,  // measure 15
0010
0100
1000
0001
,  // measure 16
0100
0001
0000
0001
,  // measure 17
0010
0100
0010
0001
,  // measure 18
0000
0101
0000
1001
,  // measure 19
0100
1000
0000
1000
,  // measure 20
0100
1000
0010
0100
,  // measure 21
0001
1000
0100
1001
,  // measure 22
0000
0110
0000
0000
1001
0000
0000
0000
,  // measure 23
0100
0001
0001
2000
,  // measure 24
0000
3100
0000
0002
,  // measure 25
0000
0103
0000
1000
,  // measure 26
0100
0001
0100
2000
,  // measure 27
0000
3002
0000
0103
,  // measure 28
0100
0110
0000
0010
,  // measure 29
0010
0110
0000
0001
,  // measure 30
1000
0100
0010
0001
,  // measure 31
1100
1100
1000
0002
,  // measure 32
0000
0103
0000
2000
,  // measure 33
0000
3100
0000
0001
,  // measure 34
0100
1000
0100
0002
,  // measure 35
0000
2003
0000
3010
,  // measure 36
0010
0110
0000
1000
,  // measure 37
0000
0101
0000
0001
,  // measure 38
0010
0100
1000
1001
,  // measure 39
0000
1001
0000
0020
,  // measure 40
0000
1000
0000
2030
,  // measure 41
0000
0100
0000
3200
,  // measure 42
0000
0010
0000
0310
,  // measure 43
0001
0010
0100
1100
,  // measure 44
1100
0000
0000
0011
,  // measure 45
0011
0000
0000
0100
,  // measure 46
0001
0100
0001
2000
,  // measure 47
0000
3010
0000
0200
,  // measure 48
0000
0001
0000
0302
,  // measure 49
0000
0010
0000
0023
,  // measure 50
0000
0130
1000
0100
,  // measure 51
1000
0010
1000
1010
,  // measure 52
1010
0000
0000
0101
,  // measure 53
0101
0000
0001
1000
,  // measure 54
0100
0000
0000
0000
0000
0000
0000
0000
0010
0000
0000
0000
0000
0000
0000
0000
0001
0000
0000
0000
0000
0000
0000
0000
2002
3003
0000
0000
0000
0000
0000
0000
,  // measure 55
0000
1000
0100
1000
,  // measure 56
0100
1000
0010
0100
,  // measure 57
0000
0001
0010
0001
,  // measure 58
0100
0020
0000
1030
,  // measure 59
0000
0001
0010
0001
,  // measure 60
0100
0010
1000
0010
,  // measure 61
0100
0001
1000
0001
,  // measure 62
1000
0002
0000
1003
,  // measure 63
0000
0001
0010
0001
,  // measure 64
0010
0001
0100
0010
,  // measure 65
0000
1000
0100
1000
,  // measure 66
0010
0200
0000
0301
,  // measure 67
0000
1000
0010
0100
,  // measure 68
0001
1000
0001
0010
,  // measure 69
0100
0000
0000
0000
0000
0000
0000
0000
2000
3000
0000
0000
0000
0000
0000
0000
0002
0003
0000
0000
0000
0000
0000
0000
2002
3003
0000
0000
0000
0000
0000
0000
,  // measure 70
0000
0000
0000
0000
0000
0000
0000
0000
0110
0000
0000
0000
0000
0000
0000
0000
0002
0003
0000
0000
0002
0003
0000
0000
0002
0003
0000
0000
0000
0000
0000
0000
,  // measure 71
0000
0000
0000
0000
0110
0000
0000
0000
0000
0000
0000
0000
2000
3000
0000
0000
2000
3000
0000
0000
2000
3000
0000
0000
0000
0000
0000
0000
0000
0000
0000
0000
,  // measure 72
0110
0000
0000
0000
0000
0000
0000
0000
0002
0003
0000
0000
0002
0003
0000
0000
0002
0003
0000
0000
0000
0000
0000
0000
0000
0000
0000
0000
2000
3000
0000
0000
,  // measure 73
0002
0003
0000
0000
2002
0000
0000
0000
3003
0000
0000
0000
0000
0000
0000
0000
0000
0000
0000
0000
0000
0000
0000
0000
0001
0000
0000
0000
0000
0000
0000
0000
,  // measure 74
1000
0001
0100
0001
,  // measure 75
1000
0001
0100
0010
,  // measure 76
0100
0001
0010
0100
,  // measure 77
1000
0100
0000
1000
,  // measure 78
0010
1000
0001
1000
,  // measure 79
0010
1000
0001
0010
,  // measure 80
0100
1000
0100
0010
,  // measure 81
0001
0100
0000
0010
,  // measure 82
1000
0010
0100
0010
,  // measure 83
1000
0010
0100
0001
,  // measure 84
1000
0100
1000
0010
,  // measure 85
0100
0001
0000
1000
,  // measure 86
0000
0001
0000
1000
,  // measure 87
0001
1000
0001
0110
,  // measure 88
0000
1001
0000
0000
0110
0000
0000
0000
,  // measure 89
0100
0000
0000
0000
0000
0000
0000
0000
0000
0000
0000
0000
0000
0000
0000
0000
0200
0000
0000
0000
0000
0000
0000
0000
0000
0300
0000
0000
0000
0000
0000
0000
,  // measure 90
0000
0000
0000
0001
,  // measure 91
0010
0001
0010
0001
,  // measure 92
0010
0100
0000
1000
,  // measure 93
0010
1000
0010
1000
,  // measure 94
0010
0100
0000
0001
,  // measure 95
1000
0001
0100
0001
,  // measure 96
1000
0001
0010
0200
,  // measure 97
0000
2300
0000
3002
,  // measure 98
0000
0203
0000
0310
,  // measure 99
0100
0010
1000
0010
,  // measure 100
0100
0001
0000
0100
,  // measure 101
0010
0100
0001
0100
,  // measure 102
0010
1000
0000
0001
,  // measure 103
0100
0001
1000
0100
,  // measure 104
0010
0000
0000
0000
0000
0000
0000
0000
0001
0000
0000
0000
0000
0000
0000
0000
1000
0000
0000
0000
0000
0000
0000
0000
2002
3003
0000
0000
0000
0000
0000
0000
,  // measure 105
0220
0330
0000
0000
0000
0000
0000
0000
2002
3003
0000
0000
0000
0000
0000
0000
0220
0330
0000
0000
0000
0000
0000
0000
0010
0000
0000
0000
0000
0000
0000
0000
,  // measure 106
1000
0001
0100
0010
,  // measure 107
1001
1001
0000
0000
;

//---------------dance-single - ----------------
#NOTES:
     dance-single:
     :
     Easy:
     8:
     0.420,0.972,0.305,0.343,0.000,240.000,32.000,36.000,0.000,0.000,0.000,0.420,0.972,0.305,0.343,0.000,240.000,32.000,36.000,0.000,0.000,0.000: // measure 0
0000
0000
0000
0000
,  // measure 1
0000
0000
0000
0000
,  // measure 2
0000
0000
0000
0000
,  // measure 3
0000
0000
0000
0000
,  // measure 4
1000
0000
0001
0000
,  // measure 5
1000
1000
0001
0000
,  // measure 6
0100
0000
0000
0000
0010
0000
0000
0110
,  // measure 7
0000
0000
0000
1000
,  // measure 8
0000
0001
0000
1000
,  // measure 9
0000
0001
0000
0100
,  // measure 10
0000
0100
0000
0100
,  // measure 11
0001
0100
0000
0001
,  // measure 12
0000
1000
0000
0001
,  // measure 13
0000
1000
0000
0010
,  // measure 14
1000
0010
0000
1000
,  // measure 15
0010
1000
0000
0001
,  // measure 16
0000
0100
0000
0001
,  // measure 17
0000
1000
0000
0010
,  // measure 18
0000
0010
0000
0010
,  // measure 19
1000
0010
0000
1000
,  // measure 20
0000
0001
0000
1000
,  // measure 21
0001
1000
0000
0100
,  // measure 22
0000
0100
0000
0000
0100
0000
0000
0000
,  // measure 23
0000
1001
0000
2000
,  // measure 24
0000
3001
0000
0002
,  // measure 25
0000
0103
0000
0100
,  // measure 26
0001
0100
0001
0100
,  // measure 27
0000
0010
0000
1000
,  // measure 28
0000
1001
0000
0001
,  // measure 29
0000
1001
0000
0100
,  // measure 30
0010
0100
0010
0100
,  // measure 31
0000
0001
0000
0200
,  // measure 32
0000
0310
0000
0020
,  // measure 33
0000
1030
0000
0010
,  // measure 34
1000
0010
1000
0010
,  // measure 35
0000
1000
0000
0100
,  // measure 36
0000
0110
0000
0010
,  // measure 37
0000
0110
0000
0001
,  // measure 38
1000
0001
1000
0010
,  // measure 39
0000
1001
0000
0002
,  // measure 40
0000
0000
0000
0203
,  // measure 41
0000
0000
0000
0320
,  // measure 42
0000
0000
0000
1030
,  // measure 43
0010
1000
0010
1000
,  // measure 44
0010
0000
0000
0100
,  // measure 45
0001
0000
0000
0100
,  // measure 46
0000
0010
0000
0100
,  // measure 47
0000
0000
0000
0020
,  // measure 48
0000
0000
0000
2030
,  // measure 49
0000
0000
0000
3002
,  // measure 50
0000
0000
0000
0103
,  // measure 51
0001
0100
0001
0100
,  // measure 52
0001
0000
0000
1000
,  // measure 53
0010
0000
0000
0100
,  // measure 54
0010
0000
0000
0000
0000
0000
0000
0000
0100
0000
0000
0000
0000
0000
0000
0000
0010
0000
0000
0000
0000
0000
0000
0000
0200
0300
0000
0000
0000
0000
0000
0000
,  // measure 55
0000
0101
0000
1001
,  // measure 56
0000
1000
0100
1000
,  // measure 57
0000
0001
0000
0001
,  // measure 58
0100
0002
0000
0003
,  // measure 59
0000
1000
0100
1000
,  // measure 60
0000
1000
0010
1000
,  // measure 61
0000
1000
0001
1000
,  // measure 62
0001
2000
0000
3000
,  // measure 63
0000
0110
0000
0101
,  // measure 64
0000
0001
0010
0001
,  // measure 65
0000
1000
0000
1000
,  // measure 66
0010
2000
0000
3000
,  // measure 67
0000
0001
0010
0001
,  // measure 68
0000
0001
0100
0001
,  // measure 69
0000
0000
0000
0000
0000
0000
0000
0000
0002
0003
0000
0000
0000
0000
0000
0000
2000
3000
0000
0000
0000
0000
0000
0000
2002
3003
0000
0000
0000
0000
0000
0000
,  // measure 70
0000
0200
0000
0300
,  // measure 71
0000
0020
0000
0000
0000
0030
0000
0000
,  // measure 72
2000
0000
0000
0000
3000
0000
0000
0002
,  // measure 73
0000
0003
0000
0100
,  // measure 74
0000
0100
0000
0001
,  // measure 75
0100
0001
0000
1000
,  // measure 76
0000
1000
0000
0010
,  // measure 77
0100
0010
0000
1000
,  // measure 78
0000
0100
0000
0010
,  // measure 79
0000
0001
0000
0010
,  // measure 80
0000
0100
0000
1000
,  // measure 81
0001
1000
0000
0002
,  // measure 82
0000
0103
0000
0100
,  // measure 83
0010
0100
0000
0020
,  // measure 84
0000
1030
0000
1000
,  // measure 85
0100
1000
0000
0002
,  // measure 86
0000
0203
0000
0320
,  // measure 87
0000
2030
0000
3001
,  // measure 88
0000
0001
0000
0000
0001
0000
0000
0000
,  // measure 89
0100
0000
0100
0000
,  // measure 90
0000
0000
0000
0101
,  // measure 91
0000
0101
0000
0001
,  // measure 92
1000
0001
0000
1100
,  // measure 93
0000
1100
0000
1000
,  // measure 94
0010
1000
0000
0110
,  // measure 95
0000
0110
0000
0100
,  // measure 96
0001
0100
0000
1001
,  // measure 97
0000
0110
0000
1001
,  // measure 98
0000
0110
0000
1010
,  // measure 99
0000
1010
0000
1000
,  // measure 100
0001
1000
0000
0101
,  // measure 101
0000
0101
0000
0001
,  // measure 102
1000
0001
0000
1100
,  // measure 103
0000
1100
0000
1000
,  // measure 104
0001
0000
0000
0000
0000
0000
0000
0000
1000
0000
0000
0000
0000
0000
0000
0000
0000
0000
0000
0000
0000
0000
0000
0000
0220
0330
0000
0000
0000
0000
0000
0000
,  // measure 105
0220
0330
0000
0000
0000
0000
0000
0000
2002
3003
0000
0000
0000
0000
0000
0000
2002
3003
0000
0000
0000
0000
0000
0000
1000
0000
0000
0000
0000
0000
0000
0000
,  // measure 106
0001
1000
0001
1000
,  // measure 107
0001
1000
0000
0000
;

//---------------dance-single - ----------------
#NOTES:
     dance-single:
     :
     Beginner:
     4:
     0.192,0.205,0.067,0.114,0.000,122.000,7.000,12.000,0.000,0.000,0.000,0.192,0.205,0.067,0.114,0.000,122.000,7.000,12.000,0.000,0.000,0.000: // measure 0
0000
0000
0000
0000
,  // measure 1
0000
0000
0000
0000
,  // measure 2
0000
0000
0000
0000
,  // measure 3
0000
0000
0000
0000
,  // measure 4
1000
0000
0000
0000
,  // measure 5
1000
0000
0000
0000
,  // measure 6
1000
0000
0000
0000
0000
0000
0000
0001
,  // measure 7
0000
0000
0000
0000
,  // measure 8
0000
1000
0000
0000
,  // measure 9
0000
1000
0000
0000
,  // measure 10
0000
0001
0000
0000
,  // measure 11
0000
0001
0000
0000
,  // measure 12
0000
1000
0000
0000
,  // measure 13
0000
1000
0000
0000
,  // measure 14
0000
0001
0000
0000
,  // measure 15
0000
0001
0000
0000
,  // measure 16
0000
0100
0000
0000
,  // measure 17
0000
0100
0000
0000
,  // measure 18
0000
0010
0000
0000
,  // measure 19
0000
0010
0000
0000
,  // measure 20
0000
1000
0000
0000
,  // measure 21
0000
0001
0000
0001
,  // measure 22
0000
0000
0000
0000
,  // measure 23
0000
0000
0000
2000
,  // measure 24
0000
3000
0000
0002
,  // measure 25
0000
0003
0000
1000
,  // measure 26
0000
1000
0000
1000
,  // measure 27
0000
0000
0000
0110
,  // measure 28
0000
0000
0000
0110
,  // measure 29
0000
0000
0000
0100
,  // measure 30
0000
0100
0000
0100
,  // measure 31
0000
0000
0000
0002
,  // measure 32
0000
0003
0000
2000
,  // measure 33
0000
3000
0000
0001
,  // measure 34
0000
0001
0000
0001
,  // measure 35
0000
0000
0000
0110
,  // measure 36
0000
0000
0000
0110
,  // measure 37
0000
0000
0000
0100
,  // measure 38
0000
0100
0000
0100
,  // measure 39
0000
0000
0000
0002
,  // measure 40
0000
0003
0000
0200
,  // measure 41
0000
0300
0000
0002
,  // measure 42
0000
0003
0000
0200
,  // measure 43
0000
0300
0000
0010
,  // measure 44
0000
0000
0000
0010
,  // measure 45
0000
0000
0000
0010
,  // measure 46
0000
0010
0000
0010
,  // measure 47
0000
0000
0000
2000
,  // measure 48
0000
3000
0000
0200
,  // measure 49
0000
0300
0000
2000
,  // measure 50
0000
3000
0000
0020
,  // measure 51
0000
0030
0000
0100
,  // measure 52
0000
0000
0000
0100
,  // measure 53
0000
0000
0000
0100
,  // measure 54
0000
0100
0000
0100
,  // measure 55
0000
0000
0000
0000
,  // measure 56
0000
0001
0000
0000
,  // measure 57
0000
1000
0000
0000
,  // measure 58
0000
0001
0000
0000
,  // measure 59
0000
0100
0000
0000
,  // measure 60
0000
0100
0000
0000
,  // measure 61
0000
0010
0000
0010
,  // measure 62
0000
0010
0000
0000
,  // measure 63
0000
1000
0000
0000
,  // measure 64
0000
0001
0000
0000
,  // measure 65
0000
1000
0000
0000
,  // measure 66
0000
0001
0000
0000
,  // measure 67
0000
0100
0000
0100
,  // measure 68
0000
0100
0000
0000
,  // measure 69
0000
0110
0000
0000
,  // measure 70
0000
0001
0000
0000
,  // measure 71
0000
1000
0000
0000
0000
0000
0000
0000
,  // measure 72
0001
0000
0000
0000
0000
0000
0000
1000
,  // measure 73
0000
0000
0000
0000
,  // measure 74
0000
0001
0000
0000
,  // measure 75
0000
0001
0000
0000
,  // measure 76
0000
1000
0000
0001
,  // measure 77
0000
1000
0000
0000
,  // measure 78
0000
1000
0000
0000
,  // measure 79
0000
1000
0000
0000
,  // measure 80
0000
1000
0000
0010
,  // measure 81
0000
1000
0000
0000
,  // measure 82
0000
0010
0000
0000
,  // measure 83
0000
0010
0000
0000
,  // measure 84
0000
0010
0000
0100
,  // measure 85
0000
0010
0000
0000
,  // measure 86
0000
0100
0000
0000
,  // measure 87
0000
0001
0000
1000
,  // measure 88
0000
0000
0000
0001
,  // measure 89
0000
0000
0000
1001
,  // measure 90
0000
0000
0000
0000
,  // measure 91
0000
1000
0000
1000
,  // measure 92
0000
1000
0000
0000
,  // measure 93
0000
0001
0000
0001
,  // measure 94
0000
0001
0000
0000
,  // measure 95
0000
0100
0000
0100
,  // measure 96
0000
0100
0000
0010
,  // measure 97
0000
0010
0000
0010
,  // measure 98
0000
0010
0000
0000
,  // measure 99
0000
1000
0000
1000
,  // measure 100
0000
1000
0000
0000
,  // measure 101
0000
0001
0000
0001
,  // measure 102
0000
0001
0000
0000
,  // measure 103
0000
1000
0000
0001
,  // measure 104
0000
0100
0000
0010
,  // measure 105
0000
0000
0000
0000
,  // measure 106
0000
0100
0000
0000
,  // measure 107
0000
1001
0000
0000
;
