#TITLE:Blue Rain Dustboxxxx RMX;
#SUBTITLE:;
#ARTIST:Dustboxxxx;
#TITLETRANSLIT:;
#SUBTITLETRANSLIT:;
#ARTISTTRANSLIT:;
#GENRE:;
#CREDIT:;
#BANNER:Blue Rain Dustboxxxx RMX.png;
#BACKGROUND:Blue Rain Dustboxxxx RMX-bg.png;
#LYRICSPATH:;
#CDTITLE:;
#MUSIC:Blue Rain Dustboxxxx RMX.mp3;
#OFFSET:-3.320;
#SAMPLESTART:70.080;
#SAMPLELENGTH:15.000;
#SELECTABLE:YES;
#BPMS:0.000=178.000
,136.000=89.000
,152.000=178.000
;
#STOPS:
;
#BGCHANGES:;
#KEYSOUNDS:;
#ATTACKS:;

//---------------dance-single - ----------------
#NOTES:
     dance-single:
     :
     Hard:
     14:
     0.719,0.728,0.284,0.434,0.284,517.000,34.000,52.000,0.000,0.000,0.000,0.719,0.728,0.284,0.434,0.284,517.000,34.000,52.000,0.000,0.000,0.000: // measure 0
1001
0000
0000
0000
1000
0000
0020
0000
0000
0000
0000
0000
1030
0000
0000
1000
,  // measure 1
0001
0001
0020
0031
0020
0031
0100
0000
,  // measure 2
0010
0000
0000
0000
0010
0000
2000
0000
0000
0000
0000
0000
3100
0000
0000
0100
,  // measure 3
1000
1000
0020
1030
0020
1030
0100
0000
,  // measure 4
0110
0000
0000
0000
0001
0000
0200
0000
0000
0000
0000
0000
0310
0000
0000
0100
,  // measure 5
0001
0001
0200
0301
0200
0000
0302
0000
,  // measure 6
2003
0000
0000
0000
3010
0000
0000
1000
0001
0000
1000
0000
0001
0000
0000
0000
,  // measure 7
0002
0023
0230
1300
,  // measure 8
1001
0000
0000
0000
1000
0000
1020
0000
0000
0000
0000
0000
0130
0000
0000
0100
,  // measure 9
0001
0010
0200
1300
0200
1300
0010
0000
,  // measure 10
0011
0000
0100
0102
0000
0000
0013
0001
,  // measure 11
1000
0000
0100
0000
0020
0000
0031
0000
0100
0001
0100
0001
2000
0000
3000
0000
,  // measure 12
1001
0000
0000
0000
0100
0000
0120
0000
0000
0000
0000
0000
1030
0000
0000
0010
,  // measure 13
1000
0010
0200
0301
0200
0000
0000
0000
,  // measure 14
0310
0100
0010
0100
0001
1000
0001
1000
,  // measure 15
0020
0000
0200
0330
,  // measure 16
1001
0000
1000
0100
0010
0100
0010
0001
,  // measure 17
0010
0000
0001
0010
0100
0010
0100
1000
,  // measure 18
0100
0000
1000
0010
1000
0100
0010
0100
,  // measure 19
1000
0000
0001
0010
0100
1000
0001
0100
,  // measure 20
0110
0000
1000
0001
0100
0001
0010
0100
,  // measure 21
1000
0000
0000
0000
0001
0000
1000
0000
0100
0000
0000
1000
0000
0000
0100
0000
,  // measure 22
0010
0000
0100
0000
2000
0000
0000
0000
0000
0000
0000
0000
3001
0100
0001
0000
,  // measure 23
0210
0302
2000
3003
,  // measure 24
0110
0100
0001
0100
0010
0100
0001
0100
,  // measure 25
0010
1000
0010
0100
0010
1000
0010
0000
,  // measure 26
0001
1000
0010
0100
0010
1000
0100
0010
,  // measure 27
0100
1000
0100
0010
0001
0100
0010
1000
,  // measure 28
1001
0000
0100
0010
1000
0010
0001
0010
,  // measure 29
0100
0000
0010
0000
0100
0000
0001
0000
0010
0000
0000
0100
0000
0000
0010
0000
,  // measure 30
0110
0000
1000
0000
0000
0000
1000
0000
0000
0000
1000
0000
0001
1000
0001
1000
,  // measure 31
0010
0000
0100
0002
0000
0000
1003
0000
,  // measure 32
0220
0000
0000
0000
,  // measure 33
0000
0330
0020
2030
,  // measure 34
3002
0000
0000
0000
0013
0000
1000
0100
,  // measure 35
0020
0000
0000
0000
1030
0000
0001
1000
,  // measure 36
0200
0000
0000
0000
1300
0000
0010
1000
,  // measure 37
0002
0000
0000
0000
1003
0010
0100
0010
,  // measure 38
2001
0000
0000
0000
,  // measure 39
3010
0000
0100
0010
,  // measure 40
0001
0010
0001
0000
0000
0000
1000
0100
,  // measure 41
1000
0000
0010
0100
,  // measure 42
0001
0010
0001
0010
0100
1000
0100
1000
,  // measure 43
0100
0010
0100
0010
0001
1000
0001
1000
,  // measure 44
0100
1000
0100
0000
0010
0100
0010
0000
0001
0010
0001
0000
0100
0010
0100
0000
,  // measure 45
0110
0000
0000
1010
0000
0000
1100
0000
0000
1010
0000
0000
0001
0000
1000
0000
,  // measure 46
1001
0001
1000
0100
1000
0010
0001
0010
,  // measure 47
1000
0010
0100
0010
2000
0000
3002
0000
,  // measure 48
0103
0010
1000
0100
0010
1000
0010
0100
,  // measure 49
1000
0001
0010
1000
0020
0000
0032
0000
,  // measure 50
1003
0100
0001
0100
1000
0010
0001
0010
,  // measure 51
0100
0010
1000
0010
0200
0000
0301
0000
,  // measure 52
1001
0000
0000
0000
0001
0000
0000
0000
0001
0000
0000
0000
1000
0001
1000
0001
,  // measure 53
0100
0000
0000
0000
0110
0000
0000
0000
1100
0000
0000
1010
0000
0000
0101
0000
,  // measure 54
1001
0001
0010
0100
0010
0100
1000
0010
,  // measure 55
0100
0001
0100
0010
1000
0100
1000
0010
,  // measure 56
0100
0001
0010
0100
1000
0010
1000
0100
,  // measure 57
0010
0000
0001
0000
0010
0000
0001
0000
0010
0001
0010
0100
1000
0000
0000
0000
,  // measure 58
1000
0000
0100
0000
0010
0000
0002
0000
0010
0000
0000
0000
0103
0000
0000
0100
,  // measure 59
0001
0010
0100
1000
0002
0000
2003
0000
,  // measure 60
3020
0000
0000
0000
,  // measure 61
0100
0000
0000
0100
0000
0000
0200
0000
0000
0000
0000
0000
0330
0000
0000
0000
,  // measure 62
1000
0000
0000
0000
0000
0000
0000
0000
0000
0001
0000
0000
0000
0000
0000
0000
0000
0000
1000
0000
0000
0000
0000
0000
0010
0000
0000
0000
0100
0000
0000
0000
0010
0000
0000
0000
2000
0000
0000
0000
0000
0000
0000
0000
0000
0000
0000
0000
,  // measure 63
3001
0000
0001
0100
0000
0100
0010
0000
1000
0000
0010
0000
0100
0000
0001
0000
,  // measure 64
1000
0010
0000
0010
1000
0000
0100
0001
0000
0001
0100
0000
0010
0000
1000
0000
,  // measure 65
0100
0000
0100
0010
0000
0010
0001
0000
0100
0000
0010
0000
1000
0000
0010
0000
,  // measure 66
0100
0000
0100
0001
0000
0001
0010
0000
0001
0000
0010
0000
0001
0000
0100
0000
,  // measure 67
0010
0000
1000
0100
1000
0000
0010
0000
0100
0010
0000
0010
1000
0000
0001
0000
,  // measure 68
1000
0000
0100
1000
0100
0000
0010
0000
0100
1000
0000
1000
0010
0000
0001
0000
,  // measure 69
0110
0000
0000
1000
0000
0000
0010
0000
0000
0100
0000
0000
0001
0100
0010
1000
,  // measure 70
0100
0000
0000
0000
1001
0000
0000
0000
0110
0000
0000
0101
0000
0000
1010
0000
,  // measure 71
1001
0000
1000
0001
0000
0001
0100
0000
0010
0000
0100
0000
0010
0000
1000
0000
,  // measure 72
0100
0000
1000
0010
0000
0010
0100
0000
0001
0010
0001
0000
0100
0000
0010
0000
,  // measure 73
1000
0000
1000
0100
0000
0100
0010
0000
0100
0000
0010
0000
0001
0000
1000
0000
,  // measure 74
0001
0000
0001
0100
0000
0100
0010
0000
0100
0000
0010
0000
1000
0000
0100
0000
,  // measure 75
0010
0000
0100
0000
1000
0010
1000
0000
0001
0100
0000
0100
0010
0000
0100
0000
,  // measure 76
0001
0000
0010
0000
0001
0100
0001
0000
0010
1000
0000
1000
0100
0000
1000
0000
,  // measure 77
1001
0000
0001
0000
0000
0000
0010
0000
0000
0000
0100
0000
1000
0010
1000
0010
,  // measure 78
0100
0000
0000
0010
0000
0000
1000
0000
0100
0000
0010
0000
0002
0000
2000
0000
,  // measure 79
0000
3003
0000
0000
;

//---------------dance-single - ----------------
#NOTES:
     dance-single:
     :
     Beginner:
     2:
     0.190,0.165,0.050,0.167,0.000,133.000,6.000,20.000,0.000,0.000,0.000,0.190,0.165,0.050,0.167,0.000,133.000,6.000,20.000,0.000,0.000,0.000: // measure 0
1000
0000
1000
0000
,  // measure 1
0010
0000
0000
0000
,  // measure 2
0100
0000
0100
0000
,  // measure 3
0001
0000
0000
0000
,  // measure 4
0010
0000
0010
0000
,  // measure 5
0100
0000
0000
0000
,  // measure 6
1000
0000
1000
0000
,  // measure 7
0002
0000
0000
0003
,  // measure 8
0001
0000
0001
0000
,  // measure 9
0010
0000
0000
0000
,  // measure 10
1000
0000
1000
0000
,  // measure 11
0100
0000
0000
0000
,  // measure 12
1000
0000
1000
0000
,  // measure 13
0010
0000
0010
0000
,  // measure 14
0001
0000
0001
0000
,  // measure 15
2000
0000
0000
3000
,  // measure 16
1000
0000
1000
0000
,  // measure 17
0100
0000
0100
0000
,  // measure 18
0010
0000
0010
0000
,  // measure 19
0001
0000
0001
0000
,  // measure 20
1000
0000
1000
0000
,  // measure 21
0010
0000
0010
0000
,  // measure 22
0100
0000
0100
0000
,  // measure 23
0002
0000
0003
0000
,  // measure 24
0001
0000
0001
0000
,  // measure 25
0100
0000
0100
0000
,  // measure 26
0010
0000
0010
0000
,  // measure 27
1000
0000
1000
0000
,  // measure 28
0001
0000
0001
0000
,  // measure 29
0010
0000
0010
0000
,  // measure 30
0200
0000
0300
0000
,  // measure 31
1000
0000
1000
0000
,  // measure 32
2002
0000
0000
0000
,  // measure 33
0000
0000
3003
0000
,  // measure 34
0002
0000
0003
0000
,  // measure 35
2000
0000
3000
0000
,  // measure 36
0020
0000
0030
0000
,  // measure 37
0200
0000
0300
0000
,  // measure 38
0002
0000
0003
0000
,  // measure 39
0020
0000
0030
0000
,  // measure 40
0200
0000
0300
0000
,  // measure 41
2000
0000
3000
0000
,  // measure 42
1000
0000
1000
0000
,  // measure 43
0010
0000
0010
0000
,  // measure 44
0100
0000
0100
0000
,  // measure 45
0001
0001
0001
0000
,  // measure 46
1001
0000
0010
0000
,  // measure 47
0100
0000
0010
0000
,  // measure 48
1000
0000
0001
0000
,  // measure 49
1000
0000
0001
0000
,  // measure 50
0100
0000
0001
0000
,  // measure 51
0100
0000
0001
0000
,  // measure 52
0010
0000
1000
0000
,  // measure 53
0010
0010
0010
0000
,  // measure 54
0110
0000
0100
0000
,  // measure 55
1000
0000
0100
0000
,  // measure 56
0001
0000
0010
0000
,  // measure 57
0001
0000
0020
0030
,  // measure 58
0010
0000
0000
0000
,  // measure 59
0100
0000
0000
0000
,  // measure 60
2000
0000
3000
0000
,  // measure 61
0002
0000
0003
0000
,  // measure 62
1001
0000
0000
0000
,  // measure 63
0001
0000
0001
0000
,  // measure 64
0010
0000
0010
0000
,  // measure 65
0100
0000
0100
0000
,  // measure 66
1000
0000
1000
0000
,  // measure 67
0010
0000
0010
0000
,  // measure 68
0100
0000
0100
0000
,  // measure 69
0002
0000
0003
0000
,  // measure 70
1000
1000
1000
0000
,  // measure 71
0010
0000
0100
0000
,  // measure 72
0010
0000
1000
0000
,  // measure 73
0100
0000
0010
0000
,  // measure 74
0100
0000
0001
0000
,  // measure 75
0010
0000
1000
0000
,  // measure 76
0010
0000
0001
0000
,  // measure 77
1001
0000
0000
0000
,  // measure 78
0220
0000
0000
0000
,  // measure 79
0330
0000
0000
0000
;

//---------------dance-single - ----------------
#NOTES:
     dance-single:
     :
     Easy:
     5:
     0.378,0.363,0.033,0.359,0.000,270.000,4.000,43.000,0.000,0.000,0.000,0.378,0.363,0.033,0.359,0.000,270.000,4.000,43.000,0.000,0.000,0.000: // measure 0
1000
0000
0000
0002
0000
0000
0000
0000
,  // measure 1
0103
0010
0100
0010
,  // measure 2
1000
0000
0000
0002
0000
0000
0000
0000
,  // measure 3
0103
0010
0100
0010
,  // measure 4
0001
0000
0000
2000
0000
0000
0000
0000
,  // measure 5
3010
0100
0010
0100
,  // measure 6
0001
0001
1000
1000
,  // measure 7
0020
0000
0000
0130
,  // measure 8
0100
0000
0000
0020
0000
0000
0000
0000
,  // measure 9
1030
0001
1000
0001
,  // measure 10
0010
0000
0000
0200
0000
0000
0000
0000
,  // measure 11
1300
0001
1000
0001
,  // measure 12
1000
0000
0000
0200
0000
0000
0000
0000
,  // measure 13
0310
0001
0020
0000
,  // measure 14
1030
0100
0010
0001
,  // measure 15
2000
0000
0000
3001
,  // measure 16
0010
0010
0100
0000
,  // measure 17
0001
0001
1000
1000
,  // measure 18
0100
0100
0010
0000
,  // measure 19
1000
1000
0001
0001
,  // measure 20
1000
0010
1000
0000
,  // measure 21
0001
0100
0001
0100
,  // measure 22
0020
0000
0000
0030
,  // measure 23
0001
1000
0020
0000
,  // measure 24
0130
0010
1000
0010
,  // measure 25
0100
0001
0010
0001
,  // measure 26
1000
0010
0100
0010
,  // measure 27
1000
0001
0100
0001
,  // measure 28
0010
0100
0010
0001
,  // measure 29
0100
0010
1000
0010
,  // measure 30
0200
0010
0000
0310
,  // measure 31
2000
0000
3001
0000
,  // measure 32
2002
0000
0000
0000
,  // measure 33
0000
3003
0001
1000
,  // measure 34
0020
0000
0000
0000
0030
0000
0001
1000
,  // measure 35
0200
0000
0000
0000
0300
0000
0010
0100
,  // measure 36
2000
0000
0000
0000
3000
0000
0100
0010
,  // measure 37
0002
0000
0000
0000
0003
0000
1000
0001
,  // measure 38
0200
0000
0000
0000
,  // measure 39
0300
0000
0010
0100
,  // measure 40
0002
0000
0000
0000
,  // measure 41
0003
0000
1000
0001
,  // measure 42
0100
0100
0010
0010
,  // measure 43
0001
0001
1000
1000
,  // measure 44
0010
1000
0001
0100
,  // measure 45
0001
0010
0100
1000
,  // measure 46
1001
0001
0100
0001
,  // measure 47
1000
0001
0020
0230
,  // measure 48
1300
0010
0100
0001
,  // measure 49
1000
0100
0020
0032
,  // measure 50
0103
0010
1000
0001
,  // measure 51
1000
0001
0020
0230
,  // measure 52
2300
0000
0001
3001
,  // measure 53
0010
0100
0010
0100
,  // measure 54
0110
0010
1000
0010
,  // measure 55
0100
0001
0020
0032
,  // measure 56
1003
0010
1000
0010
,  // measure 57
0100
0010
2000
3002
,  // measure 58
0103
0000
0000
0020
0000
0000
0130
0000
,  // measure 59
0001
0100
0020
2030
,  // measure 60
3002
0000
0000
0000
,  // measure 61
2000
0000
0000
3003
,  // measure 62
0200
0000
0020
0330
,  // measure 63
1000
0000
0100
0000
1000
0010
1000
0000
,  // measure 64
0001
0000
0010
0000
0001
0100
0001
0000
,  // measure 65
1000
0000
0100
0000
0010
0001
0010
0000
,  // measure 66
0001
0000
0010
0000
0100
1000
0100
0000
,  // measure 67
0010
0000
0100
0000
0010
0001
0010
0000
,  // measure 68
0100
0000
0010
0000
0100
1000
0100
0000
,  // measure 69
2000
0010
0000
3010
,  // measure 70
0001
0100
0010
1000
,  // measure 71
1001
0000
0001
0000
0100
0010
0100
0000
,  // measure 72
0010
0000
1000
0000
0100
0010
0100
0000
,  // measure 73
1000
0000
0010
0000
0100
0001
0100
0000
,  // measure 74
0001
0000
0010
0000
0100
1000
0100
0000
,  // measure 75
1000
0000
0001
0000
1000
0010
1000
0000
,  // measure 76
0001
0000
1000
0000
0001
0010
0001
0000
,  // measure 77
0200
0010
0000
0310
,  // measure 78
0100
0010
0002
2000
,  // measure 79
3003
0000
0000
0000
;

//---------------dance-single - ----------------
#NOTES:
     dance-single:
     :
     Medium:
     10:
     0.525,0.463,0.109,0.392,0.075,380.000,13.000,47.000,0.000,0.000,0.000,0.525,0.463,0.109,0.392,0.075,380.000,13.000,47.000,0.000,0.000,0.000: // measure 0
1001
0000
0001
0200
0000
0000
0301
0000
,  // measure 1
1000
0010
0200
0300
0200
0300
0100
0010
,  // measure 2
1000
0000
0100
0020
0000
0000
0031
0000
,  // measure 3
1000
0001
0020
0030
0020
0030
0100
0000
,  // measure 4
0110
0000
0100
2000
0000
0000
3001
0000
,  // measure 5
0100
0001
0010
0000
0002
0000
2003
0000
,  // measure 6
3020
0100
1000
0130
,  // measure 7
2000
0000
0000
3001
,  // measure 8
1001
0000
0001
0200
0000
0000
0310
0000
,  // measure 9
0100
0010
0002
0003
2000
3000
0010
1000
,  // measure 10
0001
0000
1000
0020
0000
0000
0130
0000
,  // measure 11
1000
0010
2000
3000
0200
0300
0020
0030
,  // measure 12
0001
0000
0001
2000
0000
0000
3010
0000
,  // measure 13
0100
0001
2000
0000
0002
0000
0000
3003
,  // measure 14
0001
1000
0001
1000
,  // measure 15
0200
0000
0020
0330
,  // measure 16
1001
0000
0001
0010
0100
0000
0010
0000
,  // measure 17
0001
0000
0100
0010
1000
0000
0100
0000
,  // measure 18
0010
0000
0001
1000
0001
0000
0100
0000
,  // measure 19
0010
0000
0100
0001
0100
0000
0010
1000
,  // measure 20
0010
0000
0010
1000
0100
0000
0100
0010
,  // measure 21
0001
0000
0000
0000
1000
0000
0000
0000
0001
0000
0000
0010
0000
0000
0100
0000
,  // measure 22
2000
0000
0000
3001
,  // measure 23
0020
0130
2002
3003
,  // measure 24
1000
0100
0010
0000
0001
0010
0100
0000
,  // measure 25
1000
0001
0100
0000
0001
1000
0010
0000
,  // measure 26
0001
0100
0010
0000
1000
0010
0100
0000
,  // measure 27
0010
0100
0010
0000
1000
0001
1000
0000
,  // measure 28
0100
0010
0001
0010
,  // measure 29
0100
0000
0000
0000
1000
0000
0000
0000
0100
0000
0000
0010
0000
0000
0001
0000
,  // measure 30
2000
0001
0000
0001
0000
0010
0000
3010
,  // measure 31
1000
0000
0010
1000
0000
1000
0001
0000
,  // measure 32
2002
0000
0000
0000
,  // measure 33
0000
3003
0002
2003
,  // measure 34
3020
0000
0000
0000
0130
0000
0001
1000
,  // measure 35
0200
0000
0000
0000
0310
0000
0100
1000
,  // measure 36
0002
0000
0000
0000
1003
0000
0100
0010
,  // measure 37
2000
0000
0000
0000
3010
1000
0001
0100
,  // measure 38
0002
0000
0000
0000
,  // measure 39
1003
0000
0010
0100
,  // measure 40
1000
0100
1000
0000
0000
0000
0001
0010
,  // measure 41
0001
0000
0010
0100
,  // measure 42
1000
0100
0001
0100
,  // measure 43
1000
0010
0001
0010
,  // measure 44
1000
0100
1000
0100
0010
0001
0010
0001
,  // measure 45
0010
0000
0000
0010
0000
0000
0100
0000
0000
0100
0000
0000
0010
0000
0100
0000
,  // measure 46
0110
0000
1000
0010
0100
0010
1000
0000
,  // measure 47
0001
0000
0100
0010
0001
0010
0100
0000
,  // measure 48
0010
0000
0001
0100
0010
0100
0001
0000
,  // measure 49
0100
0000
0010
0100
1000
0100
0010
0000
,  // measure 50
1000
0000
0001
0010
1000
0010
0001
0000
,  // measure 51
1000
0000
0001
0100
1000
0100
0001
0000
,  // measure 52
2000
0000
0010
3010
,  // measure 53
0100
0000
0000
0000
0110
0000
0000
0000
0001
0000
0000
1000
0000
0000
0001
0000
,  // measure 54
1001
0000
0100
0010
0001
0010
0100
0000
,  // measure 55
0010
0000
1000
0100
0010
0100
1000
0000
,  // measure 56
0001
0000
0010
0100
1000
0100
0010
0000
,  // measure 57
0001
0100
0010
1000
0002
0000
1003
0000
,  // measure 58
1001
0000
0001
0200
0000
0000
0310
0000
,  // measure 59
1000
0100
0010
0000
0002
0000
2003
0000
,  // measure 60
3020
0000
0000
0000
,  // measure 61
0100
0000
0000
0100
0000
0000
0200
0000
0000
0000
0000
0000
0330
0000
0000
0000
,  // measure 62
0001
0000
0000
1000
0000
0000
0001
0000
0020
0000
0000
0000
0130
0000
0000
0000
,  // measure 63
1000
0000
0000
0100
0000
0000
1000
0000
0100
0000
0010
0000
0001
0000
0000
0000
,  // measure 64
0100
0000
0000
0001
0000
0000
0100
0000
0001
0000
0010
0000
0100
0000
0000
0000
,  // measure 65
0010
0000
0000
1000
0000
0000
0010
0000
0000
0000
0010
0000
1000
0000
0000
0000
,  // measure 66
0100
0000
0000
0001
0000
0000
0100
0000
0000
0000
0100
0000
0001
0000
0000
0000
,  // measure 67
0010
0100
1000
0000
0001
1000
0010
0000
,  // measure 68
1000
0000
0000
0100
0000
0000
1000
0000
0100
0000
0010
0000
0001
0000
0000
0000
,  // measure 69
1001
0001
0000
0010
0000
0100
0010
0001
,  // measure 70
0010
0000
0000
0000
0110
0000
0000
0000
0001
0000
0000
0010
0000
0000
0100
0000
,  // measure 71
1000
0000
0000
0010
0000
0000
0100
0000
0010
0000
0001
0000
0010
0000
0000
0000
,  // measure 72
1000
0000
0000
0010
0000
0000
0100
0000
0010
0000
1000
0000
0010
0000
0000
0000
,  // measure 73
0001
0000
0000
1000
0000
0000
0001
0000
0000
0000
0001
0000
0100
0000
0000
0000
,  // measure 74
1000
0000
0000
0001
0000
0000
1000
0000
0010
0000
0100
0000
0001
0000
0000
0000
,  // measure 75
0010
0100
0010
0000
1000
0001
1000
0000
,  // measure 76
0010
1000
0100
0000
0100
0001
0010
0000
,  // measure 77
0110
0010
0000
0100
0000
1000
0100
0010
,  // measure 78
0001
0000
0000
0010
0000
0000
0001
0000
0010
0000
0100
0000
0020
0000
0200
0000
,  // measure 79
0000
0330
0000
0000
;
