#TITLE:Absurd Gaff;
#SUBTITLE:;
#ARTIST:siromaru;
#TITLETRANSLIT:;
#SUBTITLETRANSLIT:;
#ARTISTTRANSLIT:;
#GENRE:;
#CREDIT:;
#BANNER:;
#BACKGROUND:;
#LYRICSPATH:;
#CDTITLE:;
#MUSIC:Absurd Gaff.mp3;
#OFFSET:-6.333;
#SAMPLESTART:49.833;
#SAMPLELENGTH:12.000;
#SELECTABLE:YES;
#BPMS:0.000=160.000
;
#STOPS:
;
#BGCHANGES:;
#KEYSOUNDS:;
#ATTACKS:;

//---------------dance-single - ----------------
#NOTES:
     dance-single:
     :
     Hard:
     13:
     0.626,0.584,0.125,0.199,0.332,488.000,15.000,24.000,0.000,0.000,0.000,0.626,0.584,0.125,0.199,0.332,488.000,15.000,24.000,0.000,0.000,0.000:
1000
0100
1000
0100
0010
0100
0010
0001
0010
0001
0000
0000
,
1000
0000
0100
0000
1000
0000
0000
0100
0000
0000
0100
0000
0010
0000
0000
0000
,
0001
0000
0010
0000
0001
0000
0000
0001
0000
0000
0100
0000
0010
0000
0000
0000
,
1000
0000
0000
0000
0001
0000
0000
1000
0000
0000
0010
0000
0100
0000
0000
0000
,
2001
0000
0010
3010
,
1010
0000
0000
1000
0100
0000
0000
0100
0010
0000
0000
0010
0001
0000
0000
0001
,
0100
0000
0000
0100
1000
0000
0000
1000
0001
0000
0000
0001
0010
0000
0000
0010
,
1000
0000
0000
1000
0100
0000
0000
0100
0010
0000
0000
0010
0001
0000
0000
0001
,
1000
0000
0000
1000
0001
0000
0000
0000
1000
0000
0100
0000
0010
0000
0001
0000
,
0100
0000
0000
0100
0010
0000
0000
0010
1000
0000
0000
1000
0100
0000
0000
0100
,
0010
0000
0000
0010
0001
0000
0000
0001
0100
0000
0000
0100
1000
0000
0000
1000
,
0100
0000
0000
0100
0010
0000
0000
0010
1000
0000
0000
1000
0001
0000
0000
0001
,
0010
0000
0110
0000
0100
1000
0001
0000
,
0100
0000
0010
0000
0110
0000
0000
0010
0000
1000
0100
0000
1000
0000
0010
0000
,
0100
0000
0001
0000
0011
0000
0000
0010
0000
0100
1000
0000
0010
0100
0000
0010
,
0100
0000
0001
0000
0011
0000
0000
0010
0000
0001
1000
0000
0010
0000
0100
0000
,
0101
0011
1010
1100
,
0100
0000
0001
0000
0011
0000
0000
0010
0000
0100
1000
0000
0010
0000
0100
0000
,
0001
0000
1000
0000
1100
0000
0000
0100
0000
0010
0001
0000
0100
0010
0000
0100
,
0010
0000
0100
0000
0101
0000
0000
0001
0000
0010
0100
0000
1000
0000
0010
0000
,
0100
0000
0001
0000
0200
0000
0000
0000
0310
1000
0010
1000
0020
0000
0000
0000
,
0130
0000
0001
0010
0000
0010
0001
1000
,
0000
1000
0100
0000
0010
0001
0010
0000
,
0100
0000
1000
0100
0000
1000
0010
0100
,
0000
0100
0010
0000
1000
0010
2000
0000
,
3001
0000
0010
0001
0000
0100
0010
0100
,
0000
0100
0001
0000
1000
0100
0001
0000
,
1000
0000
0010
0100
0000
0100
1000
0010
,
0000
0100
0001
0000
1000
0000
1001
0000
,
1000
0010
0100
0010
0001
0010
0100
0010
,
1000
0010
0100
0010
0001
0010
0100
0010
,
1000
0100
0010
0100
1000
0100
0001
0100
,
0010
0100
1000
0100
0001
0100
0000
0100
,
0010
0001
0100
0001
1000
0001
0100
0001
,
0010
0001
1000
0001
0100
0001
0010
0001
,
0100
1000
0001
1000
0100
1000
0001
1000
,
0100
0001
0010
0100
2000
0000
0000
0000
,
3001
0100
0010
0100
0001
1000
0000
1000
,
0001
0100
0010
0100
0001
0010
0000
0010
,
0001
0100
1000
0100
0010
1000
0001
0010
,
0200
2300
3002
0000
,
0013
0001
0100
1000
0100
0001
0010
0100
,
1000
0010
0100
0001
0010
1000
0001
0100
,
0010
0001
0100
0010
1000
0001
0010
0100
,
2000
0002
0000
3003
,
1000
0001
1000
0000
0100
0000
0010
0000
,
0100
1000
0010
0000
0100
0000
0001
0000
,
1000
0100
0001
0000
1000
0000
0010
0000
,
0100
1000
0001
0000
0100
0010
0100
0000
,
0001
0010
0001
0000
1000
0000
0010
0000
,
0100
0001
1000
0000
0100
0000
0010
0000
,
0100
1000
0010
0000
0100
0000
0001
0000
,
2000
0000
3010
1001
,
1000
0100
0001
0100
0010
0100
1000
0010
,
0100
0001
0010
0100
1000
0001
0100
0000
,
0100
0010
0100
0001
1000
0100
0010
0001
,
1000
0010
1000
0010
0100
0010
0100
0001
0100
0002
0000
0000
,
0013
0001
0100
0010
0100
0001
0010
0100
,
1000
0010
0001
0010
1000
0100
0010
0100
,
1000
0010
0100
0001
1000
0100
0001
0100
,
2000
0000
3002
0000
,
1003
0000
0000
1000
0100
0000
0000
0100
0010
0000
0000
0010
0001
0000
0000
0001
,
0100
0000
0000
0100
1000
0000
0000
1000
0100
0000
0000
0100
0001
0000
0000
0001
,
1000
0000
0000
1000
0100
0000
0000
0100
0010
0000
0000
0010
0001
0000
0000
0001
,
0200
0000
0320
0000
,
1030
0000
0001
0010
0001
0000
0100
0000
0010
0000
1000
0000
0100
0000
0010
0000
,
0100
0000
1000
0010
1000
0000
0010
0000
0100
0000
0001
0000
0010
0000
0100
0000
,
1000
0000
0001
0100
0001
0000
0100
0000
0010
0000
0100
1000
0100
0000
0001
0000
,
0010
0001
0010
0100
1000
0100
1000
0001
1000
0001
0000
0000
,
0200
0000
0310
0000
1000
0100
0010
0000
,
0200
0000
1300
0000
0001
0100
0010
0000
,
0200
0000
0301
0000
1000
0100
0010
0000
,
0002
0203
0320
2030
,
3002
0000
0000
0000
,
0003
0000
0000
0000
;

//---------------dance-single - ----------------
#NOTES:
     dance-single:
     :
     Medium:
     9:
     0.423,0.394,0.042,0.166,0.012,331.000,5.000,20.000,0.000,0.000,0.000,0.423,0.394,0.042,0.166,0.012,331.000,5.000,20.000,0.000,0.000,0.000:
1000
0000
0100
1000
0000
0001
0100
0000
0001
1000
0000
0000
,
0010
0000
0100
0000
0001
0010
0100
0000
,
1000
0000
0100
0000
0010
0001
1000
0000
,
0010
0000
0100
0000
0001
1000
0100
0000
,
0020
0000
0001
0031
,
0010
0000
0001
0000
0100
0010
0100
0000
,
0001
0000
1000
0000
0100
0010
0100
0000
,
1000
0000
0001
0000
0100
0010
0100
0000
,
0001
0000
0100
0000
0010
1000
0010
1000
,
0001
0010
0001
0000
1000
0000
0100
0000
,
1000
0000
0010
0000
0100
0001
0100
0000
,
0010
0000
1000
0000
0100
0010
0100
0000
,
1000
0002
0003
1001
,
1000
0000
0100
0000
0010
0001
0100
0000
,
0010
0000
0100
0000
0001
0010
0100
0000
,
1000
0000
0010
0000
0100
1000
0100
0000
,
0101
0011
0110
1100
,
1000
0000
0010
0000
0100
0001
1000
0000
,
0100
0000
0010
0000
0100
1000
0010
0000
,
0100
0000
0001
0000
0010
1000
0001
0000
,
0200
0300
1000
0001
,
0100
0000
0010
0100
0000
0100
0010
0000
,
1000
0100
1000
0001
,
0010
0000
0001
1000
0000
1000
0001
0000
,
0100
0010
1000
0100
,
0010
0000
0001
1000
0000
0001
1000
0000
,
0010
0000
0100
0000
0000
0010
0100
0000
,
0001
0000
0010
0001
0000
0010
0001
0000
,
1000
0100
0010
0001
,
0010
0000
0100
0000
1000
0010
0100
0000
,
0001
0000
1000
0000
0100
0010
0001
0000
,
1000
0000
0010
0000
0100
0001
1000
0000
,
0100
0000
0010
0000
0001
1000
0000
1000
,
0010
0000
0100
0000
0001
1000
0100
0000
,
0010
0000
0001
0000
0100
1000
0100
0000
,
0001
0000
1000
0000
0100
0010
0001
0000
,
2000
0100
0002
3003
,
1000
0000
0100
0000
1000
0010
0000
0010
,
1000
0000
0001
0000
0010
0001
0000
0001
,
0010
0000
0100
0000
1000
0100
1000
0000
,
0020
0230
0302
2003
,
3100
0000
0010
0000
0001
1000
0001
0000
,
0100
0000
0010
0000
1000
0100
1000
0000
,
0001
0100
0010
1000
,
0002
0000
0000
0003
,
0001
0000
0100
0000
0010
1000
0100
0000
,
0010
0000
0100
0000
1000
0001
0100
0000
,
0010
0000
1000
0000
0100
0010
0001
0000
,
1000
0010
0200
0000
,
0301
0000
1000
0000
0100
0010
0100
0000
,
1000
0000
0010
0000
0001
0010
1000
0000
,
0001
0000
0010
0000
0100
1000
0001
0000
,
0200
0000
0010
0310
,
0000
1000
0000
0100
0000
0001
0000
0100
,
0000
1000
0000
0010
0000
0001
0000
0010
,
0000
0100
0000
0001
0000
0010
0000
0100
,
2000
0001
0001
3001
,
0100
0000
0000
0010
0000
1000
0000
0100
,
0000
1000
0000
0010
0000
0100
0000
0001
,
0000
1000
0000
0100
0000
0010
0000
0100
,
2000
3020
0230
0000
,
0301
0010
0100
1000
,
0000
0010
0000
0100
0000
0001
0000
1000
,
0100
0000
0010
0000
0001
0100
0010
0000
,
2000
0001
0001
0000
,
3001
0000
0010
0000
0100
1000
0100
0000
,
0010
0000
0010
0000
0100
1000
0001
0000
,
0100
0000
0010
0000
0100
0001
0100
0000
,
0010
1000
0010
0100
0001
0100
0010
0000
,
1000
0001
1000
0001
,
0100
0010
0100
0010
,
1000
0000
0100
0000
1000
0001
0100
0000
,
0020
2030
3002
0003
,
0100
0000
0000
0000
;

//---------------dance-single - ----------------
#NOTES:
     dance-single:
     :
     Easy:
     7:
     0.304,0.364,0.091,0.183,0.000,223.000,11.000,22.000,0.000,0.000,0.000,0.304,0.364,0.091,0.183,0.000,223.000,11.000,22.000,0.000,0.000,0.000: // measure 0
1000
0100
0010
0001
,  // measure 1
1000
0100
0000
1000
,  // measure 2
0001
0010
0000
0001
,  // measure 3
0100
0010
0000
0100
,  // measure 4
2002
0000
0000
3003
,  // measure 5
1000
0010
0100
0001
,  // measure 6
1000
0100
0010
0001
,  // measure 7
0100
0010
0100
0001
,  // measure 8
2000
0001
3001
0000
,  // measure 9
0010
0100
0001
0010
,  // measure 10
0100
1000
0001
0100
,  // measure 11
0010
0100
0001
1000
,  // measure 12
0100
0020
0000
0130
,  // measure 13
1000
1010
0000
0010
,  // measure 14
0100
0101
0000
0001
,  // measure 15
1000
1001
0000
0100
,  // measure 16
0020
0000
0230
0000
,  // measure 17
0310
0110
0000
0010
,  // measure 18
0001
0011
0000
1000
,  // measure 19
0100
1100
0000
1000
,  // measure 20
0002
0000
1000
1003
,  // measure 21
0010
0000
0000
1000
0000
0000
0000
0010
,  // measure 22
0000
1000
0010
0000
0000
0000
0000
0000
,  // measure 23
0100
0000
0000
0001
0000
0000
0000
0100
,  // measure 24
0000
0001
0100
0000
0000
0000
0000
0000
,  // measure 25
0001
1000
0000
1000
,  // measure 26
0001
1000
0000
1000
,  // measure 27
0010
0000
0100
0000
,  // measure 28
0001
0010
0100
1000
,  // measure 29
0001
0010
0100
1000
,  // measure 30
0001
0100
0010
1000
,  // measure 31
0001
0010
0100
1000
,  // measure 32
0001
0100
0010
0100
,  // measure 33
0001
0010
0100
1000
,  // measure 34
0010
0100
0001
1000
,  // measure 35
0100
0010
0001
1000
,  // measure 36
0010
0100
0220
0330
,  // measure 37
0010
1000
0100
0000
,  // measure 38
1000
0001
0100
0000
,  // measure 39
0010
1000
0001
0010
,  // measure 40
0200
0000
0000
0300
,  // measure 41
1000
0010
0001
0010
,  // measure 42
0100
0001
1000
0100
,  // measure 43
0010
0001
1000
0010
,  // measure 44
0200
0000
0000
0300
,  // measure 45
0100
0000
0001
0000
,  // measure 46
0010
0000
0100
0000
,  // measure 47
1000
0000
0001
0000
,  // measure 48
0100
0000
0020
0030
,  // measure 49
1000
0000
0100
0000
,  // measure 50
0010
0000
0001
0000
,  // measure 51
1000
0000
0010
0000
,  // measure 52
0200
0000
0010
0310
,  // measure 53
1000
0100
0010
0001
,  // measure 54
1000
0010
0100
0000
,  // measure 55
0010
1000
0100
0001
,  // measure 56
0200
0000
0000
0300
,  // measure 57
0010
0001
0100
1000
,  // measure 58
0100
0001
0010
0100
,  // measure 59
1000
0010
0100
0001
,  // measure 60
0022
0033
2200
3300
,  // measure 61
0100
0010
0001
0100
,  // measure 62
0010
0100
0001
1000
,  // measure 63
0100
0010
0001
1000
,  // measure 64
0020
0000
0000
0030
,  // measure 65
0100
0001
0000
0001
,  // measure 66
1000
0100
0000
0100
,  // measure 67
0010
0001
0100
0010
,  // measure 68
2000
0000
0000
0000
,  // measure 69
3001
0010
0000
0010
,  // measure 70
0001
1000
0000
1000
,  // measure 71
0100
0010
0000
0010
,  // measure 72
0200
0300
2000
3000
,  // measure 73
1001
0000
0000
0000
;

//---------------dance-single - ----------------
#NOTES:
     dance-single:
     :
     Beginner:
     4:
     0.163,0.182,0.008,0.042,0.000,131.000,1.000,5.000,0.000,0.000,0.000,0.163,0.182,0.008,0.042,0.000,131.000,1.000,5.000,0.000,0.000,0.000: // measure 0
0000
0000
0000
0000
,  // measure 1
0000
1000
0000
1000
,  // measure 2
0000
0001
0000
0001
,  // measure 3
0000
0100
0000
0100
,  // measure 4
0000
0000
0010
0010
,  // measure 5
0010
0000
1000
0000
,  // measure 6
0010
0000
1000
0000
,  // measure 7
0001
0000
0100
0000
,  // measure 8
0001
0001
0000
0000
,  // measure 9
0010
0000
0001
0000
,  // measure 10
0010
0000
0100
0000
,  // measure 11
1000
0000
0100
0000
,  // measure 12
1000
1000
0000
0000
,  // measure 13
0000
0001
0000
0001
,  // measure 14
0000
0100
0000
0100
,  // measure 15
0000
0010
0000
0010
,  // measure 16
0000
0000
0000
0000
,  // measure 17
0000
1000
0000
1000
,  // measure 18
0000
0100
0000
0100
,  // measure 19
0000
0010
0000
0010
,  // measure 20
0000
0000
0001
0001
,  // measure 21
0001
0000
0001
0000
,  // measure 22
0001
0000
0000
0000
,  // measure 23
1000
0000
1000
0000
,  // measure 24
1000
1000
0000
0000
,  // measure 25
0010
0000
0010
0000
,  // measure 26
0010
0000
0000
0000
,  // measure 27
0100
0000
0100
0000
,  // measure 28
0100
0000
0000
0000
,  // measure 29
0010
0000
0100
0000
,  // measure 30
0010
0000
0100
0000
,  // measure 31
0001
0000
1000
0000
,  // measure 32
0001
0001
0000
0000
,  // measure 33
0010
0000
0100
0000
,  // measure 34
0010
0000
0100
0000
,  // measure 35
1000
0000
0001
0000
,  // measure 36
1000
1000
0000
0000
,  // measure 37
0010
0000
1000
0000
,  // measure 38
0010
0000
1000
0000
,  // measure 39
0001
0000
0100
0000
,  // measure 40
0001
0001
0001
0000
,  // measure 41
0010
0000
0001
0000
,  // measure 42
0010
0000
0100
0000
,  // measure 43
1000
0000
0100
0000
,  // measure 44
1000
1000
0000
0000
,  // measure 45
1000
0000
0000
0000
,  // measure 46
0010
0000
0000
0000
,  // measure 47
0100
0000
0000
0000
,  // measure 48
0001
0000
0000
0000
,  // measure 49
0010
0010
0000
0000
,  // measure 50
0100
0100
0000
0000
,  // measure 51
1000
0000
1000
0000
,  // measure 52
0002
0000
0003
0000
,  // measure 53
0100
0000
0100
0000
,  // measure 54
0100
0000
0000
0000
,  // measure 55
0010
0000
0010
0000
,  // measure 56
0010
0010
0000
0000
,  // measure 57
1000
0000
0001
0000
,  // measure 58
1000
0000
1000
0000
,  // measure 59
0001
0000
0010
0000
,  // measure 60
0002
0000
0003
0000
,  // measure 61
0100
0000
0010
0000
,  // measure 62
0100
0000
0010
0000
,  // measure 63
1000
0000
0001
0000
,  // measure 64
2000
3000
0002
0003
,  // measure 65
0100
0100
0000
0000
,  // measure 66
0010
0010
0000
0000
,  // measure 67
1000
0000
0001
0000
,  // measure 68
0010
0000
0100
0000
,  // measure 69
2000
0000
0000
0000
,  // measure 70
3000
0001
0000
0001
,  // measure 71
0000
1000
0000
1000
,  // measure 72
0000
0000
0000
0000
,  // measure 73
1001
0000
0000
0000
;
