#TITLE:Your Woman;
#SUBTITLE:;
#ARTIST:White Town;
#TITLETRANSLIT:;
#SUBTITLETRANSLIT:;
#ARTISTTRANSLIT:;
#CREDIT:;
#BANNER:Your Woman.png;
#BACKGROUND:Your Woman-bg.png;
#LYRICSPATH:;
#CDTITLE:;
#MUSIC:Your Woman.ogg;
#OFFSET:-0.317;
#SAMPLESTART:68.580;
#SAMPLELENGTH:20.000;
#SELECTABLE:YES;
#DISPLAYBPM:103.000;
#BPMS:0.000=102.686,24.000=102.622,184.000=97.056,186.000=103.047,188.000=106.295,190.000=103.740,191.000=95.002,192.000=106.355,194.000=106.184,195.000=95.053,196.000=106.350,198.000=103.785;
#STOPS:;
#BGCHANGES:8.000=snow3.avi=1.000=1=0=1,
24.000=wheel4.avi=1.000=0=0=1,
40.000=rain2.avi=1.000=0=0=1,
56.000=wind1.avi=1.000=0=0=1,
64.000=snow2.avi=1.000=0=0=1,
72.000=wheel4.avi=1.000=0=0=1,
80.000=rain3.avi=1.000=0=0=1,
88.000=tunnel2.avi=1.200=0=0=1,
104.000=tunnel10.avi=1.000=0=0=1,
112.000=lady20.avi=1.000=0=0=1,
120.000=lady13.avi=0.700=0=0=1,
128.000=lady2.avi=1.000=0=0=1,
136.000=lady9.avi=0.700=0=0=1,
144.000=lady1.avi=1.200=0=0=1,
152.000=wheel4.avi=1.000=0=0=1,
160.000=rain3.avi=1.000=0=0=1,
168.000=rain2.avi=1.000=0=0=1,
176.000=snow4.avi=1.000=0=0=1,
184.000=lady1.avi=1.000=0=0=1,
188.000=lady13.avi=0.700=0=0=1,
192.000=lady9.avi=0.900=0=0=1,
196.000=lady12r.avi=0.800=0=0=1,
199.500=Your Woman-bg.png=1.000=0=0=1,
99999=-nosongbg-=1.000=0=0=0 // don't automatically add -songbackground-
;

//---------------dance-single - ----------------
#NOTES:
     dance-single:
     :
     Beginner:
     1:
     0.107,0.126,0.085,0.000,0.000: // measure 1
0000
0000
0000
0000
,  // measure 2
0000
0000
0000
0000
,  // measure 3
0001
0000
0000
0000
,  // measure 4
1000
0000
0000
0000
,  // measure 5
0001
0000
0000
0000
,  // measure 6
1000
0000
0000
0000
,  // measure 7
0001
0000
0001
0000
,  // measure 8
0100
0000
0000
0000
,  // measure 9
1000
0000
1000
0000
,  // measure 10
0010
0000
0000
0000
,  // measure 11
0001
0000
0001
0000
,  // measure 12
0010
0000
0000
0000
,  // measure 13
1000
0000
1000
0000
,  // measure 14
0010
0000
0000
0000
,  // measure 15
0100
0100
0000
0000
,  // measure 16
0010
0000
0001
0000
,  // measure 17
1000
1000
0000
0000
,  // measure 18
0001
0000
0100
0000
,  // measure 19
1000
0000
0001
0000
,  // measure 20
1001
0000
0000
0000
,  // measure 21
0001
0000
1000
0000
,  // measure 22
1001
0000
0000
0000
,  // measure 23
0100
0000
0100
0000
,  // measure 24
0001
0000
1000
1000
,  // measure 25
0010
0000
0010
0000
,  // measure 26
1000
0000
1000
0001
,  // measure 27
0001
0000
0001
0000
,  // measure 28
0100
0000
0000
0000
,  // measure 29
1000
0000
1000
0000
,  // measure 30
0010
0000
0000
0000
,  // measure 31
1001
0000
0000
0000
,  // measure 32
0110
0000
0000
0000
,  // measure 33
1001
0000
0000
0000
,  // measure 34
0110
0000
0000
0000
,  // measure 35
1001
0000
0000
0000
,  // measure 36
0110
0000
0000
0000
,  // measure 37
1001
0000
0000
0000
,  // measure 38
0110
0000
0000
0000
,  // measure 39
1000
0000
0001
0000
,  // measure 40
0001
0000
0100
0000
,  // measure 41
1000
0000
0001
0000
,  // measure 42
1000
0000
0100
0000
,  // measure 43
0001
0000
1000
0000
,  // measure 44
0001
0000
0100
0000
,  // measure 45
1000
0000
0010
0000
,  // measure 46
1000
0000
0100
0000
,  // measure 47
0001
0000
0100
0000
,  // measure 48
0001
0000
0100
0000
,  // measure 49
1000
0000
0100
0000
,  // measure 50
1000
0000
0100
0000
;

//---------------dance-single - ----------------
#NOTES:
     dance-single:
     :
     Easy:
     4:
     0.157,0.189,0.017,0.170,0.000: // measure 1
0000
0000
0000
0000
,  // measure 2
0000
0000
0000
0000
,  // measure 3
0001
0000
1000
0000
,  // measure 4
0010
0000
0100
0000
,  // measure 5
0001
0000
0100
0000
,  // measure 6
0010
0000
1000
0000
,  // measure 7
0001
0100
0001
0000
,  // measure 8
1000
0000
0001
0000
,  // measure 9
1000
0100
1000
0000
,  // measure 10
0100
0000
0001
0000
,  // measure 11
0100
0001
0010
0000
,  // measure 12
1000
0000
0001
0000
,  // measure 13
0100
1000
0010
0000
,  // measure 14
1000
0000
0100
0000
,  // measure 15
0010
0000
0001
0000
,  // measure 16
0100
0000
0010
0000
,  // measure 17
1000
0000
0001
0000
,  // measure 18
0100
0000
0010
0000
,  // measure 19
1000
0000
0001
0000
,  // measure 20
0100
0000
0010
0000
,  // measure 21
1000
0000
0100
0000
,  // measure 22
0010
0000
0001
0000
,  // measure 23
0100
0100
0010
0000
,  // measure 24
1000
0010
0010
0000
,  // measure 25
0100
0100
0010
0000
,  // measure 26
1000
0001
0001
0000
,  // measure 27
0110
0000
0001
0000
,  // measure 28
0100
0000
0010
0000
,  // measure 29
1001
0000
0001
0000
,  // measure 30
0100
0000
0010
0000
,  // measure 31
2000
3000
0002
0003
,  // measure 32
0200
0300
0002
0003
,  // measure 33
2000
3000
0020
0030
,  // measure 34
0200
0300
0020
0030
,  // measure 35
2000
3000
0002
0003
,  // measure 36
2000
3000
0020
0030
,  // measure 37
0200
0300
0002
0003
,  // measure 38
0200
0300
0020
0030
,  // measure 39
1000
0000
0100
0000
,  // measure 40
0010
0000
0001
1000
,  // measure 41
0100
0000
0010
0000
,  // measure 42
1000
0000
0001
0010
,  // measure 43
0100
0000
0010
0000
,  // measure 44
1000
0000
0100
1000
,  // measure 45
0010
0000
0001
0000
,  // measure 46
0100
0000
0010
0000
,  // measure 47
2000
0000
3010
0000
,  // measure 48
0200
0000
0301
0000
,  // measure 49
0002
0000
0103
0000
,  // measure 50
2000
0000
3001
0000
;

//---------------dance-single - ----------------
#NOTES:
     dance-single:
     :
     Medium:
     7:
     0.307,0.317,0.051,0.280,0.000: // measure 1
0000
0000
0000
0000
,  // measure 2
0000
0000
0000
0000
,  // measure 3
1000
0001
0010
0000
,  // measure 4
1000
0100
0010
0000
,  // measure 5
0010
0100
0001
0000
,  // measure 6
0010
1000
0001
0000
,  // measure 7
0010
0100
0010
0000
0001
0000
0101
0000
,  // measure 8
0100
0001
0010
0000
1000
0000
0010
0000
,  // measure 9
0010
0100
0010
0000
1000
0000
0011
0000
,  // measure 10
0100
0100
0100
0000
0010
0000
0100
0000
,  // measure 11
1000
0001
1000
0000
0001
0000
0011
0000
,  // measure 12
0100
1000
0010
0000
0010
0000
0100
0000
,  // measure 13
1000
0010
0001
0000
0100
0000
1010
0000
,  // measure 14
1000
0000
0100
0000
0010
0010
0001
0000
,  // measure 15
0200
0310
1000
0001
,  // measure 16
0100
0001
0010
0000
2000
0000
3001
0000
,  // measure 17
0100
0010
1000
0001
,  // measure 18
0100
1000
0010
0000
0002
0000
1003
0000
,  // measure 19
0001
1000
0001
0000
0100
0000
0100
0000
,  // measure 20
0010
1000
0010
0000
1000
0001
1000
0000
,  // measure 21
0010
0100
0010
0000
0100
0000
0100
0000
,  // measure 22
0001
0001
1000
1000
,  // measure 23
0001
0000
1000
0000
0010
1000
0100
0000
,  // measure 24
0001
0010
0001
0000
2000
0000
3010
0000
,  // measure 25
0100
0000
0001
0000
0010
0001
0100
0000
,  // measure 26
1000
0100
0001
0000
0200
0000
0310
0000
,  // measure 27
1000
0001
0000
0000
0010
1000
0000
0000
,  // measure 28
0001
0100
0000
0100
0001
0000
1001
0000
,  // measure 29
0010
1000
0000
0000
0100
1000
0000
0000
,  // measure 30
0010
0001
0000
0000
1000
0000
1001
0000
,  // measure 31
2000
3010
0002
0103
,  // measure 32
0020
1030
2000
3100
,  // measure 33
0002
1003
0020
0130
,  // measure 34
0002
0103
0020
0130
,  // measure 35
0002
0013
0200
1300
,  // measure 36
2000
3100
0020
1030
,  // measure 37
0002
0013
0200
1300
,  // measure 38
0002
0103
0020
1030
,  // measure 39
0001
0000
0100
0000
0010
1000
0010
0000
,  // measure 40
0100
0000
0001
0000
0010
0010
0010
0000
,  // measure 41
0100
0000
1000
0000
0001
1000
0001
0000
,  // measure 42
1000
0000
0010
0000
0100
1000
0100
1000
,  // measure 43
0001
1000
0001
0100
,  // measure 44
0010
0000
1000
0000
0100
0000
0010
0010
,  // measure 45
0001
0100
0010
1000
,  // measure 46
0001
0000
0100
1000
0010
0000
1000
0010
,  // measure 47
0002
0000
0203
0000
0320
0000
0030
0100
,  // measure 48
0002
0000
2003
0000
3020
0000
0030
1000
,  // measure 49
0002
0000
2003
0000
3020
0000
0030
0100
,  // measure 50
0002
2003
0020
3030
;

//---------------dance-single - ----------------
#NOTES:
     dance-single:
     :
     Hard:
     10:
     0.427,0.403,0.255,0.442,0.132: // measure 1
0000
0000
0000
0000
,  // measure 2
0000
0000
0000
0000
,  // measure 3
2000
3200
0320
0032
,  // measure 4
0023
0230
2300
3200
,  // measure 5
2300
3002
0023
0032
,  // measure 6
0203
0320
2030
3001
,  // measure 7
1001
1000
0000
1000
0001
1000
0000
1000
,  // measure 8
0100
0000
1000
0000
0000
0000
0001
0000
0100
0000
0000
0100
0000
0000
1000
0000
,  // measure 9
0100
1000
0000
0001
1000
0001
0000
1000
,  // measure 10
0100
0000
1000
0000
0100
0000
0000
0000
0001
0000
0000
1000
0000
0000
0001
0000
,  // measure 11
1000
0001
0000
0100
0001
0100
0000
1000
,  // measure 12
0100
0000
1000
0000
0000
0000
0001
0000
1000
0000
0000
1000
0000
0000
1000
0000
,  // measure 13
0001
1000
0000
1100
0000
0101
0000
1001
,  // measure 14
0000
0000
1000
0000
0000
0100
0000
0000
0001
0000
0000
0001
0000
0000
0010
0000
,  // measure 15
1000
0000
1000
0002
0000
1000
0000
1003
,  // measure 16
0000
0000
1000
0000
0001
0000
0001
0000
1000
0000
0000
0100
0000
0000
1000
0000
,  // measure 17
0001
0001
0000
1000
0100
1000
0000
0001
,  // measure 18
1000
0000
0001
0000
1000
0000
0000
0000
1000
0000
0000
0001
0000
0000
1000
0000
,  // measure 19
1000
0001
0000
1100
0000
0101
0000
1001
,  // measure 20
0000
1000
0001
1000
0001
1000
0001
0100
,  // measure 21
0010
0100
0000
1100
0000
0102
0100
0103
,  // measure 22
0000
1000
0001
1000
0001
1000
0001
0000
,  // measure 23
1100
0000
0100
0000
0000
0100
0000
0100
0001
0000
1000
0000
0001
0000
1000
0000
,  // measure 24
0001
0000
0100
0000
0010
0000
1000
0010
2000
0000
0000
0000
3002
0000
0000
0000
,  // measure 25
1003
0000
0100
0000
0000
0010
0000
1000
0010
0000
1000
0000
0001
0000
0100
0001
,  // measure 26
0100
0000
0001
0000
1000
0000
0001
1000
0002
0000
0000
0000
1003
0000
0100
0000
,  // measure 27
0001
0001
0000
0100
1000
1000
0000
0100
,  // measure 28
0001
0000
0001
0000
0000
0000
0100
0000
1010
0000
0000
0101
0000
0000
1100
0000
,  // measure 29
1001
0001
0000
0001
1000
1000
0000
1000
,  // measure 30
0001
0000
0001
0000
0000
0000
0100
0000
0101
0000
0000
1100
0000
0000
1100
0000
,  // measure 31
1002
0203
0320
2030
,  // measure 32
3200
0000
0301
1000
0100
0010
1000
0001
,  // measure 33
0200
0320
2030
3200
,  // measure 34
0302
0000
0013
0100
1000
0100
0001
1000
,  // measure 35
0002
2003
3200
2300
,  // measure 36
3020
0200
0330
0001
0100
0001
0100
0001
,  // measure 37
0020
2030
3200
2300
,  // measure 38
3020
0230
0302
2003
,  // measure 39
3001
0000
0100
0000
0000
0001
0000
0000
0010
0000
0000
1000
0000
0000
0100
0000
,  // measure 40
0001
0000
0100
0000
0000
1000
0000
1000
0001
0000
0001
0000
1000
0000
0100
0000
,  // measure 41
1000
0000
0001
0000
0000
0100
0000
0000
0010
0000
0000
1000
0000
0000
1000
0000
,  // measure 42
0001
0000
0000
1000
0000
0000
1000
0000
0100
0000
1000
0000
0100
0000
1000
0000
,  // measure 43
0001
0000
0000
0100
0000
0000
0010
0000
1000
0000
0000
0001
0000
0000
0000
0000
,  // measure 44
1000
0000
0000
0001
0000
0000
1000
0100
1000
0000
0100
0000
1000
0000
0001
0000
,  // measure 45
0001
0000
0000
0001
0000
0000
0001
0000
1000
0000
0000
1000
0000
0000
1000
0000
,  // measure 46
0100
0000
0000
0100
0000
0000
0100
0000
0010
0000
0000
0010
0000
0000
0010
0000
,  // measure 47
1100
0101
2002
3003
,  // measure 48
1100
0101
2002
3003
,  // measure 49
1100
0101
2002
3003
,  // measure 50
1100
0101
2002
0000
,  // measure 51
3003
0000
0000
0000
;

//---------------dance-single - ----------------
#NOTES:
     dance-single:
     :
     Challenge:
     13:
     0.507,0.510,0.178,0.289,0.314: // measure 1
0000
0000
0000
0000
,  // measure 2
0000
0000
0000
0000
,  // measure 3
2000
0000
0000
0000
3100
0000
0000
0010
2000
0000
0000
0000
3100
0000
0000
0010
,  // measure 4
0002
0000
0000
0000
1003
0000
0000
1000
0200
0000
0000
0000
0320
0000
0000
0000
,  // measure 5
0032
0000
0000
0000
0013
0000
0000
1000
0200
0000
0000
0000
0310
0000
0000
0001
,  // measure 6
0020
0000
0130
1000
0100
1000
0001
0100
,  // measure 7
1000
1000
0001
0100
0010
1000
0001
1000
,  // measure 8
0000
0000
1000
0000
1000
0000
0001
0000
0101
0000
0000
1100
0000
0000
1000
0000
,  // measure 9
1001
1000
0001
0100
0001
0100
0001
0100
,  // measure 10
0010
0000
0100
0000
0010
0000
0000
0000
1100
0000
0000
0101
0000
0000
1000
0000
,  // measure 11
1001
0001
0100
1000
0001
1000
0100
1000
,  // measure 12
0100
1000
0100
1000
0010
0100
0001
1000
,  // measure 13
0001
0001
0000
1100
0000
0101
0100
0110
,  // measure 14
0000
0000
0001
0000
0001
1000
0000
0001
1000
0000
1000
0100
0000
0010
0001
0000
,  // measure 15
1001
0000
1000
0100
1000
0100
1000
0100
,  // measure 16
0000
0000
0001
0000
0010
0000
0001
0100
0001
0000
1000
0000
0001
0000
1000
0000
,  // measure 17
0001
0000
1000
0001
0000
0001
1000
0001
,  // measure 18
0000
1000
1000
0100
1000
0100
1000
0100
,  // measure 19
1000
1000
0000
0101
0000
1100
1000
1001
,  // measure 20
0000
0001
0010
0001
0010
0001
0010
0001
,  // measure 21
0010
0001
0000
1001
0100
0001
0100
1001
,  // measure 22
0000
1000
0100
0010
0100
1000
0001
0000
,  // measure 23
1001
0000
1000
0000
1000
0100
0000
1000
0100
1000
0100
1000
0100
0000
0001
1000
,  // measure 24
0001
1000
0001
0000
1000
0000
0100
0010
0200
0000
0000
0000
0302
0000
0000
0000
,  // measure 25
1003
0000
0001
0000
1000
0100
0000
0010
0001
0010
0001
0010
0001
0000
1000
0001
,  // measure 26
1000
0001
1000
0000
0100
0000
1000
0100
2000
0000
0000
0000
3001
0000
0100
0000
,  // measure 27
0002
0000
0103
1000
0100
1000
0100
1000
,  // measure 28
0000
0010
0001
0010
0100
0010
0100
0010
,  // measure 29
0200
0000
0301
1000
0001
1000
0001
0010
,  // measure 30
0000
1000
0100
1000
0100
1000
0100
1000
,  // measure 31
0200
0000
0000
0310
1000
0010
2000
0000
0000
3100
0010
0100
,  // measure 32
0020
0000
1030
0100
1000
0100
1000
0100
,  // measure 33
0002
0000
0000
0103
0001
0100
0002
0000
0000
1003
0100
1000
,  // measure 34
0200
0000
1300
0001
0001
0100
1000
0001
,  // measure 35
0200
0000
0000
0310
0100
0010
0200
0000
0000
1300
0100
1000
,  // measure 36
0100
0001
0001
0100
0010
1000
0100
0001
,  // measure 37
2000
0000
0000
3001
1000
0001
2000
0000
0000
3100
0010
0100
,  // measure 38
0020
0000
0000
1030
0100
1000
0200
0000
0000
0320
0000
0000
,  // measure 39
1030
0000
0001
0000
0100
0001
0000
0001
0100
0000
0100
0001
0000
0001
0100
0000
,  // measure 40
1000
0000
0001
0000
1000
0001
0000
1000
0001
1000
0001
0000
0100
0000
0010
0000
,  // measure 41
1000
0000
0100
0000
1000
0100
0000
0100
1000
0000
1000
0100
0000
0100
1000
0000
,  // measure 42
1000
0000
0001
1000
0000
1000
0001
1000
0001
0000
1000
0000
0100
0000
0100
0000
,  // measure 43
0001
0000
1000
0100
0000
1000
0100
1000
0010
0000
0100
0010
0000
0000
0000
0000
,  // measure 44
1001
0000
0001
1000
0000
1000
0001
1000
0001
0000
0100
0000
0010
1000
0010
0000
,  // measure 45
0100
0000
0001
0100
0000
0100
0001
0100
0001
0000
0001
0010
0000
0010
0001
0010
,  // measure 46
0001
0000
0000
0001
0000
0000
0001
0000
1000
0000
0000
1000
0000
0000
0001
0000
,  // measure 47
1000
0001
1000
0000
2002
0000
3003
0001
,  // measure 48
0001
1000
0001
0000
2002
0000
3003
0001
,  // measure 49
0001
1000
0001
0000
2002
0000
3003
0001
,  // measure 50
0001
1000
0001
0000
2002
0000
0000
0000
,  // measure 51
3003
0000
0000
0000
;
