#TITLE:You Make Me Feel Brand New;
#SUBTITLE:(Hot Tracks Mix);
#ARTIST:Lorraine Mckane;
#TITLETRANSLIT:;
#SUBTITLETRANSLIT:;
#ARTISTTRANSLIT:;
#CREDIT:;
#BANNER:;
#BACKGROUND:;
#LYRICSPATH:;
#CDTITLE:;
#MUSIC:You Make Me Feel Brand New (Hot Tracks Mix).ogg;
#OFFSET:-3.700;
#SAMPLESTART:77.760;
#SAMPLELENGTH:12.000;
#SELECTABLE:YES;
#BPMS:0.000=129.560;
#STOPS:;
#BGCHANGES:;

//---------------dance-single - ----------------
#NOTES:
     dance-single:
     :
     Hard:
     12:
     0.506,0.578,0.451,0.000,0.212: // measure 1
0000
0000
0000
0000
,  // measure 2
0000
0000
0000
0000
,  // measure 3
0000
0000
0000
0000
,  // measure 4
0000
0000
0000
0000
,  // measure 5
1000
0000
0100
1000
0000
0001
1000
0000
0000
0000
1000
0001
0000
0100
0001
0000
,  // measure 6
1000
0000
0000
0010
0000
0000
0100
0000
0001
0000
0000
0000
0010
0000
0100
0000
,  // measure 7
1000
0000
0010
0100
0000
0001
0100
0000
0000
0000
0001
0010
0000
0100
0010
0000
,  // measure 8
0001
0000
0100
0000
0010
1000
0001
0100
,  // measure 9
0110
0000
0010
0100
0000
0001
1000
0000
0000
0000
0000
0000
0100
0000
0010
0000
,  // measure 10
0001
0000
0100
0010
1000
0000
1001
0000
,  // measure 11
1001
1000
0100
0001
0100
1000
0100
0001
,  // measure 12
0100
1000
0010
0001
0010
1000
0010
0001
,  // measure 13
0010
1000
0010
0100
0100
0010
1000
0100
,  // measure 14
0010
0001
0010
0001
0100
0000
0010
0000
1000
0000
0100
0000
0100
0000
0100
0000
,  // measure 15
0010
0001
1000
0000
1000
0001
0100
0000
,  // measure 16
0100
0010
1000
0001
0100
0001
1000
0100
,  // measure 17
0010
0001
0010
0000
0100
1000
0100
0010
,  // measure 18
0001
0100
1000
0100
0001
0010
0100
1000
,  // measure 19
0001
1000
0001
0000
0001
0000
1000
0100
,  // measure 20
0010
0100
1000
0000
1000
0000
0001
0100
,  // measure 21
0010
0100
0001
0000
0001
0000
1000
0010
,  // measure 22
0100
0010
1000
0000
1000
0000
0001
0010
,  // measure 23
0100
0000
0010
0000
0001
0000
0001
0000
0001
0010
0001
0000
1000
0010
1000
0000
,  // measure 24
1001
0000
1001
0000
0110
0000
0110
0010
,  // measure 25
1000
0100
0001
0100
1000
0010
1000
0100
,  // measure 26
0010
0000
0001
0000
0100
0100
0010
1000
,  // measure 27
0010
0001
0010
1000
0100
0001
0100
1000
,  // measure 28
0010
1000
0100
0000
0010
0001
0100
0000
,  // measure 29
0001
0001
1000
0100
0010
0100
1000
0001
,  // measure 30
0100
0100
0100
0000
0010
0010
0010
0000
,  // measure 31
1000
1000
1000
0000
0001
0100
0100
0100
,  // measure 32
0000
0001
1000
0100
,  // measure 33
0010
0001
1000
0010
1000
0001
0010
0001
,  // measure 34
1000
0000
0100
0000
0010
0000
0010
0001
,  // measure 35
1000
0100
1000
0001
0100
0001
1000
1001
,  // measure 36
0000
0110
1001
0110
,  // measure 37
0010
0010
1000
1000
0100
0100
0010
0010
,  // measure 38
0001
0001
0100
0100
0010
0010
1000
0001
,  // measure 39
1000
0100
0000
1000
0100
0000
0000
0000
0010
0000
0000
0000
0001
0000
0000
0000
,  // measure 40
0100
0001
0000
0100
0001
0000
0000
0000
0101
0000
0000
0000
1100
0000
0000
0000
,  // measure 41
1001
0000
1000
0100
0000
0010
0001
0000
0000
0000
0000
0000
1001
0000
0000
0000
,  // measure 42
0001
0000
0000
0100
0000
0010
0000
0000
1000
0000
0000
0000
0100
0000
0010
0000
,  // measure 43
1001
0000
0001
0100
0000
0010
1000
0000
0000
0000
0000
0000
0000
0000
0100
0000
,  // measure 44
0110
1001
0110
1001
,  // measure 45
0110
0000
0100
0010
0000
1000
0001
0000
0000
0000
0000
0000
0011
0000
0000
0000
,  // measure 46
1001
0000
0000
0001
0000
1000
0000
0000
0110
0000
0000
0000
0101
0000
0000
0000
,  // measure 47
1001
0000
1000
0010
0000
0100
0001
0000
0000
0000
0000
0000
0110
0000
0001
0000
,  // measure 48
1001
0110
1001
0110
,  // measure 49
1001
0000
0001
1000
0000
0100
0010
0000
0000
0000
0000
0000
0010
0000
0000
0000
,  // measure 50
0011
0000
0000
0001
0000
1000
0000
0000
0100
0000
0000
0000
0110
0000
0100
0000
,  // measure 51
1001
0000
1000
0001
0000
0100
0010
0000
0000
0000
0000
0000
0000
0000
0010
0000
,  // measure 52
1010
1100
0101
0011
,  // measure 53
1001
0000
0100
0010
0000
1000
0001
0000
0000
0000
0100
0010
0100
0010
0100
0000
,  // measure 54
1001
0000
0000
0110
0000
1001
0000
0000
0110
0000
0000
0000
1010
0000
0000
0000
,  // measure 55
0011
0000
0001
0100
0000
0010
1000
0000
0000
0000
0001
1000
0001
1000
0001
0000
,  // measure 56
1001
1100
0011
0101
;

//---------------dance-single - ----------------
#NOTES:
     dance-single:
     :
     Medium:
     9:
     0.385,0.452,0.478,0.009,0.090: // measure 1
0000
0000
0000
0000
,  // measure 2
0000
0000
0000
0000
,  // measure 3
0000
0000
0000
0000
,  // measure 4
0000
0000
0000
0000
,  // measure 5
1000
0000
0000
0100
0000
0000
0010
0000
0000
0000
0000
0000
0000
0000
0000
0000
,  // measure 6
0001
0000
0000
0001
0000
0000
0001
0000
1000
0000
0000
0000
1000
0000
0001
0000
,  // measure 7
0100
0000
0000
0001
0000
0000
0010
0000
0000
0000
0000
0000
0000
0000
0010
0000
,  // measure 8
0110
1001
0110
1001
,  // measure 9
0010
0000
0000
0100
0000
0000
0001
0000
0000
0000
0000
0000
0010
0000
0100
0000
,  // measure 10
1000
0000
0010
0100
0001
0000
1000
0000
,  // measure 11
1100
1000
0010
0100
,  // measure 12
0101
0001
0010
0100
,  // measure 13
1100
1000
0010
0100
,  // measure 14
0001
1000
0001
0100
0010
1000
0001
1000
,  // measure 15
0000
0100
0010
0001
,  // measure 16
0100
0010
0100
0000
0001
1000
0001
0000
,  // measure 17
0010
0100
1000
0010
,  // measure 18
1000
0100
1000
0000
0001
0100
0001
0000
,  // measure 19
1000
0010
0100
0001
,  // measure 20
0011
0001
1000
0010
,  // measure 21
1010
1000
0001
0010
,  // measure 22
0011
0001
0100
0010
,  // measure 23
1000
0100
0010
0001
,  // measure 24
1001
1001
1000
0001
,  // measure 25
0100
0010
0100
0000
0001
0010
0001
0000
,  // measure 26
1000
0010
0100
0010
,  // measure 27
1000
0100
1000
0000
0010
0100
0010
0000
,  // measure 28
0100
0001
0010
0100
,  // measure 29
1000
0100
0010
0001
1000
0000
1000
0100
,  // measure 30
0010
0001
0100
0001
,  // measure 31
0010
0000
0100
0000
1000
0010
0100
0001
,  // measure 32
1000
0100
1000
0010
,  // measure 33
0100
0001
0010
0001
0100
0000
0010
0000
,  // measure 34
1000
0100
1000
0010
,  // measure 35
1000
0100
1000
0010
1000
0000
0100
0000
,  // measure 36
0110
0010
0001
0100
,  // measure 37
0110
1001
0120
1030
,  // measure 38
1100
0101
1100
0101
,  // measure 39
1010
1010
1001
1001
,  // measure 40
0011
0011
1001
1001
,  // measure 41
1001
0000
0000
1000
0000
0000
0010
0000
0000
0000
0100
0000
0001
0000
0000
0000
,  // measure 42
0001
0000
0000
0100
0000
0100
0000
0000
0110
0000
0000
0000
0010
0000
0000
0000
,  // measure 43
1000
0000
0000
0100
0000
0000
0010
0000
0000
0000
0001
0000
0100
0000
0001
0000
,  // measure 44
1000
1100
0001
0101
,  // measure 45
1001
0000
0000
0001
0000
0000
1000
0000
0000
0000
1000
0000
0001
0000
0000
0000
,  // measure 46
1000
0000
0000
0010
0000
0010
0000
0000
0100
0000
0000
0000
0001
0000
0000
0000
,  // measure 47
0011
0000
0000
0001
0000
0000
1000
0000
0000
0000
1000
0000
0001
0000
0100
0000
,  // measure 48
0010
0110
0001
1001
,  // measure 49
1100
0000
0000
1000
0000
0000
0001
0000
0000
0000
0100
0000
0010
0000
0000
0000
,  // measure 50
1001
0000
0000
1000
0000
0001
0000
0000
0110
0000
0000
0000
1001
0000
0000
0000
,  // measure 51
0110
0000
0000
1000
0000
0000
0001
0000
0000
0000
0000
0000
0000
0000
0010
0000
,  // measure 52
0110
1100
0101
1001
,  // measure 53
0110
0000
0000
0010
0000
0000
1000
0000
0000
0000
0001
0000
0001
0000
0000
0000
,  // measure 54
1001
0000
0000
0100
0000
0010
0000
0000
1001
0000
0000
0000
1100
0000
0000
0000
,  // measure 55
0101
0000
0000
1000
0000
0000
0100
0000
0000
0000
0010
0000
0010
0000
0001
0000
,  // measure 56
1000
1001
0110
1001
;

//---------------dance-single - ----------------
#NOTES:
     dance-single:
     :
     Easy:
     7:
     0.277,0.327,0.189,0.000,0.045:
0000
0000
0000
0000
,
0000
0000
0000
0000
,
0000
0000
0000
0000
,
0000
0000
0000
0000
,
1001
0000
0000
0000
,
1000
0010
0100
0001
,
1001
0000
0000
0000
0000
0000
0000
0001
,
0001
0010
0100
1000
,
1100
0000
0000
1000
,
1010
0100
0001
0010
,
0100
1000
0100
0001
,
0100
1000
0010
1000
,
0100
1000
0010
0001
,
0010
0010
0010
0000
1000
0000
0001
1000
,
0000
0100
0010
0001
,
0100
0010
0010
1000
,
1001
1000
0010
0100
,
0001
0001
0010
0010
,
0110
0000
0100
0000
1000
0000
0010
0100
,
0000
0000
0001
0000
0001
0000
0010
0100
,
0000
0000
1000
0000
1000
0000
0010
0100
,
0000
0001
0001
0001
,
1000
0001
1000
0001
,
1001
0000
0000
0000
,
1000
0010
0100
0001
,
1001
0000
0000
0000
,
0001
0010
0100
1000
,
1001
0000
0000
0000
,
1000
0001
1000
0000
0010
0000
0100
0000
,
0001
0010
0100
1000
,
0001
0000
0001
0000
1000
0100
0100
0100
,
0000
0010
0001
0100
,
0010
1000
0010
0000
0100
0001
0100
0000
,
0110
0100
0001
0010
,
0100
1000
0100
0000
0010
0001
0010
0000
,
0110
0001
0100
0010
,
1100
1000
0010
0100
,
0101
0001
0010
0100
,
1001
1001
0000
0000
,
0110
0110
0001
1000
,
0001
0000
0000
0001
0000
0000
0001
0000
0000
0000
0000
0000
0000
0000
0000
0000
,
1000
0100
1000
0010
,
1000
0000
0000
1000
0000
0000
1000
0000
0000
0000
0000
0000
0000
0000
1000
0000
,
0100
0010
0001
0100
,
0010
0000
0000
0010
0000
0000
0010
0000
0000
0000
0000
0000
0000
0000
0000
0000
,
0010
1000
0001
1000
,
0100
0000
0000
0100
0000
0000
0100
0000
0000
0000
0000
0000
0000
0000
1000
0000
,
0010
0100
0001
0010
,
0100
0000
0000
1000
0000
0000
0100
0000
0000
0000
0000
0000
0000
0000
0000
0000
,
0010
0001
0100
1000
,
0100
0000
0000
0001
0000
0000
0100
0000
0000
0000
0000
0000
0000
0000
0001
0000
,
0010
1000
0010
0001
,
0100
0000
0000
0010
0000
0000
1000
0000
0000
0000
0000
0000
0100
0000
0000
0000
,
1000
0000
0000
0010
0000
0100
0000
0000
0001
0000
0000
0000
0010
0000
0000
0000
,
0001
0000
0000
1000
0000
0000
0001
0000
0000
0000
0000
0000
0000
0000
0000
0000
,
1100
0101
1001
0110
;

//---------------dance-double - ----------------
#NOTES:
     dance-double:
     :
     Easy:
     7:
     0.296,0.377,0.144,0.027,0.063:
00000000
00000000
00000000
00000000
,
00000000
00000000
00000000
00000000
,
00000000
00000000
00000000
00000000
,
00000000
00000000
00000000
00000000
,
00010000
00000000
00000000
00010000
00000000
00000000
00010000
00000000
00000000
00000000
00000000
00000000
00001000
00000000
00000000
00000000
,
00010000
00000000
00000000
00001000
00000000
00000000
00000100
00000000
00010000
00000000
00000000
00000000
00100000
00000000
00000000
00000000
,
01000000
00000000
00000000
01000000
00000000
00000000
01000000
00000000
00000000
00000000
00000000
00000000
00000000
00000000
10000000
00000000
,
10000000
00100000
01000000
00010000
,
00110000
00000000
00000000
00011000
00000000
00000000
00010000
00001000
,
00010000
00000000
00001000
00010000
00001000
00000000
00010000
00000000
,
00000100
00000001
00000100
00001000
,
00000010
00001000
00000100
00001000
,
00000010
00000001
00000010
00001000
,
00010000
01000000
10000000
01000000
,
00010000
00000000
10000000
00000000
,
00010000
01000000
10000000
01000000
,
00010000
00000000
10000000
00000000
,
00010000
00100000
10000000
00100000
,
00010000
00000000
00000000
00000000
00000000
00000000
10000000
00020000
,
00000000
00000000
00030000
00000000
00000000
00000000
00010000
00002000
,
00000000
00000000
00003000
00000000
00000000
00000000
00001000
00000002
,
00000000
00001000
00000000
00000000
00000000
00000000
00000000
00000000
00000003
00000000
00000000
00000000
00000000
00000000
00000000
00000000
,
00000000
00000001
00000100
00001000
00010000
00000000
00001000
00000000
,
00011000
01000000
10000000
00100000
,
10000000
01000000
00010000
00001000
,
00000100
00000001
00001000
00000001
,
00000010
00000001
00000100
00001000
,
00010000
01000000
10000000
10000000
,
00100000
10000000
00010000
00100000
00001000
00000000
00010000
00000000
,
00000100
00000000
00000010
00000000
00000001
00000100
00001000
00000000
,
00010000
00000000
01000000
00000000
10000000
00010000
10000000
00010000
,
10000000
01000000
00100000
00001000
,
00010000
00000100
00000010
00000001
,
00000100
00001000
00010000
01000000
,
10000000
00100000
01000000
00010000
,
00100000
00001000
00010000
00000100
,
00000010
00000001
00000010
00000000
00000100
00000000
00010000
00000000
,
01000000
10000000
01000000
00000000
00100000
00000000
00001000
00000000
,
00011000
00011000
00010000
00001000
,
00011000
00011000
00001100
00000101
,
00000001
00000000
00000000
00000100
00000000
00000000
00000010
00000000
00000000
00000000
00000000
00000000
00010000
00000000
00000000
00000000
,
00001000
00010000
01000000
10000000
,
00100000
00000000
00000000
10000000
00000000
00000000
01000000
00000000
00000000
00000000
00000000
00000000
00000000
00000000
01000000
00000000
,
00010000
00001000
00000100
00000001
,
00001001
00000000
00000000
00000001
00000000
00000000
00000010
00000000
00000000
00000000
00000000
00000000
00000100
00000000
00000000
00000000
,
00010000
01000000
00010000
00001000
,
00100000
00000000
00000000
00010000
00000000
00000000
10000000
00000000
00000000
00000000
00000000
00000000
00000000
00000000
10000000
00000000
,
00100000
00001000
00000100
00001000
,
00010000
00000000
00000000
00001000
00000000
00000000
00010000
00000000
00000000
00000000
00000000
00000000
00000100
00000000
00000000
00000000
,
00000010
00000001
00000100
00001000
,
00010000
00000000
00000000
01000000
00000000
00000000
10000000
00000000
00000000
00000000
00000000
00000000
00000000
00000000
00100000
00000000
,
10000000
11000000
00010000
01010000
,
00011000
00000000
00000000
00010000
00000000
00000000
00001000
00000000
00000000
00000000
00010000
00000000
00001000
00000000
00000000
00000000
,
00010000
00000000
00000000
00001000
00000000
00010000
00000000
00000000
00011000
00000000
00000000
00000000
10010000
00000000
00000000
00000000
,
11000000
00000000
00000000
10000000
00000000
00000000
00010000
00000000
01000000
00000000
00100000
00000000
01000000
00000000
00010000
00000000
,
10000000
01000000
00010000
00001000
;

//---------------dance-double - ----------------
#NOTES:
     dance-double:
     :
     Medium:
     8:
     0.378,0.402,0.243,0.090,0.090:
00000000
00000000
00000000
00000000
,
00000000
00000000
00000000
00000000
,
00000000
00000000
00000000
00000000
,
00000000
00000000
00000000
00000000
,
00010000
00000000
00000000
01000000
00000000
00000000
10000000
00000000
00000000
00000000
00000000
00000000
01000000
00000000
00000000
00000000
,
00010000
00000000
00000000
00001000
00000000
00000000
00000010
00000000
00010000
00000000
00000000
00000000
01000000
00000000
00010000
00000000
,
00001000
00000000
00000000
00000100
00000000
00000000
00000001
00000000
00000100
00000000
00001000
00000000
00000001
00000000
00000100
00000000
,
00001000
00011000
00110000
10100000
,
10010000
00000000
00000000
10000000
00000000
00000000
00010000
00000000
00000000
00000000
00010000
00000000
10000000
00000000
00010000
00000000
,
01000000
00000000
00100000
10000000
00010000
00000000
00010000
00100000
,
00020000
01000000
10000000
00130000
,
00002000
00000100
00000001
00003010
,
00021000
00000100
00000010
00031000
,
00012000
00010000
01000000
00103000
,
00011000
00010000
01000000
10000000
,
00100000
01000000
00010000
00000000
00100000
00001000
00010000
00000000
,
00000100
00000001
00000100
00001000
,
00000010
00000100
00000001
00000000
00000010
00000100
00001000
00000000
,
00000100
00000000
00000001
00000000
00000100
00000000
00010000
00001000
,
00010000
00000000
00001000
00010000
00001000
00000000
00100000
01000000
,
00100000
00000000
01000000
00100000
01000000
00000000
10000000
00010000
,
10000000
00000000
00010000
10000000
00010000
00000000
10010000
00000000
,
10000000
00010000
10000000
00010000
10000000
01000000
00010000
00001000
,
00010000
00001000
00000100
00001000
,
00010000
00000100
00001000
00000000
00001000
00000010
00000100
00000000
,
00000001
00000010
00001000
00000010
,
00000001
00000100
00000010
00000000
00000010
00010000
00001000
00000000
,
00001000
00010000
01000000
00010000
,
00001000
00010000
00001000
00000100
00001000
00000000
00010000
00000000
,
00000100
00000000
00000100
00000000
00000010
00000010
00000010
00000000
,
00000001
00000000
00000100
00000000
00001000
00010000
00001000
00010000
,
01000000
10000000
01000000
00010000
,
01000000
10000000
00100000
01000000
00000000
01000000
00010000
00100000
,
00010000
00000000
01000000
00000000
00001000
00000000
00010000
00001000
,
00010000
00000100
00000010
00000001
00000000
00000001
00000100
00001000
,
00010000
00001000
00100000
00010000
,
10000000
10000000
00100000
00100000
01000000
00000000
00011000
00000000
,
00000010
00000010
00001000
00001000
00000001
00000000
00000100
00000010
,
00000100
00000100
00000001
00000010
,
00001000
00001000
00011000
00110000
,
10010000
00000000
00000000
10000000
00000000
00000000
01000000
00000000
00000000
00000000
00000000
00000000
00000000
00000000
00000000
00000000
,
01000000
00000000
00000000
00100000
00000000
00100000
00000000
00000000
00010000
00000000
00000000
00000000
01000000
00000000
00100000
00000000
,
10000000
00000000
00000000
01000000
00000000
00000000
00010000
00000000
00000000
00000000
00000000
00000000
00000000
00000000
00001000
00000000
,
00011000
00001100
00000101
00000011
,
00000110
00000000
00000000
00000001
00000000
00000000
00001000
00000000
00000000
00000000
00000000
00000000
00000000
00000000
00000000
00000000
,
00001000
00000000
00000000
00000001
00000000
00000100
00000000
00000000
00001000
00000000
00000000
00000000
00011000
00000000
00000000
00000000
,
00001000
00000000
00000000
00000100
00000000
00000000
00000001
00000000
00000000
00000000
00000000
00000000
00000000
00000000
00000001
00000000
,
00000020
00000000
00002030
00000000
00023000
00000000
01030000
01000000
,
10010000
00000000
00000000
10000000
00000000
00000000
00100000
00000000
00000000
00000000
00000000
00000000
00000000
00000000
00000000
00000000
,
01000000
00000000
00000000
00010000
00000000
00100000
00000000
00000000
00001000
00000000
00000000
00000000
00010100
00000000
00000000
00000000
,
00000100
00000000
00000000
00000010
00000000
00000000
00000001
00000000
00000000
00000000
00000000
00000000
00000000
00000000
00000001
00000000
,
00000200
00000320
00002030
00003100
,
00001001
00000000
00000000
00000001
00000000
00000000
00000010
00000000
00000000
00000000
00000000
00000000
00000000
00000000
00000000
00000000
,
00000100
00000000
00000000
00000010
00000000
00010000
00000000
00000000
00011000
00000000
00000000
00000000
00110000
00000000
00000000
00000000
,
10100000
00000000
00000000
10000000
00000000
00000000
01000000
00000000
00010000
00000000
00001000
00000000
00000100
00000000
00000001
00000000
,
00000100
00011000
00100100
00011000
;

//---------------dance-double - ----------------
#NOTES:
     dance-double:
     :
     Hard:
     12:
     0.550,0.553,0.252,0.108,0.248:
00000000
00000000
00000000
00000000
,
00000000
00000000
00000000
00000000
,
00000000
00000000
00000000
00000000
,
00000000
00000000
00000000
00000000
,
00010000
00000000
00001000
00100000
00000000
00010000
10000000
00000000
00000000
00000000
10000000
00010000
00000000
00100000
00001000
00000000
,
00010000
00000000
00000000
00000100
00000000
00000000
00000010
00000000
00010000
00000000
00000000
00000000
00100000
00000000
01000000
00000000
,
10000000
00000000
00100000
01000000
00000000
00001000
00010000
00000000
00000000
00000000
00010000
00001000
00000000
00100000
01000000
00000000
,
10000000
10010000
00011000
00001001
,
00000110
00000000
00000100
00000010
00000000
00001000
00000001
00000000
00000000
00000000
00000000
00000000
00000001
00000000
00000010
00000000
,
00000100
00000000
00000100
00001000
01000000
00000000
00010000
01000000
,
10000000
00100000
10000000
01000000
10000000
00100000
10000000
01000000
,
00100000
00010000
01000000
00010000
00100000
00010000
01000000
00010000
,
00100000
10000000
00100000
00010000
00100000
10000000
00100000
00001000
,
00010000
00001000
00010000
00001000
00010000
00000000
00000100
00000000
00001000
00000000
00000010
00000000
00000100
00000000
00000001
00000000
,
00000010
00000100
00000010
00000000
00000100
00000010
00000100
00000100
,
00010000
00001000
00100000
00010000
01000000
10000000
01000000
00010000
,
00100000
01000000
00100000
00000000
01000000
00100000
01000000
10000000
,
00100000
00010000
00100000
10000000
01000000
00010000
00001000
00000100
,
00000001
00001000
00000001
00000000
00001000
00000001
00000010
00000100
,
00001000
00000100
00000010
00000001
00001000
00000000
00000001
00000100
,
00001000
00000100
00000001
00000010
00000100
00000000
00000100
00010000
,
01000000
00010000
00001000
00100000
00010000
00000000
00010000
10000000
,
00100000
00000000
01000000
00000000
00010000
00000000
00100000
00000000
10000000
00100000
10000000
00000000
00100000
00010000
00100000
00000000
,
10010000
00010000
01000000
00000000
01100000
00100000
10000000
01000000
,
00100000
00001000
00010000
00000100
00000010
00000001
00000010
00000100
,
00001100
00000010
00000100
00000000
00000101
00000010
00000100
00001000
,
00000010
00001000
00000100
00000010
00000001
00000100
00001000
00010000
,
00110000
00100000
10000000
00000000
10100000
10000000
01000000
00000000
,
10010000
10000000
01000000
00100000
00001000
00010000
00000100
00000010
,
00000001
00000100
00000010
00001000
00000100
00000100
00000100
00001000
,
00000010
00000100
00000001
00000010
00001000
00010000
00010000
00010000
,
00001000
00100000
00010000
10000000
00100000
10000000
00010000
00100000
,
00010000
10000000
01000000
00010000
00001000
00000100
00000001
00000100
,
00000010
00001000
00000100
00010000
00001000
00100000
00010000
10000000
,
00100000
00010000
00001000
00000100
00000001
00000100
00001000
00010000
,
00001000
00010000
00001000
00010000
00001000
00010000
00001000
00010000
,
00001000
00001000
00100000
00100000
01000000
01000000
10000000
10000000
,
00100000
00100000
00010000
00010000
00001000
00001000
00000100
00000100
,
00000001
00000010
00000000
00000010
00000001
00000000
00000100
00000000
00000100
00000000
00000100
00000000
00000100
00000000
00000000
00000000
,
00001000
00000100
00000000
00000100
00001000
00000000
00010000
00000000
01000000
00000000
00010000
00000000
00001000
00000000
00010000
00000000
,
00011000
00000000
00010000
00001000
00000000
00001000
00010000
00000000
00000000
00000000
00001000
00100000
00000000
00100000
00010000
00000000
,
10010000
00000000
00000000
10000000
00000000
00100000
00000000
00000000
01100000
00000000
00000000
00000000
01000000
00000000
00010000
00000000
,
00100000
00000000
00001000
00010000
00000000
00000100
00001000
00000000
00000010
00000000
00001000
00000000
00000001
00000000
00000100
00000000
,
00000020
00002030
02003000
03002000
,
00003010
00000000
00000100
00000001
00000000
00000001
00001000
00000000
00000000
00000000
00000100
00010000
00000000
00010000
00001000
00000000
,
00011000
00000000
00000000
00100000
00000000
00010000
00000000
00000000
10010000
00000000
00000000
00000000
01100000
00000000
01000000
00000000
,
10000000
00000000
00100000
01000000
00000000
01000000
00010000
00000000
00000000
00000000
00100000
00001000
00000000
00001000
00010000
00000000
,
00020000
00032000
00003020
00002030
,
00013000
00000000
00001000
01000000
00000000
00010000
01000000
00000000
00000000
00000000
10000000
01000000
00000000
00100000
01000000
00000000
,
00010000
00000000
00000000
00100000
00000000
00001000
00000000
00000000
00010000
00000000
00000000
00000000
00000100
00000000
00000010
00000000
,
00000001
00000000
00000100
00001000
00000000
00010000
01000000
00000000
00000000
00000000
01000000
00010000
00000000
00001000
00000100
00000000
,
00000002
00000000
00000023
00000000
00002030
00000000
00023000
00030000
,
00011000
00000000
00010000
00001000
00000000
00100000
00010000
00000000
00000000
00000000
00010000
00100000
00000000
00001000
00010000
00000000
,
00011000
00000000
00000000
00100100
00000000
01000010
00000000
00000000
00011000
00000000
00000000
00000000
01100000
00000000
00000000
00000000
,
10010000
00000000
10000000
00100000
00000000
01000000
00010000
00000000
00100000
00000000
00001000
00000000
00010000
00000000
00000100
00000000
,
00000110
00011000
01100000
00011000
;

//---------------dance-single - ----------------
#NOTES:
     dance-single:
     :
     Beginner:
     4:
     0.157,0.201,0.090,0.000,0.000:
0000
0000
0000
0000
,
0000
0000
0000
0000
,
0000
0000
0000
0000
,
0000
0000
0000
0000
,
1001
0000
0000
0000
,
1000
0000
0001
0000
,
1000
0000
0000
0000
,
1000
0000
1000
0000
,
1001
0000
0000
0000
,
0000
0000
0001
0000
,
1000
0000
0000
0000
,
0100
0000
0000
0000
,
0010
0000
0000
0000
,
0001
0000
0001
0000
,
0001
0000
0000
0000
,
0100
0100
0100
0000
,
0100
0000
0000
0000
,
0010
0010
0010
0000
,
0010
0000
0000
0000
,
1000
0000
1000
0000
,
0100
0000
0100
0000
,
0010
0000
0010
0000
,
0001
0000
0001
0000
,
1001
0000
0000
0000
,
0001
0001
0001
0000
,
0001
0000
0000
0000
,
1000
1000
1000
0000
,
1000
0000
1000
0000
,
0010
0010
0010
0000
,
0010
0000
0010
0000
,
0010
0010
0010
0000
,
1001
0000
1000
0000
,
0001
1000
0001
0000
,
1001
0000
0001
0000
,
1000
0001
1000
0000
,
0001
0000
0001
0000
,
0100
0100
0100
0000
,
0010
0010
0010
0000
,
1000
1000
0000
0000
,
0001
0001
1000
1000
,
1001
0000
0000
0000
,
1000
1000
1000
0000
,
0100
0000
0100
0000
,
0010
0010
0010
0000
,
0001
0000
0001
0000
,
0001
0001
0001
0000
,
0100
0000
0100
0000
,
0010
0010
0010
0000
,
1001
0000
1000
0000
,
0001
1000
0001
0000
,
1001
0000
0001
0000
,
1000
0001
1000
0000
,
0110
0000
0100
0000
,
0010
0100
0010
0000
,
0110
0000
0010
0000
,
0100
0010
0100
0010
;
