#VERSION:0.83;
#TITLE:Wonderwall;
#SUBTITLE:(Club Killers Remix);
#ARTIST:Oasis;
#TITLETRANSLIT:;
#SUBTITLETRANSLIT:;
#ARTISTTRANSLIT:;
#GENRE:Trap;
#ORIGIN:;
#CREDIT:Feraligatr;
#BANNER:ww-bn.png;
#BACKGROUND:ww-bg.png;
#PREVIEWVID:;
#JACKET:;
#CDIMAGE:FeraligatrV3-cd.png;
#DISCIMAGE:;
#LYRICSPATH:;
#CDTITLE:FeraligatrV3-cd.png;
#MUSIC:Wonderwall (Club Killers Remix).ogg;
#OFFSET:0.000000;
#SAMPLESTART:84.000000;
#SAMPLELENGTH:21.600000;
#SELECTABLE:YES;
#DISPLAYBPM:100.000000;
#BPMS:0.000=100.000,
44.000=66.667,
46.000=100.000,
139.000=50.000,
141.000=100.000;
#STOPS:;
#DELAYS:;
#WARPS:;
#TIMESIGNATURES:0.000=4=4;
#TICKCOUNTS:0.000=4;
#COMBOS:0.000=1;
#SPEEDS:0.000=1.000=0.000=0;
#SCROLLS:0.000=1.000;
#FAKES:;
#LABELS:0.000=Song Start;
#BGCHANGES:;
#KEYSOUNDS:;
#ATTACKS:
;

//---------------dance-single - Feraligatr----------------
#NOTEDATA:;
#CHARTNAME:Feraligatr;
#STEPSTYPE:dance-single;
#DESCRIPTION:Feraligatr;
#CHARTSTYLE:Pad;
#DIFFICULTY:Challenge;
#METER:12;
#RADARVALUES:0.513875,0.596223,0.158273,0.568345,0.651079,500.000000,478.000000,22.000000,79.000000,27.000000,0.000000,21.000000,0.000000,0.000000,0.513875,0.596223,0.158273,0.568345,0.651079,500.000000,478.000000,22.000000,79.000000,27.000000,0.000000,21.000000,0.000000,0.000000;
#CREDIT:Feraligatr;
#DISPLAYBPM:100.000000;
#NOTES:
0000
0000
0000
0000
,
0000
0000
0000
0000
,
0000
0000
0000
0000
,
0000
0000
0000
0000
,
0001
0000
1000
0000
0020
0000
0000
0130
0010
1000
0001
0010
0200
0000
1300
0001
,
0100
0010
0100
0001
2000
3000
0100
0020
0000
0000
0030
0000
0100
0000
0000
0000
,
1000
0000
0001
0000
0200
0000
0000
0310
0100
0001
2000
0000
3200
0000
1300
0001
,
0200
0000
0310
0100
0002
0000
0013
0200
0000
0000
0300
0000
0010
0000
0000
0000
,
1000
0010
0100
2000
0000
0000
3010
0002
0000
0000
0013
0200
0000
0301
0000
0000
,
2000
0000
0000
3100
1000
0010
0000
0200
0000
0300
0000
0001
1000
0000
0100
0010
,
0000
0200
0000
0000
1300
0000
0000
0000
0001
0000
0000
0100
0001
0000
1000
0000
,
0MM0
0000
0000
0000
0000
0000
0000
0000
0MM4
0003
4000
3000
0101
0000
2000
0000
,
3002
0000
0000
0013
0100
1000
0001
0100
0020
0000
0130
0001
1000
0100
1000
0001
,
0020
0000
0130
0020
0000
0000
0031
0000
0000
1000
1000
0000
1010
0000
0002
0000
,
2003
0000
0000
3100
1000
0001
0100
0010
0200
0000
0301
1000
0100
1000
0001
0100
,
0020
0000
0130
0002
0000
0000
1003
1000
0000
0100
0100
0000
0011
0001
1000
0200
,
0000
0000
0310
2000
0000
0000
3010
0200
0000
1300
0000
0000
0002
0000
0000
0103
,
0010
1000
0000
0200
0000
0300
0000
0010
0001
0000
1000
0010
0000
0200
0000
0000
,
0301
0000
1000
0000
0100
0000
0040
0000
0130
0000
1000
0000
0001
0000
0100
0010
,
0100
0000
0001
0000
0000
0000
4000
3000
0004
0003
4000
3200
0000
0000
1300
0002
,
0000
0000
0103
0020
0000
0000
0130
0002
0000
0000
1003
0200
0000
0000
0320
0000
,
0001
0000
0130
0000
0004
0000
0003
0000
1000
0010
0010
0200
0000
0000
0301
2000
,
0000
0000
3100
0020
0000
0000
0031
0200
0000
0000
0310
2000
0000
0000
3200
0000
,
0010
0000
1300
0000
0000
0000
0001
0001
0000
0100
0100
0000
2010
0000
3001
0020
,
0000
0000
0130
2000
0000
0000
3001
0200
0000
0000
0300
0010
0002
0000
0000
0013
,
2000
0000
3100
0020
0000
0000
0031
1000
0010
0200
0000
0000
0302
0000
0000
0000
,
0000
0000
1003
0000
0001
0000
0400
0000
0310
0000
0100
0000
0001
0000
1000
0100
,
1000
0000
0000
0000
0001
0000
0000
0000
0100
0000
0000
0000
0001
0000
1000
0000
0100
0000
1000
0000
0001
0000
0100
0000
1020
0000
0000
0000
0000
4030
0000
0000
,
0000
0000
0000
0000
,
3000
0000
0001
0020
0000
0130
0010
0001
2000
0000
3010
0000
0200
0000
0000
0304
,
0000
0000
0000
0000
0000
0000
0000
0000
0000
0000
0000
0000
0000
0000
0000
0000
0000
0000
0000
0000
0000
0000
0000
0000
0000
0000
0000
0000
0000
0000
0000
0003
,
0000
0000
2000
0000
3200
0000
1300
0001
0100
0010
0100
0001
1001
0000
0000
0001
,
0010
0000
0400
0300
1000
0001
0100
0000
0040
0030
0400
0300
0001
0000
0000
1000
,
0100
0000
0010
0000
0100
1000
0004
0003
0400
0300
0010
0000
0100
0001
1000
0100
,
1000
0010
0400
0301
1000
0100
1000
0001
0100
0010
4000
3001
0011
0000
M000
00M0
,
0M00
0000
000M
0000
0000
0000
00M0
0000
2MM1
0000
0000
0000
0000
3000
2000
0000
0000
0000
0000
3000
2000
0000
0000
0000
3020
0000
0000
0000
0000
0000
0030
0000
,
0100
0000
0000
0000
0001
0000
1000
0000
1200
0000
0000
0000
0000
0300
0200
0000
0000
0000
0000
0300
0200
0000
0000
0000
0320
0000
0000
0000
0031
0000
0000
0000
,
4M00
3000
0040
0030
0101
0000
0100
0000
0100
0000
0001
0100
0001
1000
0100
0000
,
M010
0000
0001
0000
0010
0000
0001
0000
1000
0000
0001
0000
0100
0000
0010
0000
0200
0000
0000
0000
0302
0000
0000
0000
1003
0100
1000
0000
0001
0100
0001
0000
,
1000
0000
0000
0000
0100
0000
0010
0000
0012
0000
0000
0000
0000
0003
0002
0000
0000
0000
0000
0003
0002
0000
0000
0000
0203
0000
0000
0000
0000
0000
0310
0000
,
1000
0000
0001
0000
0000
0000
0010
0000
0210
0000
0000
0000
0000
0300
0200
0000
0000
0000
0000
0300
0200
0000
0000
0000
2300
0000
0000
0000
3001
0000
1000
0000
,
001M
0100
0100
0000
0101
0000
0100
0000
0100
0000
0001
1000
0001
0010
0100
0000
,
M001
0000
0000
0000
0100
0000
0100
0000
0010
0000
0100
0000
1000
0000
0001
0000
0100
0000
0000
0000
0010
0000
0000
0000
0010
1000
0010
0000
1000
0001
1000
0000
,
0100
0000
1000
0001
0101
0000
0100
00M0
0100
0000
1000
0000
0010
0M00
0010
0000
,
0100
0000
1000
0001
0011
0000
0010
0M00
0010
0000
1000
0000
0100
00M0
0100
0000
,
M004
0003
0040
0030
1100
0000
0100
0000
0100
0000
1000
0001
1000
0010
0100
0000
,
001M
0000
1000
0000
0001
0000
0100
0000
0010
0000
0100
0000
0001
0000
1000
0000
0200
0000
0000
0000
0320
0000
0000
0000
0130
1000
0100
0000
1000
0001
1000
0000
,
0010
0000
1000
0001
1010
0000
0010
0M00
0010
0000
0001
0000
0100
00M0
0100
1000
,
0001
0010
0000
0100
1100
0000
0100
00M0
0100
0000
0001
0000
0010
0M00
0010
1000
,
001M
1000
0001
0000
1100
0000
1000
0000
1000
0000
0010
0100
0001
1000
0100
0000
,
M001
0000
0000
0000
0100
0000
1000
0000
0001
0000
0100
0000
0001
0000
1000
0000
0100
0000
0000
0000
0100
0000
0000
0000
1000
0001
1000
0000
0010
0100
0010
0000
,
1000
0000
0001
1000
1010
0000
0010
0000
0100
0000
0001
0000
0000
0000
1000
0100
,
1000
0001
0000
0010
1100
0000
0100
0000
0010
0000
0001
0000
1000
0000
0001
0001
,
0100
0010
0010
0000
1010
0000
0001
0000
1000
0000
0100
0000
0010
0000
0100
1000
,
0001
0000
0000
0000
0100
0000
0001
0000
0100
0000
0010
0000
1000
0000
0001
0000
1000
0000
0000
0000
0100
0000
0000
0000
1000
0001
1000
0000
0001
0100
0001
0000
,
0010
0000
0100
1000
0001
0000
0000
0000
0000
0000
0000
0000
0000
0000
0000
0000
;

//---------------dance-single - ----------------
#NOTEDATA:;
#CHARTNAME:;
#STEPSTYPE:dance-single;
#DESCRIPTION:;
#CHARTSTYLE:;
#DIFFICULTY:Hard;
#METER:11;
#RADARVALUES:0.393628,0.416412,0.079137,0.028777,0.255396,383.000000,372.000000,11.000000,4.000000,0.000000,0.000000,2.000000,0.000000,0.000000,0.393628,0.416412,0.079137,0.028777,0.255396,383.000000,372.000000,11.000000,4.000000,0.000000,0.000000,2.000000,0.000000,0.000000;
#CREDIT:Braeden;
#DISPLAYBPM:100.000000;
#NOTES:
0000
0000
0000
0000
,
0000
0000
0000
0000
,
0000
0000
0000
0000
,
1000
0000
0000
1000
0000
0000
1000
0000
0010
0000
0000
0010
0000
0000
0010
0000
,
0100
0001
0010
0000
0100
1000
1100
0000
,
0010
0000
0001
0000
0011
0000
0001
0100
0000
0000
0000
0000
1010
0000
0000
0000
,
1000
0001
0100
0000
0010
1000
0010
0100
,
0001
0000
0010
0000
0100
0000
1000
0100
0000
0000
0000
0000
0010
0000
0000
0000
,
0001
1000
0001
1000
0000
0000
0010
0100
0000
0000
0001
0010
0000
0100
0000
0000
,
1000
0000
0000
0100
0010
0100
0000
0010
0000
0000
0000
0001
1000
0000
1000
0001
,
0000
0100
0010
1001
,
2000
0000
3000
0000
0000
0000
0001
1000
,
0010
0000
0000
0000
0100
0010
0100
0010
0100
0000
0000
0000
0001
0000
0010
0000
,
0001
0000
0100
0010
0000
0000
0000
0000
1001
0000
0000
0000
0010
0000
1000
0000
,
0010
0000
0000
0000
0100
0001
0100
0001
0100
0000
0000
0000
0010
1000
0010
1000
,
0010
0000
0000
0000
0100
0000
0001
0000
0011
0000
0000
0000
0001
0100
0001
0100
,
0000
0000
0010
1000
0000
0000
1000
0010
0000
0100
0000
0000
0001
0000
0000
0010
,
0001
0010
0000
0001
0000
0000
0000
1000
0010
0000
0000
0000
0100
0000
0001
0000
,
0011
0000
0010
0100
0010
0000
1000
0100
,
0010
0000
0001
0000
0100
0000
0000
0000
0000
0000
0000
0000
0010
0000
1000
0010
,
0000
0000
0100
0001
0000
0000
0010
0100
0000
0000
1000
0100
0000
0000
0100
0010
,
0000
0000
0100
0000
0000
0000
0100
0000
1000
0000
0001
0010
0000
0000
0010
0001
,
0000
0000
1000
0100
0000
0000
1000
0100
0000
0000
0100
0010
0000
0000
0010
0000
,
0001
1000
0010
0100
0010
0000
1000
1000
,
0100
0000
0100
0010
0000
0000
0010
0100
0000
0000
0000
0100
0010
0000
0000
0010
,
0100
0000
1000
0100
0000
0000
0100
0010
0100
1000
0000
0100
0001
0000
0000
0000
,
0100
0000
0010
1000
0010
0000
0100
0001
,
0010
0001
0100
0010
1000
0001
0100
0001
,
0010
0000
0000
0000
0001
0000
0000
0000
1000
0000
0000
0000
0000
0010
0000
0000
,
0000
0000
0100
0010
0000
0000
1010
0010
0100
0000
0001
0000
1000
0000
0000
1000
,
0000
0000
0001
1000
0001
0000
0100
0010
,
0100
0001
0010
0200
0000
2000
0000
0000
,
3300
0000
0001
1000
0001
0100
0010
1000
,
0100
0010
0001
0100
0010
1000
0001
0001
,
1000
0000
1000
0000
0001
1000
0001
1000
0001
1000
0001
1000
0020
0000
0000
0000
,
0000
0000
0030
0000
1000
0000
0000
0001
0100
0000
0010
0000
1000
0000
0000
0000
,
0001
0000
0010
0000
0100
0000
0000
1000
0100
0000
0100
0000
0010
0000
0000
0000
,
0004
0000
4003
0000
3001
0000
0100
0000
0010
0000
1000
0000
0001
0100
0010
0000
,
1001
0000
0000
0000
0001
1000
0001
1000
0001
0000
0100
0000
0010
0000
1000
0000
,
0000
0000
0001
0000
0010
0000
0000
0100
1000
0000
0100
0000
0010
0000
0000
0000
,
0001
0000
0001
0000
0100
0000
0000
0100
0010
0000
0010
0000
1000
0000
0000
0000
,
0001
0001
1000
0010
0010
0100
0001
1000
,
0110
0000
0000
0000
0001
1000
0001
1000
0001
0000
0100
0010
0000
0000
0010
1000
,
0001
0000
1000
0010
0001
0001
0010
0100
,
0001
0001
1000
0010
0001
0001
0010
0100
,
0001
0000
0100
0000
1000
0000
0100
0000
0001
0000
0100
0000
1000
0100
0010
0000
,
1000
0000
0001
0000
1000
0010
1000
0010
1000
0000
0100
0000
0001
0000
0100
0000
,
1000
0010
0001
0010
1000
0100
0001
0100
,
0010
0001
0100
0010
0010
1000
0010
0010
,
0100
0000
0001
0000
0010
0000
0100
0000
1000
0000
0100
0000
0010
0001
0010
0000
,
0001
0100
0100
0010
1000
0001
0010
0010
,
1100
0000
0001
0100
0010
1000
0001
0000
,
0000
0000
0100
0010
1000
0001
0010
0000
,
0000
0000
0100
1000
0100
0010
0001
0000
,
0000
0000
0100
0010
1000
0001
0010
0100
,
1000
0001
0000
0000
0000
0000
0000
0000
;

//---------------dance-single - ----------------
#NOTEDATA:;
#CHARTNAME:;
#STEPSTYPE:dance-single;
#DESCRIPTION:;
#CHARTSTYLE:;
#DIFFICULTY:Medium;
#METER:8;
#RADARVALUES:0.287770,0.336331,0.028777,0.122302,0.000000,280.000000,276.000000,4.000000,17.000000,0.000000,0.000000,3.000000,0.000000,0.000000,0.287770,0.336331,0.028777,0.122302,0.000000,280.000000,276.000000,4.000000,17.000000,0.000000,0.000000,3.000000,0.000000,0.000000;
#CREDIT:;
#DISPLAYBPM:100.000000;
#NOTES:
0000
0000
0000
0000
,
0000
0000
0000
0000
,
0000
0000
0000
0000
,
1000
0000
0000
1000
0010
0000
0000
0010
,
0100
0001
0010
0000
0100
1000
0100
0000
,
0010
0001
0010
0001
0100
0000
1010
0000
,
1000
0001
0100
0000
0010
1000
0010
0000
,
0001
0010
0100
1000
0100
0000
0010
0000
,
0001
0001
0000
0010
0000
0001
0000
0000
,
1000
0000
0010
0000
0001
0000
1000
1000
,
0001
0100
0010
1001
,
2000
0000
3000
0000
0000
0000
0001
1000
,
0010
0000
0100
0010
0100
0000
0001
0010
,
0001
0100
0010
0000
1001
0000
0010
1000
,
0010
0000
0100
0001
0100
0000
0010
1000
,
0010
0000
0100
0001
0011
0000
0001
0001
,
0010
1000
0010
0001
,
0001
0000
1000
0000
0010
0000
0100
0001
,
0010
0000
0010
0100
0010
0000
1000
0100
,
0010
0001
0100
0000
0000
0000
0010
2000
,
0000
3200
0000
0320
0000
2030
0000
3200
,
0000
0302
0000
1003
0100
0010
0000
0001
,
0000
0100
0000
0010
0000
1000
0001
0010
,
0001
1000
0010
0100
0010
0000
1000
1000
,
0100
0000
0010
0000
0001
0000
0100
0100
,
0010
1000
0001
0001
,
0100
0000
0010
1000
0010
0000
0100
0001
,
0010
0001
0100
0010
1000
0001
0100
0001
,
0010
0001
2000
3002
,
0203
0320
2030
3200
,
0300
0000
0001
1000
0001
0000
0100
0010
,
0100
0001
0010
0200
0000
2000
0000
0000
,
3300
0000
0001
1000
0001
0100
0010
1000
,
0100
0010
0001
0100
0010
1000
0001
0001
,
1000
1000
0001
1000
0001
1000
0020
0000
,
0000
0030
1000
0000
0100
0010
0001
0000
,
0001
0010
0100
0000
0100
0010
0001
0000
,
0040
0130
0001
0100
0010
1000
0001
0010
,
0001
0000
0001
1000
0001
0100
0010
1000
,
0000
0001
0010
0000
0100
1000
0010
0000
,
0100
0001
0100
0000
0010
0010
1000
0000
,
0001
0001
1000
0010
0010
0100
0001
1000
,
0100
0000
0020
0000
0030
0100
0000
0010
,
0001
0000
1000
0010
0001
0000
0000
0000
,
0001
0000
1000
0010
1000
0000
0010
0000
,
0001
0100
1000
0000
0100
0000
0001
0000
,
0010
0100
0010
0000
1000
0000
0004
4003
,
3010
0000
0010
1000
0100
0000
0001
0000
,
0010
0001
0100
0000
0010
1000
0010
0000
,
0100
0001
0010
0000
0100
0000
1000
0010
,
0001
0000
0010
0100
1000
0000
0010
0100
,
0010
0001
0010
0001
,
0000
0100
1000
0010
,
0000
0100
0100
0001
,
0000
0100
1000
0010
,
1000
0000
0000
0000
;

//---------------dance-single - ----------------
#NOTEDATA:;
#CHARTNAME:;
#STEPSTYPE:dance-single;
#DESCRIPTION:;
#CHARTSTYLE:;
#DIFFICULTY:Easy;
#METER:3;
#RADARVALUES:0.102775,0.118705,0.007194,0.000000,0.000000,100.000000,99.000000,1.000000,0.000000,0.000000,0.000000,0.000000,0.000000,0.000000,0.102775,0.118705,0.007194,0.000000,0.000000,100.000000,99.000000,1.000000,0.000000,0.000000,0.000000,0.000000,0.000000,0.000000;
#CREDIT:;
#DISPLAYBPM:100.000000;
#NOTES:
0000
0000
0000
0000
,
0000
0000
0000
0000
,
0000
0000
0000
0000
,
1000
0000
0010
0000
,
1000
0000
0001
0000
,
0100
0000
0010
0000
,
1000
0000
0001
0000
,
0010
0000
0100
0000
,
1000
0000
0001
0000
,
0100
0000
0010
0000
,
1000
0000
0001
0000
,
1000
0000
0000
1000
,
0000
0001
0000
0100
,
0000
0010
0000
1000
,
0000
0001
0000
1000
,
0000
0010
0000
0100
,
0000
0001
0000
0100
,
0000
0010
0000
1000
,
0000
0010
0000
0100
,
0000
0001
0000
1000
,
0000
0001
0000
0010
,
0000
0000
0000
1000
,
0000
0001
0000
0100
,
0000
0000
0000
0010
,
0000
0100
0000
1000
,
0000
0001
0000
0010
,
0000
0100
0000
1000
,
0000
0001
0000
0001
,
0000
0000
0000
0000
,
0000
1000
0000
0010
,
0000
0000
0000
0000
,
0000
0100
0000
0001
,
0000
1000
0000
0010
,
0000
0100
0000
0001
,
0000
1000
0000
1001
,
0000
1000
0000
0001
,
0000
0010
0000
0100
,
0000
1000
0000
0001
,
0000
0010
0000
0010
,
0000
0100
0000
0010
,
0000
0100
0000
0010
,
0000
1000
0000
0001
,
0000
1000
0000
0001
,
0000
0100
0000
0010
,
0000
1000
0000
0010
,
0000
0100
0000
0001
,
0000
0010
0000
0010
,
0000
0100
0000
1000
,
0000
0001
0000
0100
,
0000
0010
0000
1000
,
0000
0001
0000
1000
,
0000
0010
0000
0100
,
0000
0001
0000
1000
,
0000
0010
0000
0100
,
0000
0001
0000
1000
,
1000
0000
0000
0000
;

//---------------dance-single - ----------------
#NOTEDATA:;
#CHARTNAME:;
#STEPSTYPE:dance-single;
#DESCRIPTION:;
#CHARTSTYLE:;
#DIFFICULTY:Beginner;
#METER:1;
#RADARVALUES:0.029805,0.055306,0.000000,0.000000,0.000000,29.000000,29.000000,0.000000,0.000000,0.000000,0.000000,0.000000,0.000000,0.000000,0.029805,0.055306,0.000000,0.000000,0.000000,29.000000,29.000000,0.000000,0.000000,0.000000,0.000000,0.000000,0.000000,0.000000;
#CREDIT:;
#DISPLAYBPM:100.000000;
#NOTES:
// measure 0
0000
0000
0000
0000
,  // measure 1
0000
0000
0000
0000
,  // measure 2
0000
0000
0000
0000
,  // measure 3
0000
0000
0000
0000
,  // measure 4
0000
1000
0000
0000
,  // measure 5
0000
0000
0000
0000
,  // measure 6
0000
0010
0000
0000
,  // measure 7
0000
0000
0000
0000
,  // measure 8
0000
0001
0000
0000
,  // measure 9
0000
0000
0000
0000
,  // measure 10
0000
0010
0000
0000
,  // measure 11
0000
0000
0000
0000
,  // measure 12
0000
0000
1000
0000
,  // measure 13
0000
0000
0001
0000
,  // measure 14
0000
0000
0010
0000
,  // measure 15
0000
0000
0000
0000
,  // measure 16
0000
0000
1000
0000
,  // measure 17
0000
0000
0000
0000
,  // measure 18
0000
0000
0001
0000
,  // measure 19
0000
0000
0000
0000
,  // measure 20
0000
0000
0000
0000
,  // measure 21
0100
0000
0000
0000
,  // measure 22
0000
0000
0000
0000
,  // measure 23
0001
0000
0000
0000
,  // measure 24
0000
0000
0000
0000
,  // measure 25
1000
0000
0000
0000
,  // measure 26
0000
0000
0000
0000
,  // measure 27
0000
0000
0000
1000
,  // measure 28
0000
0000
0000
0000
,  // measure 29
0000
0000
0000
0100
,  // measure 30
0000
0000
0000
0000
,  // measure 31
0000
0000
0000
0010
,  // measure 32
0000
0000
0000
0000
,  // measure 33
0000
0000
0000
1000
,  // measure 34
0000
0000
0000
0000
,  // measure 35
0000
0000
0000
0001
,  // measure 36
0000
0000
0000
0000
,  // measure 37
0000
0010
0000
0000
,  // measure 38
0000
0000
0000
0000
,  // measure 39
0000
1000
0000
0000
,  // measure 40
0000
0010
0000
0000
,  // measure 41
0000
0100
0000
0000
,  // measure 42
0000
1000
0000
0000
,  // measure 43
0000
0000
0000
0000
,  // measure 44
0000
1000
0000
0000
,  // measure 45
0000
0001
0000
0000
,  // measure 46
0000
0000
0000
0000
,  // measure 47
0000
0010
0000
0000
,  // measure 48
0000
0100
0000
0000
,  // measure 49
0000
1000
0000
0000
,  // measure 50
0000
0001
0000
0000
,  // measure 51
0000
1000
0000
0000
;
