#TITLE:Wanna Get Up;
#SUBTITLE:;
#ARTIST:2 Unlimited;
#TITLETRANSLIT:;
#SUBTITLETRANSLIT:;
#ARTISTTRANSLIT:;
#GENRE:;
#CREDIT:;
#MUSIC:Wanna Get Up.ogg;
#BANNER:bn.png;
#BACKGROUND:bg.png;
#CDTITLE:;
#SAMPLESTART:51.647;
#SAMPLELENGTH:15.000;
#SELECTABLE:YES;
#OFFSET:-0.101;
#BPMS:0.000=127.000
,8.000=126.992
;
#STOPS:;
#BGCHANGES:16.000=ring8.avi=1.200=1=0=1===CrossFade==,
24.000=kaliedoscope4.avi=1.400=0=0=1,
32.000=bunny1.avi=1.200=0=0=1,
40.000=bunny2.avi=1.200=0=0=1,
48.000=bracelet1.avi=1.200=0=0=1,
56.000=piston1.avi=1.200=0=0=1,
64.000=kaliedoscope4.avi=1.400=0=0=1,
72.000=piston1.avi=1.200=0=0=1,
80.000=text10.avi=1.000=0=0=1,
88.000=ring8.avi=1.000=0=0=1,
96.000=tunnel12.avi=1.000=0=0=1,
104.000=piston1.avi=1.200=0=0=1,
112.000=bunny1.avi=1.200=0=0=1,
116.000=bunny2.avi=1.200=0=0=1,
120.000=text10.avi=1.000=0=0=1,
128.000=bunny1.avi=1.200=0=0=1,
132.000=bunny2.avi=1.200=0=0=1,
136.000=ring8.avi=1.000=0=0=1,
144.000=bracelet1.avi=1.400=0=0=1,
160.000=kaliedoscope4.avi=1.200=0=0=1,
168.000=piston1.avi=1.200=0=0=1,
172.000=wheel1.avi=0.600=0=0=1,
176.000=bunny1.avi=1.000=0=0=1,
180.000=bunny2.avi=1.000=0=0=1,
184.000=ring8.avi=1.000=0=0=1,
192.000=bunny1.avi=1.000=0=0=1,
196.000=bunny2.avi=1.000=0=0=1,
200.000=text10.avi=1.000=0=0=1,
204.000=wheel1.avi=0.900=0=0=0=StretchNoLoop====,
205.000=wheel1.avi=0.900=0=0=0=StretchNoLoop====,
206.000=wheel1.avi=0.900=0=0=0=StretchNoLoop====,
207.000=wheel1.avi=0.900=0=0=0=StretchNoLoop====,
208.000=bunny1.avi=1.000=0=0=1,
212.000=bunny2.avi=1.000=0=0=1,
216.000=tunnel12.avi=1.000=0=0=1,
224.000=bunny1.avi=1.000=0=0=1,
228.000=bunny2.avi=1.000=0=0=1,
232.000=ring8.avi=1.000=0=0=1,
236.000=wheel1.avi=0.900=0=0=0=StretchNoLoop====,
237.000=wheel1.avi=0.900=0=0=0=StretchNoLoop====,
238.000=wheel1.avi=0.900=0=0=0=StretchNoLoop====,
239.000=wheel1.avi=0.900=0=0=0=StretchNoLoop====,
240.000=bunny1.avi=1.000=0=0=1,
244.000=bunny2.avi=1.000=0=0=1,
248.000=piston1.avi=1.200=0=0=1,
256.000=Wanna Get Up-jacket.png=0.800=1=0=0=StretchNoLoop==CrossFade==,
99999.000=-nosongbg-=1.000=0=0=0=StretchNoLoop====
;
#FGCHANGES:;

//--------------- dance-single - ----------------
#NOTES:
     dance-single:
     :
     Beginner:
     3:
     0.166,0.207,0.191,0,0:
0000
0000
0000
0000
,
0000
0000
0000
0000
,
1000
0000
0000
0000
,
1000
0000
0001
0000
,
1001
0000
0000
0000
,
0001
0000
0001
0000
,
0001
0000
0000
0000
,
1000
0000
1000
0000
,
1000
0000
0000
0000
,
0001
0000
0000
0000
,
0001
0000
0000
0000
,
1000
0000
0010
0000
,
1000
0000
0000
0000
,
1000
0000
0000
0000
,
1000
0000
1000
0000
,
0001
0000
0001
0000
,
1000
0000
0000
0000
,
0001
0000
0000
0000
,
1000
0000
1000
0000
,
0010
0000
0000
0000
,
1000
1000
1000
0000
,
0001
0001
0001
0000
,
1000
1000
1000
0000
,
0001
0001
0001
0000
,
1000
0000
0001
0000
,
1000
0000
0001
0000
,
1000
0000
0100
0000
,
1001
0000
0000
0000
,
1001
0000
0100
0000
,
0110
0000
1000
0000
,
1001
0000
0100
0000
,
0110
0000
1000
0000
,
1001
0000
0100
0000
,
0110
0000
1000
0000
,
1001
0000
0100
0000
,
1001
0000
0000
1000
,
1000
0000
0001
0000
,
1000
1000
0000
0000
,
0001
0000
0100
0000
,
0001
0001
0000
0000
,
1000
1000
1000
0000
,
0100
0100
0100
0000
,
1000
0000
0001
0000
,
1001
0000
0000
0000
,
1001
0000
0000
0000
,
0110
0000
0000
0000
,
1000
0000
1000
0000
,
1000
0000
0000
0000
,
1001
0000
0000
0000
,
0110
0000
0000
0000
,
1001
0000
0001
0000
,
1000
1000
1000
0000
,
1001
0000
0100
0000
,
0110
0000
1000
0000
,
0001
0001
0001
0000
,
1000
1000
1000
0000
,
1001
0000
0100
0000
,
0110
0000
1000
0000
,
0100
0100
0100
0000
,
0010
0010
0010
0000
,
0110
0000
0001
0000
,
0110
0000
1000
0000
,
0001
0001
0001
0000
,
1000
1000
1000
0000
,
1001
0000
0100
0000
,
0110
0000
0000
0000
;

//--------------- dance-single - ----------------
#NOTES:
     dance-single:
     :
     Easy:
     6:
     0.241,0.236,0.167,0,0:
0000
0000
0000
0000
,
0000
0000
0000
0000
,
1000
1000
1000
0000
,
0100
0100
0100
0000
,
1001
0000
0001
0000
,
1000
1000
1000
0000
,
0110
0000
0100
0000
,
1000
1000
0010
0000
,
0100
0100
0001
0001
,
1000
0000
1000
0000
,
1000
1000
0100
0100
,
1000
0000
0001
0000
,
1001
0000
0100
0000
,
0001
0100
0001
0000
,
1000
0000
0100
0000
,
1000
0100
1000
0000
,
1000
0001
1000
0000
,
1000
0100
1000
0000
,
1000
0001
1000
0000
,
0001
1000
0001
0000
,
0100
0100
0100
0000
,
0010
0010
0010
0000
,
0100
0100
0100
0000
,
0010
0010
0010
0000
,
1000
0001
1000
0000
,
0001
1000
0001
0000
,
1000
0001
1000
0001
,
1001
0000
0100
0000
,
1001
0000
1000
0001
,
0110
0000
0001
0100
,
0001
1000
0100
1000
,
0001
0000
0100
0000
,
1001
0000
1000
1000
,
1001
0000
1000
0100
,
1000
0001
0100
0001
,
1000
0000
1000
0000
,
1001
0000
1000
0000
,
0100
0100
0100
0000
,
0001
0000
1000
0000
,
0100
0010
0010
0000
,
1000
0100
0001
0100
,
1000
0100
0001
0000
,
1000
0100
1000
0100
,
1000
0000
0000
0000
,
1001
0000
0100
0001
,
0101
0000
1000
0100
,
1000
1000
0001
1000
,
0100
0000
0010
0010
,
1001
0000
0100
0100
,
0110
0000
1000
0100
,
1000
0001
0010
1000
,
0100
0000
0010
0010
,
1001
0000
1000
0100
,
0110
0000
0010
0010
,
1000
0100
1000
0001
,
0100
0000
0010
0010
,
1001
0000
0100
0100
,
0110
0000
1000
0001
,
0100
0001
1000
0001
,
1000
0000
0100
0001
,
0101
0000
1000
0100
,
1100
0000
1000
0001
,
1000
0100
1000
0001
,
1000
0000
0001
1000
,
1001
0000
1000
0100
,
1100
0000
0100
0100
;

//--------------- dance-single - ----------------
#NOTES:
     dance-single:
     :
     Medium:
     9:
     0.379,0.421,0.215,0.175,0:
0000
0000
0000
0000
,
0000
0000
0000
0000
,
1000
0000
1000
0010
1000
0000
0000
0000
,
0001
0000
0001
0100
0001
0000
0000
0000
,
1000
0000
0001
0000
1000
0000
0100
1000
,
0010
0000
0010
0000
1000
0000
1000
0100
,
1000
0000
1000
0000
0001
0000
0100
0001
,
1000
0000
1000
0000
0100
0000
1000
0010
,
1000
0000
1000
0000
0100
0000
1000
0100
,
1000
0000
1000
0000
0001
0000
0010
0100
,
0010
0000
0010
0000
0100
0000
0001
0100
,
0001
0000
0001
0000
1000
0000
1000
0100
,
1000
0000
0001
0000
1000
0100
1000
0000
,
0001
0100
0000
0100
0000
0100
0000
0000
,
1000
0001
1000
0100
,
1000
0001
1000
0001
0000
0100
0000
0000
,
0001
1000
0001
0100
,
0001
0000
1000
0100
0000
0100
0000
0000
,
1000
0000
0100
0000
1000
0000
0010
1000
,
0010
0000
1000
0010
0000
0010
0000
1000
,
0001
0000
0001
0000
1000
0100
0000
0100
,
0000
0100
1000
0000
0100
0000
0010
0000
,
1001
0000
1001
0000
0001
1000
0000
1000
,
0000
1000
0100
0000
0010
0000
0100
0000
,
1001
0000
1001
0000
1000
0001
0000
0001
,
0000
0001
0100
0000
0010
0000
0010
0000
,
1000
0001
1000
0000
1000
0100
0000
0200
,
0000
1300
1000
1000
,
2002
0000
3003
0000
1000
0100
1000
0000
,
0220
0000
0330
0000
0001
1000
0001
0000
,
1000
0100
1000
0000
0010
0000
0010
0000
,
0100
0100
0001
1000
,
2002
0000
3003
0000
0010
0100
0010
0000
,
0220
0000
0330
0000
1000
0001
1000
0000
,
1000
0100
1000
0000
0001
0000
0010
0000
,
1010
1010
1100
1100
,
1002
1000
0100
1003
,
2000
0001
0100
3001
,
0002
0100
0010
0103
,
2000
0100
0010
3100
,
2000
3002
0203
0302
,
2003
3200
2300
0000
,
3001
0001
0100
1000
,
2002
0000
0000
3003
,
1001
0000
0000
0000
0100
0000
0001
0100
,
0001
0000
1000
1000
,
0010
0000
1000
0000
0100
0000
1000
0100
,
0000
0000
0001
0000
1000
0000
0100
1000
,
0100
0000
0000
0000
1000
0000
0001
1000
,
0001
0000
1000
0010
,
0010
1000
0010
0000
1000
0001
1000
0000
,
1100
1010
1100
1010
,
1001
0000
1000
0000
0001
1000
0001
0000
,
0100
0000
0100
0000
1000
0001
1000
0000
,
1000
0000
0100
0000
1000
0000
1000
0010
,
1000
0001
0100
0001
,
1001
0000
1001
0000
1000
0000
0100
1000
,
0100
0000
0100
0000
1000
0000
1000
0001
,
1000
0000
0001
0000
1000
0000
0100
1000
,
1100
1100
1010
1010
,
1001
0000
1000
0000
0001
0000
0100
0001
,
0100
0000
0100
0000
0001
0000
1000
0001
,
1000
0000
0001
0000
0100
0000
0001
0100
,
0001
0000
1000
0000
0001
0000
1000
0001
,
1000
0000
1000
0000
1000
0000
1000
0100
,
1000
0000
0001
0000
1000
0000
0001
1000
,
0001
0000
0000
0000
;

//--------------- dance-single - ----------------
#NOTES:
     dance-single:
     :
     Hard:
     11:
     0.471,0.447,0.343,0.279,0.048:
0000
0000
0000
0000
,
0000
0000
0000
0000
,
1000
0000
0000
0001
0100
0000
0000
0000
0010
0000
0000
0000
0000
0000
0000
0000
,
2000
0100
0100
0100
3100
0000
1001
0000
,
1000
0001
1000
0001
0100
0000
0001
0000
,
1000
0001
0100
0001
1000
0000
0010
0000
,
0010
1000
0100
1000
0010
0000
0100
0000
,
0010
1000
0001
1000
0010
0000
0100
0000
,
0001
0000
1000
0000
0001
0000
0100
0000
0001
0000
0000
1000
0000
0000
1000
0000
,
0001
0000
0100
0000
0001
0000
1000
0000
0001
0000
0000
0001
0000
0000
0000
0000
,
0001
0000
0100
0000
0001
0000
1000
0000
0001
0000
0000
0010
0000
0000
1000
0000
,
1000
0000
0100
0000
1000
0000
0001
0000
1000
0000
0000
0100
0000
0000
1000
0000
,
1000
0001
0100
0001
,
1000
1000
0100
1000
,
0001
1000
0001
0000
0001
0100
0001
0000
,
1000
0100
1000
0001
0100
0000
1001
0000
,
1000
0001
0100
0001
,
1000
1100
0001
0101
,
1000
0001
1000
0000
0001
0100
0001
0000
,
1000
0100
1000
0001
0100
0000
1001
0000
,
1000
0001
1000
0001
1000
0001
1000
0000
,
0010
0100
0010
0100
0010
0100
0010
0000
,
0010
1000
0010
1000
0010
1000
0010
0000
,
1000
0100
1000
0100
1000
0100
1000
0000
,
1000
0001
1000
0000
0001
0100
0001
0000
,
1000
0001
0100
0001
1000
0010
0010
0000
,
1000
0100
1000
0001
0100
0001
0000
2000
,
0000
0001
0001
3001
,
2002
0000
3003
0000
1000
0100
0001
0000
,
2002
0000
3003
0000
0001
0100
1000
0000
,
1000
0010
1000
0100
1000
0000
0001
0100
,
0000
0100
0001
0000
1000
0001
1000
0000
,
2002
0000
3003
0000
1000
0010
0001
0000
,
2002
0000
3003
0000
0001
0010
1000
0000
,
1000
0100
1000
0001
0100
0000
0001
1000
,
1100
0101
1010
0011
,
1001
0000
0000
0000
1000
0000
0001
0000
0100
0000
0000
0100
0000
0000
0000
0000
,
0010
0000
0000
0000
0010
0000
1000
0000
0100
0000
0000
0100
0000
0000
0000
0000
,
1000
0000
0000
0000
1000
0000
0001
0000
0100
0000
0000
0100
0000
0000
0000
0000
,
0010
0000
0000
0000
0010
0000
0001
0000
0100
0000
0000
0100
0000
0000
0000
0000
,
1010
1010
1100
1100
,
1001
0011
0202
0303
,
1000
0000
1000
0000
0100
0000
1000
0000
0001
0000
0000
0010
0000
0000
1000
0000
,
2002
0000
0000
3003
,
2002
0000
3003
0010
1000
1000
0100
0000
,
2002
0000
3003
0010
0001
0001
0100
0000
,
1000
0001
1000
0100
1000
0000
1000
0100
,
0000
0000
0000
1000
0001
1000
0001
0000
,
2002
0000
3003
0000
0001
1000
0010
0000
,
2002
0000
3003
0000
1000
0001
0100
0000
,
1000
0010
1000
0000
1000
0000
0001
1000
,
1001
0101
1010
1100
,
1001
0000
0000
0000
1000
0000
0001
0000
0100
0000
0000
0001
0000
0000
1000
0000
,
1100
0000
1000
0001
0100
0000
0001
1000
,
0100
1000
1000
0010
1000
0000
1000
0001
,
0100
0000
0000
0000
0100
0000
0000
0000
0001
0000
0000
1000
0000
0000
0001
0000
,
2002
0000
3003
0000
1000
0100
0001
0000
,
2002
0000
3003
0000
0001
0100
1000
0000
,
1000
0001
1000
0000
0200
0000
1300
1000
,
1001
0101
1001
1100
,
2002
0000
3003
0000
1000
0010
0100
0000
,
2002
0000
3003
0000
0001
0100
0010
0000
,
1000
0001
1000
0000
0100
0000
1000
0001
,
0001
0000
0101
0000
0001
1000
0001
0000
,
2002
0000
3003
0000
1000
0010
1000
0000
,
2002
0000
3003
0000
1000
0001
0010
0010
,
0100
0000
0000
0000
;

//--------------- dance-single - ----------------
#NOTES:
     dance-single:
     :
     Challenge:
     13:
     0.516,0.474,0.231,0.064,0.167:
0000
0000
0000
0000
,
0000
0000
0000
0000
,
1000
1000
0001
0100
0001
0000
0000
0000
,
0002
0100
0100
0010
0103
0000
1001
0000
,
1000
0000
0000
0001
0000
0000
0100
0000
0001
0000
0000
1000
0000
0000
0100
0000
,
0010
0000
0000
0010
0000
0000
1000
0000
0100
0000
0000
0100
0000
0000
1000
0000
,
0001
0000
0000
1000
0000
0000
0100
0000
1000
0000
0000
0010
0000
0000
0100
0000
,
0010
0000
0000
0001
0000
0000
1000
0000
1000
0000
0000
1000
0000
0000
0100
0000
,
0010
0000
0000
1000
0000
0000
1000
0000
0001
0000
0000
0010
0000
0000
0100
0000
,
0010
0000
0000
1000
0000
0000
0001
0000
0001
0000
0000
0100
0000
0000
0001
0000
,
0010
0000
0000
0010
0000
0000
0100
0000
0010
0000
0000
1000
0000
0000
0001
0000
,
0100
0000
0000
0001
0000
0000
1000
0000
0001
0000
0000
1000
0000
0000
0001
0000
,
1000
0001
1000
0001
1000
0001
1000
0001
,
0100
0001
0100
0001
0100
0001
0100
0000
,
1000
0001
1000
0001
1000
0001
1000
0001
,
1000
0010
1000
0010
1000
0010
1000
0000
,
1000
0100
1000
0100
1000
0100
1000
0100
,
1000
0010
1000
0010
1000
0010
1000
0000
,
1000
0100
1000
0100
1000
0100
1000
0100
,
1000
0001
1000
0001
1000
0001
1000
0000
,
0002
0000
1003
0000
1000
1000
0100
0000
,
1000
0000
0001
0000
1000
0000
0100
0000
1000
0000
0000
0000
0001
0000
0000
1000
,
0001
0000
1001
0000
0001
0100
0100
0000
,
1000
0100
1000
0001
0100
0100
0100
0000
,
1000
0001
1000
0100
1000
0010
0000
1000
,
0000
0001
0001
1000
0100
0000
1000
0001
,
1000
0100
1000
0001
1000
0100
0000
0002
,
0000
0000
0000
0000
1000
0000
0000
0000
1003
0000
0000
1000
0000
0000
0001
0000
,
1001
0000
0000
0000
1000
0000
0001
0000
0100
0000
0000
0001
0000
0000
1000
0000
,
0110
0000
1000
0001
1000
0100
1000
0001
,
0100
0001
1000
0001
1000
0100
1000
0100
,
0000
0000
0000
0000
1000
0000
0001
0000
0100
0000
0000
0001
0000
0000
1000
0000
,
1001
0000
0000
0000
1000
0000
0001
0000
0100
0000
0000
0100
0000
0000
0010
0000
,
0110
0000
1000
0001
0100
0001
0010
0010
,
0100
0010
1000
0001
1000
0000
0001
0100
,
0101
0101
1010
1010
,
1001
0000
0001
0000
1000
0000
0001
0000
0001
0000
0000
0100
0000
0000
0001
0000
,
1000
0000
1000
0000
0100
0000
0010
0000
1000
0000
0000
0001
0000
0000
0001
0000
,
0100
0000
0001
0000
1000
0000
0100
0000
1000
0000
0000
1000
0000
0000
0001
0000
,
0100
0000
0001
0000
1000
0000
0001
0000
0001
0000
0000
1000
0000
0000
0100
0000
,
1000
0100
1000
0000
1000
0001
1000
0000
,
0001
0000
0000
0100
0000
0000
0001
0000
0100
0000
0001
0000
0100
0000
0000
0000
0000
0000
1001
0000
0000
0000
0000
0000
,
1000
0000
0001
0000
0100
0000
0001
0000
0010
0000
0000
0100
0000
0000
0100
0000
,
2002
0000
0000
3003
,
1001
0000
0000
0000
1000
0000
0001
0000
0100
0000
0000
0100
0000
0000
0010
0000
,
0110
0000
1000
0001
0100
0100
0001
1000
,
0100
1000
0010
1000
0001
0100
0001
0100
,
0000
0000
1000
0000
0001
0000
0100
0000
0001
0000
0000
0001
0000
0000
0100
0000
,
1001
0000
0000
0000
0001
0000
1000
0000
0100
0000
0000
0100
0000
0000
1000
0000
,
0110
0000
1000
0001
1000
0100
1000
0001
,
0100
0001
1000
0010
2000
0000
3001
0100
,
0101
1100
1010
0011
,
1001
0000
0000
0000
1000
0000
0001
0000
1000
0000
1000
0100
0000
0100
1000
0000
,
2000
0000
3001
0100
0001
1000
0100
1000
,
0001
1000
0100
1000
0010
1000
0100
1000
,
0000
0000
1000
0000
0100
0000
1000
0000
0001
0000
0100
0001
0000
0001
0100
0000
,
1001
0000
0000
0000
1000
0000
0001
0000
0100
0000
0001
0010
0000
0010
0100
0000
,
0110
0000
1000
0001
1000
0100
1000
1000
,
0001
0100
0001
1000
2000
0000
3001
0001
,
1001
1001
0110
1001
,
0110
0000
1000
0000
0001
0000
0100
0000
0001
0000
0000
1000
0000
0000
0100
0000
,
1000
0000
0001
0000
1000
0000
0001
0000
0100
0000
0000
0001
0000
0000
1000
0000
,
1000
0000
0100
0000
1000
0000
0010
0000
1000
0000
0000
0100
0000
0000
1000
0000
,
0001
0000
0100
0000
0001
0000
1000
0000
0001
0000
0000
0100
0000
0000
0010
0000
,
1000
0000
0000
0000
0001
0000
1000
0000
0001
0000
0000
1000
0000
0000
0001
0000
,
0100
0000
0010
0010
0100
0001
1000
0001
,
1000
0000
0000
0000
;
