#TITLE:Unite;
#SUBTITLE:;
#ARTIST:Beastie Boys;
#TITLETRANSLIT:;
#SUBTITLETRANSLIT:;
#ARTISTTRANSLIT:;
#GENRE:;
#CREDIT:;
#MUSIC:Unite.ogg;
#BANNER:bn.png;
#BACKGROUND:bg.png;
#CDTITLE:;
#SAMPLESTART:58.918;
#SAMPLELENGTH:15.000;
#SELECTABLE:YES;
#OFFSET:-5.334;
#BPMS:0.000=97.852
,88.000=195.704
,104.000=195.868
,168.000=97.914
,199.000=113.465
,200.000=96.907
,208.000=97.861
;
#STOPS:;
#DISPLAYBPM:98.000:196.000;
#BGCHANGES:8.000=letters1.avi=1.200=1=0=1===CrossFade==,
16.000=dance10.avi=1.000=0=0=1,
24.000=aliens2.avi=1.000=0=0=1,
32.000=singer1.avi=1.000=0=0=1,
36.000=wheel7.avi=1.000=0=0=1,
36.250=wheel7r.avi=1.000=0=0=1,
36.500=wheel7.avi=1.000=0=0=1,
36.750=wheel7r.avi=1.000=0=0=1,
37.000=wheel7.avi=1.000=0=0=1,
37.250=wheel7r.avi=1.000=0=0=1,
37.500=wheel7.avi=1.000=0=0=1,
37.750=wheel7r.avi=1.000=0=0=1,
38.000=wheel7.avi=1.000=0=0=1,
38.250=wheel7r.avi=1.000=0=0=1,
38.500=wheel7.avi=1.000=0=0=1,
38.750=wheel7r.avi=1.000=0=0=1,
39.000=wheel7.avi=1.000=0=0=1,
40.000=dance10.avi=1.000=0=0=1,
46.000=fireworks5.avi=1.000=0=0=1,
48.000=silhouette1.avi=1.200=0=0=1,
56.000=blackhole1.avi=1.000=0=0=1,
64.000=dance12.avi=1.200=0=0=1,
72.000=aliens2.avi=0.900=0=0=1,
80.000=wheel7.avi=1.000=0=0=1,
80.250=wheel7r.avi=1.000=0=0=1,
80.500=wheel7.avi=1.000=0=0=1,
80.750=wheel7r.avi=1.000=0=0=1,
81.000=wheel7.avi=1.000=0=0=1,
81.500=wheel7r.avi=1.000=0=0=1,
82.000=wheel7.avi=1.000=0=0=1,
82.500=wheel7r.avi=1.000=0=0=1,
83.000=wheel7.avi=1.000=0=0=1,
84.000=singer1.avi=1.000=0=0=1,
88.000=dance10.avi=1.000=0=0=1,
96.000=wave2.avi=1.200=0=0=1,
100.000=wave2r.avi=1.200=0=0=1,
104.000=wave2.avi=1.200=0=0=1,
108.000=wave2r.avi=1.200=0=0=1,
128.000=dance10.avi=1.400=0=0=1,
144.000=heart2.avi=1.200=0=0=1,
160.000=blackhole1.avi=1.400=0=0=1,
176.000=silhouette1.avi=1.000=0=0=1,
184.000=thunder1.avi=1.000=0=0=1,
192.000=wheel7.avi=1.200=0=0=1,
196.000=letters1.avi=1.000=0=0=1,
200.000=wheel7.avi=1.200=0=0=1,
208.000=wave2.avi=0.900=0=0=1,
216.000=aliens2.avi=0.900=0=0=1,
224.000=dance10.avi=1.000=0=0=1,
232.000=silhouette1.avi=1.000=0=0=1,
236.000=Unite-jacket.png=1.000=1=0=1===CrossFade==,
99999.000=-nosongbg-=1.000=0=0=0=StretchNoLoop====
;
#FGCHANGES:;

//--------------- dance-single - ----------------
#NOTES:
     dance-single:
     :
     Beginner:
     3:
     0.12,0.19,0.032,0,0:
1000
0000
1000
0000
,
0100
0000
0100
0000
,
1000
0000
0001
0000
,
1000
0000
0001
0000
,
1000
0000
0001
0000
,
0100
0000
0100
0000
,
0110
0000
0000
0000
,
1000
1000
1000
0000
,
1001
0000
0001
0000
,
1000
1000
1000
0000
,
1001
0000
0001
0000
,
1000
0000
0001
0000
,
0100
0000
0001
0000
,
0100
0000
0001
0000
,
1000
0000
0001
0000
,
1000
0000
0001
0000
,
0100
0100
0100
0000
,
0010
0010
0010
0000
,
1000
0000
0001
0000
,
1000
0000
0001
0000
,
0100
0000
0001
0000
,
0001
0000
0100
0000
,
0001
0000
0000
0000
,
0001
0000
0000
0000
,
1000
0000
0000
0000
,
1000
0000
0000
0000
,
0001
0000
0000
0000
,
0001
0000
0000
0000
,
1000
0000
0000
0000
,
1000
0000
0000
0000
,
0001
0000
0000
0000
,
0001
0000
0000
0000
,
0100
0000
0000
0000
,
0100
0000
0000
0000
,
0001
0000
0000
0000
,
0001
0000
0000
0000
,
0010
0000
0000
0000
,
0010
0000
0000
0000
,
0001
0000
0000
0000
,
0001
0000
0000
0000
,
1000
0000
0000
0000
,
1000
0000
0000
0000
,
0100
0000
1000
0000
,
0100
0000
1000
0000
,
1000
0000
0001
0000
,
1000
0000
0001
0000
,
0001
0000
0000
0001
,
0001
0000
1000
0000
,
1000
0000
0001
0000
,
1000
0000
0001
0000
,
1000
0000
1000
0000
,
0001
0000
0001
0000
,
0100
0100
0100
0000
,
0010
0010
0010
0000
,
1000
0000
0001
0000
,
0001
0000
1000
0000
,
0001
0000
1000
0000
,
1001
0000
0000
0000
;

//--------------- dance-single - ----------------
#NOTES:
     dance-single:
     :
     Easy:
     6:
     0.174,0.215,0.048,0,0:
1000
0001
1000
0000
,
0001
1000
0001
0000
,
1000
0100
1000
0000
,
1000
0010
1000
0000
,
1000
0001
1000
0000
,
1000
0100
1000
0100
,
1001
0000
0000
0000
,
0001
0001
0001
0001
,
1001
0000
1000
0000
,
0001
1000
0001
1000
,
0001
0000
0100
0000
,
0001
0010
0001
0000
,
1000
0000
1000
0000
,
1000
0010
1000
0100
,
1000
0000
0001
0000
,
1000
0001
1000
0000
,
1000
1000
0010
0010
,
1000
0000
0001
0000
,
1000
1000
1000
1001
,
0001
0000
1000
0000
,
0001
0000
0100
0000
,
0001
0000
1000
0000
,
0001
0000
1000
0000
,
0001
0000
0100
0000
,
0001
0000
1000
0000
,
0001
0000
0100
0000
,
0001
0000
0001
0000
,
0001
0000
0001
0000
,
1000
0000
1000
0000
,
1000
0000
1000
0000
,
0001
0000
0100
0000
,
0001
0000
0100
0000
,
0001
0000
1000
0000
,
0001
0000
0000
0000
,
1000
0000
0001
0000
,
1000
0000
0001
0000
,
1000
0000
0100
0000
,
1000
0000
0000
0000
,
0001
0000
1000
0000
,
0001
0000
1000
0000
,
0010
0000
1000
0000
,
0010
0000
0000
0000
,
1000
1000
1000
0000
,
0001
0001
0001
0000
,
0100
0100
0100
0000
,
0010
0010
0010
1000
,
1001
0000
0000
1001
,
0001
0000
1000
0000
,
0001
0000
0100
0000
,
0001
1000
0001
1001
,
1000
1000
1000
0000
,
0001
0001
0001
0000
,
1000
0001
1000
0000
,
0001
1000
0001
0000
,
0100
0100
0100
0000
,
0010
0010
0010
0000
,
1000
0001
1000
0000
,
0001
1000
0000
0000
;

//--------------- dance-single - ----------------
#NOTES:
     dance-single:
     :
     Medium:
     9:
     0.317,0.382,0.121,0.04,0:
1000
0001
1000
0000
0100
0000
0100
0000
,
0010
0010
1000
1000
,
0001
1000
0001
0000
1000
0000
0001
0000
,
0100
0001
1000
0001
,
1000
0001
1000
0000
0001
1000
0001
0000
,
1000
0000
0100
0000
1000
0000
0001
1000
,
2001
0001
0001
3001
,
0001
1000
0001
1000
0001
1000
0001
0000
,
1000
0100
1000
0000
1000
0010
1000
0000
,
2000
0001
3001
1001
,
1000
0000
0001
0000
1000
0001
1000
0000
,
1000
0000
0100
0000
1000
0100
1000
0000
,
1000
0010
1000
0000
1000
0001
1000
0000
,
0001
0100
0002
1003
,
1000
0000
0001
0000
1000
0001
1000
0000
,
0001
1000
0001
0000
1000
0001
1000
0000
,
1001
1001
0110
0110
,
1001
0000
1001
0000
0100
0010
0100
0000
,
1000
0001
1000
0001
0100
0000
1001
0000
,
1000
0001
1000
0000
0100
0000
0100
0000
,
1000
0010
1000
0000
0010
0100
0010
0000
,
1000
0001
0100
0001
1000
0000
1001
0000
,
1000
0001
1000
0001
,
0100
0001
0100
0001
,
1000
0001
1000
0001
,
1000
0010
1000
0010
,
1000
0001
1000
0000
,
0100
1000
0100
0000
,
0001
1000
0001
0000
,
0100
0001
0100
0000
,
1000
0000
0000
0001
0000
0000
0010
0000
,
0010
0000
0000
0100
0000
0000
0000
0000
,
1000
0000
0000
0001
0000
0000
1000
0000
,
0100
0000
0000
0100
0000
0000
0000
0000
,
1000
0000
0000
0001
0000
0000
1000
0000
,
0100
0000
0000
0100
0000
0000
0000
0000
,
0001
0000
0000
0001
0000
0000
1000
0000
,
0001
0000
0000
0100
0000
0000
0000
0000
,
0001
0000
0000
0001
0000
0000
1000
0000
,
0001
0000
0000
0100
0000
0000
0000
0000
,
0010
0000
0000
0010
0000
0000
1000
0000
,
0001
1000
0001
1000
,
0001
0000
0001
0000
1000
0001
1000
0000
,
0100
0000
0100
0000
0010
1000
0010
0000
,
1000
0001
1000
0000
1000
0100
1000
0000
,
0001
1000
0001
1000
0100
0000
0110
0000
,
0020
0000
0030
0110
,
1000
0001
1000
0000
0100
0000
0100
0000
,
1000
0010
1000
0000
1000
0000
0001
0000
,
1000
0001
1000
0001
1000
0000
1001
0000
,
0001
1000
0001
0000
1000
0001
1000
0000
,
0001
1000
0001
0000
1000
0001
1000
0000
,
1000
0000
0001
0000
1000
0100
1000
0000
,
1000
0010
1000
0000
0001
0000
1001
0000
,
1000
0001
1000
0000
1000
0100
1000
0000
,
1000
0010
1000
0000
0001
0000
1001
0000
,
1000
0001
1000
0000
0001
1000
0001
1000
,
0002
1003
0000
0000
;

//--------------- dance-single - ----------------
#NOTES:
     dance-single:
     :
     Hard:
     11:
     0.423,0.478,0.153,0.105,0.048:
1000
0001
1000
0001
0100
0001
0100
0000
,
0001
1000
0001
1000
0100
1000
0100
0000
,
1000
0010
1000
0000
1000
0001
1000
0000
,
1000
0100
1000
0001
0010
0100
1000
0000
,
0011
0011
1001
1001
,
0001
0000
1000
0000
0001
0000
1000
0000
0100
0000
1000
0000
0001
0000
1000
0001
,
2000
0001
0001
3001
,
0001
1000
0001
0000
0001
0100
0001
0000
1000
0001
1000
0000
1001
0000
0000
0000
,
2000
0010
3010
0000
0002
1000
1003
0000
,
1000
0100
0001
0100
1000
0100
2002
3003
,
1001
0000
0001
0000
1000
0100
1000
0000
,
0001
1000
0001
1000
0100
1000
0001
0000
,
1000
0010
1000
0000
1000
0001
1000
0000
,
1000
0100
1000
0010
0100
0010
0001
0000
,
1000
0000
1001
0000
1000
0001
1000
0000
,
0001
0100
0001
1000
0010
1000
0010
0000
,
1001
0000
1001
0000
0110
0110
1001
0000
,
1000
0000
0001
0000
1000
0000
0001
0000
0100
0001
0200
0000
0310
0000
0000
0000
,
1000
0001
1000
0001
1000
0000
0010
0000
0100
0000
0001
0000
0101
0000
0000
0000
,
1000
0001
1000
0001
0100
0001
0100
0000
,
0001
1000
0001
1000
0100
1000
0100
1000
,
0010
1000
0001
1000
0001
1000
0001
0000
,
1000
1000
0001
0001
,
0100
0100
0010
0010
,
1000
0001
1000
0000
0001
1000
0001
0000
,
0001
0100
0001
0000
1000
0001
1000
0001
,
1000
0000
1001
0000
0001
0100
0001
0100
,
0001
0001
1001
0000
,
1000
0000
0001
0000
1000
0010
1000
0000
,
1000
0000
0001
1000
0001
1000
0001
0000
,
0001
0000
1000
0001
0000
0001
1000
0000
,
1000
0000
1000
0010
0000
0000
0000
0000
,
1000
0000
0001
0100
0000
0100
0001
0000
,
1000
0000
0001
1000
0000
0000
0000
0000
,
0001
0000
1000
0010
0000
0010
1000
0000
,
1000
0000
0100
1000
0000
0000
0000
0000
,
0001
0000
1000
0001
0000
0001
0100
0000
,
0010
0000
0010
0100
0000
0000
0000
0000
,
0001
0000
1000
0001
0000
0001
1000
0000
,
1000
0000
0100
1000
0000
0000
0000
0000
,
0001
0000
0001
1000
0000
1000
0001
0000
,
1000
0001
1000
0001
1000
0001
1000
0000
,
1001
0000
0001
0000
0001
1000
0001
0000
,
0001
0100
0001
0000
1000
0010
1000
0000
,
1000
0000
0001
1000
0000
0000
0000
0000
0100
0000
1000
0100
0000
0000
0000
0000
,
1000
0001
1000
0001
0000
0000
0100
0000
0200
0000
0000
0000
0310
0000
0000
0000
,
0002
1000
1003
1001
,
0010
1000
0010
1000
0001
0000
1001
0000
,
0001
1000
0001
1000
0001
0100
0001
0000
,
0010
1000
0010
1000
0100
0010
0001
0000
,
1000
0001
1000
0001
0200
0000
0300
0000
,
0001
1000
0001
1000
0200
0000
0310
0000
,
1000
0001
1000
0000
0001
0100
0001
0000
,
1000
0010
1000
0001
1000
0001
1000
0000
,
0001
1000
0001
0100
0002
0000
1003
0000
,
1000
0001
1000
0001
2000
0000
3001
0000
,
1000
0000
0001
0000
1000
0000
0001
0000
0100
0000
0000
0000
0010
0000
1000
0010
,
2000
3001
0000
0000
;

//--------------- dance-single - ----------------
#NOTES:
     dance-single:
     :
     Challenge:
     14:
     0.55,0.573,0.153,0.04,0.347:
1000
0001
1000
0000
0001
0000
0100
0000
0001
0000
1000
0000
0001
0000
1000
0000
,
0010
1000
0001
1000
0100
1000
0001
0000
,
1000
0001
0100
0001
1000
0010
1000
0001
,
1000
0100
1000
0001
0010
0100
1000
0000
,
0001
1000
0001
0100
0001
1000
0010
1000
,
0100
0000
1000
0000
0001
0000
1000
0000
0001
0000
1000
0000
0001
0000
1000
0001
,
1000
0000
0001
0000
0100
0001
0000
0001
0100
0000
0001
0000
1000
0000
0001
0000
,
1000
0001
1000
0001
1000
0001
1000
0001
1000
0001
1000
0001
1000
0000
0000
0000
,
0001
1000
0001
1000
0001
0000
0000
0000
1000
0010
1000
0010
1000
0000
0000
0000
,
0001
1000
0001
1000
0001
0000
1000
0001
1000
0001
1000
0100
1000
0000
0001
0000
,
0001
0100
0001
0000
0110
0000
1000
0000
0001
0000
1000
0000
1010
0000
0000
0000
,
1000
0001
0000
0001
1000
0000
1000
0100
1000
0000
0001
0000
1001
0000
0000
0000
,
1000
0000
0010
1000
0010
0000
1000
0000
0001
0000
0100
0000
0001
0000
0000
1000
,
0001
0000
1000
0100
1000
0000
1000
0000
0001
0000
1000
0000
1001
0000
0000
0000
,
1000
0000
1000
0000
0101
0000
1000
0000
0010
0000
1000
0010
0000
0000
1000
0001
,
1000
0000
1000
0010
1000
0000
1000
0100
1000
0000
0001
0000
1001
0000
0000
0000
,
1001
0000
1001
0000
0011
1100
1001
1000
,
0001
0000
1000
0010
0000
0010
1000
0000
1000
0001
2000
0000
0002
0000
3003
0000
,
1000
0001
1000
0001
1000
0000
0100
0000
1000
0000
0010
0000
1010
0000
0000
0000
,
0001
1000
0001
1000
0001
1000
0001
1000
0001
0000
1000
0000
0001
0000
0000
0000
,
1000
0000
1000
0100
1000
0000
0100
0000
0010
0000
1000
0000
0001
0000
1000
0000
,
1000
0010
1000
0010
1000
0010
1000
0010
1000
0001
1000
0000
0002
0000
0003
0000
,
1000
0001
1000
0001
1000
0001
1000
0000
,
0001
0100
0001
0100
0001
0100
0001
0000
,
1000
0001
1000
0001
1000
0010
1000
0010
,
1000
0001
1000
0100
1000
0001
0010
0000
,
1000
0010
1000
0000
1000
0001
1000
0000
,
0100
1000
0100
1000
0100
1000
0001
0000
,
1000
0001
1000
0000
1000
0010
1000
0000
,
1000
0001
1000
0100
1000
0100
1000
0100
,
1000
0000
0001
0100
0000
0100
0001
0000
,
1000
0000
1000
0010
0000
0000
1000
0000
,
1001
0000
0001
0100
0000
0100
0001
0000
,
1000
0000
0001
1000
0000
0000
0001
0000
,
1001
0000
1000
0010
0000
0010
1000
0000
,
0001
0000
1000
0001
0000
0000
0100
0000
,
1001
0000
0001
1000
0000
1000
0001
0000
,
0100
0000
0001
0100
0000
0000
0001
0000
,
1001
0000
1000
0001
0000
0001
1000
0000
,
1000
0000
1000
0100
0000
0000
1000
0000
,
1001
0000
1000
0010
0000
0010
1000
0000
,
1000
0001
1000
0001
1000
0100
1000
0000
,
0001
0000
0001
0000
1000
0000
0100
0000
1000
0000
0010
1000
0000
0000
0001
0000
,
1000
0000
0001
0000
1000
0001
1000
0000
1000
0100
1000
0100
0000
0000
1000
0000
,
1000
0000
0010
1000
0000
0000
1000
0000
0001
0000
0100
0001
0000
0000
0000
0000
,
1000
0001
1000
0001
1000
0001
1000
0001
1000
0001
0100
0001
0100
0000
0000
0000
,
2000
0001
3001
1001
,
0001
0000
1000
0000
0001
1000
0001
0000
0100
0000
0001
0100
0000
0100
0001
0000
,
1000
0000
0001
1000
0000
1000
0001
0000
1000
0000
0100
1000
0000
1000
0100
0000
,
1000
0001
1000
0001
0000
0100
0001
0000
0001
1000
0000
0000
1001
0000
0000
0000
,
0001
1000
0001
1000
0001
0000
0000
0000
0001
0100
0001
0100
0001
0000
0000
0000
,
1000
0001
1000
0001
1000
0000
0000
0000
0001
1000
0001
1000
0001
0000
0000
0000
,
1000
0010
1000
0000
0001
0000
1000
0000
1000
0100
1000
0000
0001
0000
0000
0000
,
1000
0010
1000
0000
0001
0000
0100
0000
0001
1000
0001
0000
1000
0000
0000
0000
,
1000
0010
1000
0000
0001
0000
0100
0000
0001
0010
0001
0000
1000
0000
0000
0000
,
1000
0001
1000
0000
0100
0000
1000
0000
0001
1000
0001
0000
1000
0000
0000
0000
,
1000
0001
1000
0000
0010
0000
1000
0000
0001
1000
0001
0000
1000
0000
0100
0000
,
2000
3001
0000
0000
;
