#TITLE:Torn;
#SUBTITLE:;
#ARTIST:Natalie Imbruglia;
#TITLETRANSLIT:;
#SUBTITLETRANSLIT:;
#ARTISTTRANSLIT:;
#GENRE:;
#CREDIT:;
#MUSIC:Torn.ogg;
#BANNER:Torn.png;
#BACKGROUND:Torn-bg.png;
#CDTITLE:;
#SAMPLESTART:49.912;
#SAMPLELENGTH:16.980;
#SELECTABLE:YES;
#OFFSET:-1.689;
#BPMS:0.000=96.239;
#STOPS:;
#DISPLAYBPM:96.000;
#BGCHANGES:19.000=wave2.avi=1.000=1=1=1=StretchRewind==CrossFade==,
27.000=wheel4.avi=1.000=0=0=1,
35.000=rain2.avi=1.000=0=0=1,
43.000=text8.avi=1.000=0=0=1,
51.000=text5.avi=0.900=0=0=1,
59.000=square4.avi=1.000=0=0=1,
67.000=blackhole1.avi=0.800=0=0=1,
75.000=light2.avi=1.000=0=0=1,
83.000=thunder1.avi=0.900=0=0=1,
99.000=rain2.avi=1.000=0=0=1,
115.000=ring3.avi=1.000=0=0=1,
123.000=snow3.avi=1.200=0=0=1,
131.000=wave2.avi=1.000=0=1=1=StretchRewind====,
143.000=square4.avi=1.000=0=1=1=StretchRewind====,
159.000=thunder1.avi=0.900=0=1=1=StretchRewind====,
175.000=Torn-jacket.png=1.000=1=0=1===CrossFade==,
99999.000=-nosongbg-=1.000=0=0=0=StretchNoLoop====
;
#FGCHANGES:;

//--------------- dance-single - ----------------
#NOTES:
     dance-single:
     :
     Beginner:
     1:
     0.091,0.125,0.065,0,0:
0000
0000
0000
0000
,
0000
0000
0000
0000
,
1000
0000
0000
0000
,
0001
0000
0000
0000
,
1000
0000
1000
0000
,
0001
0000
0001
0000
,
0100
0000
0100
0000
,
0010
0000
0010
0000
,
1000
0000
0100
0000
,
0010
0000
0001
0000
,
1000
0000
0000
0000
,
0001
0000
1000
0000
,
1000
0000
0000
0000
,
1000
0000
0100
0000
,
1000
1000
0000
0000
,
0001
0001
0000
0000
,
0100
0000
0010
0000
,
0010
0000
0010
0000
,
1000
0000
0000
0000
,
0001
0000
0000
0000
,
1001
0000
0000
1000
,
1000
0000
0000
0001
,
0001
0000
0000
1000
,
0000
0001
0000
1000
,
0000
1001
0000
0001
,
0001
0000
0000
1000
,
1000
0000
0000
0001
,
0000
0000
0000
1000
,
0000
0001
0000
1000
,
1000
0000
0001
0001
,
0000
1000
0000
0001
,
0000
1000
0000
1001
,
0000
0100
0100
0100
,
0000
0010
0010
0010
,
0000
0001
0000
0000
,
1001
0000
0000
0000
,
0100
0000
0000
0000
,
1001
0000
0000
0000
,
0010
0000
0000
0000
,
1001
0000
0000
0000
,
1000
0000
0000
0000
,
1001
0000
0000
0000
,
0001
0000
0000
0000
,
1001
0000
0000
0000
;

//--------------- dance-single - ----------------
#NOTES:
     dance-single:
     :
     Easy:
     4:
     0.093,0.088,0,0,0:
0000
0000
0000
0000
,
0000
0000
0000
0000
,
0001
0000
0000
0000
,
1000
0000
0000
0000
,
0010
0000
0000
0100
,
0000
0001
0000
0100
,
0000
0010
0000
1000
,
0000
0001
0000
0100
,
0000
0010
0000
1000
,
0000
0001
0000
0010
,
0000
0100
0000
1000
,
0000
0001
0000
1000
,
0000
0010
0000
0100
,
0000
0001
0000
1000
,
0000
0010
0000
0100
,
0000
0001
0000
0100
,
0000
0010
0000
1000
,
0000
0001
0000
0010
,
0000
0100
0000
0010
,
0000
0100
0000
0010
,
0000
1000
0000
0001
,
0000
0100
0000
0010
,
0000
0100
0000
1000
,
0000
0001
0000
0100
,
0000
0010
0000
1000
,
0000
0001
0000
0100
,
0000
0010
0000
1000
,
0000
0001
0000
0100
,
0000
0001
0000
0100
,
0000
0010
0000
0100
,
0000
0001
0000
1000
,
0000
0010
0000
0100
,
0000
0001
0000
1000
,
0000
0010
0000
0100
,
0000
0001
0000
1000
,
0000
0001
0000
0010
,
0000
0100
0000
1000
,
0000
0001
0000
0100
,
0000
0010
0000
1000
,
0000
0001
0000
0100
,
0000
0010
0000
1000
,
0000
0001
0000
0010
,
0000
0100
0000
1000
;

//--------------- dance-single - ----------------
#NOTES:
     dance-single:
     :
     Medium:
     7:
     0.201,0.253,0.008,0.146,0.094:
0000
0000
0000
0000
,
0000
0000
0000
0000
,
2000
0000
0000
0000
,
3020
0000
0000
0030
,
0100
0000
0001
0000
0100
0000
0000
0010
0000
0010
0000
0000
1000
0000
0000
0000
,
0001
0000
0100
0000
0010
0000
0000
1000
0000
1000
0000
0000
0001
0000
0100
0000
,
0010
0000
1000
0000
0001
0000
0000
0100
0000
0100
0000
0000
0010
0000
0000
0000
,
1000
0000
0001
0000
0100
0000
0000
0010
0000
0010
0000
0000
1000
0000
0000
0000
,
0001
0000
0000
0000
0100
0000
0000
0010
0000
0010
0000
0000
1000
0000
0000
0000
,
0001
0000
0000
0000
1000
0000
0000
0010
0000
0010
0000
0000
0100
0000
0000
0000
,
0001
0000
0100
0000
0001
0000
0000
0100
0000
0100
0000
0000
0010
0000
0000
0000
,
1000
0000
0001
0000
1000
0000
0000
0010
0000
0010
0000
0000
0100
0000
0000
0000
,
0001
0000
1000
0000
0001
0000
0000
0100
0000
0000
0000
0000
0010
0000
0000
0000
,
1000
0000
0000
0000
0001
0000
0000
1000
0000
0000
0000
0000
0010
0000
0000
0000
,
0100
0000
0100
0000
0100
0000
0000
0001
0000
0000
0000
0000
1000
0000
0000
0000
,
0010
0100
0001
0010
,
0100
1000
0001
0100
,
0010
1000
0001
0100
,
0010
1000
0100
0010
,
0001
0100
0020
0000
,
1030
0001
0100
0010
,
1000
0001
0100
0000
0010
0000
1000
0000
,
0001
0010
0001
0000
1000
0000
0010
0000
,
0100
0001
0100
0000
0010
0000
1000
0000
,
0001
0010
0001
0000
2000
0000
3010
0000
,
0100
0001
0100
0000
0020
0000
0000
0000
,
1030
0100
1000
0000
0001
0000
1000
0000
,
0010
0100
0010
0000
1000
0000
0001
0000
,
0100
0100
0100
0000
0010
0000
1000
0000
,
0001
0000
1000
0000
0001
0000
0000
0100
0000
0000
0000
0000
0010
0000
0000
0000
,
1000
0000
0001
0000
0000
1000
0000
0010
0000
0000
0000
0000
0100
0000
0000
0000
,
0001
0000
0010
0000
0001
0000
0000
1000
0000
0000
0000
0000
0001
0000
0000
0000
,
2002
0000
3003
0100
,
0020
0000
0000
0030
,
1000
0000
0000
2000
,
0002
0000
0000
0000
,
0000
0000
3003
0200
,
0020
0000
0000
0000
,
0000
0000
0000
0330
0000
0000
0002
0000
,
0200
0000
0000
0000
,
0000
0000
0303
0020
,
2000
0000
0000
0000
,
0000
0000
3030
2000
,
0002
0000
0000
0000
0000
3003
0000
0000
;

//--------------- dance-single - ----------------
#NOTES:
     dance-single:
     :
     Hard:
     9:
     0.314,0.316,0.073,0.098,0.155:
0000
0000
0000
0000
,
0000
0000
0000
0000
,
1000
0000
0001
0000
0100
1000
0001
0000
,
0010
0000
1000
0000
0100
0001
0100
0000
,
1000
0000
0010
0000
1000
0000
0000
0001
0000
0000
1000
0000
1000
0000
0000
0000
,
1000
0001
1000
0000
0001
1000
0001
0000
,
1000
0000
0100
0000
1000
0000
0000
0010
0000
0000
0100
0000
0001
0000
0000
1000
,
0000
0000
1000
0000
0100
0000
0000
0001
0000
0000
0100
0000
1000
0000
0000
0000
,
1000
0010
1000
0000
0010
0001
0010
0000
,
1000
0100
1000
0010
0100
0000
1001
0000
,
0100
0000
0001
0000
0100
0000
0000
1000
0000
0000
1000
0000
0100
0000
0000
0000
,
0001
0010
0001
0100
1000
0010
1000
0000
,
1000
0000
0100
0000
1000
0000
0000
0100
0000
0000
0100
0000
0010
0000
0000
0000
,
0100
0000
0001
0000
0100
0000
0000
1000
0000
0000
1000
0000
0100
0000
0000
0000
,
0001
0000
1000
0000
0001
0000
0000
1000
0000
0000
1000
0000
0001
0000
0000
0000
,
1000
0100
1000
0001
0100
0000
1001
0000
,
1000
0001
0100
2000
0000
0000
3001
0000
,
1000
0100
0010
0200
0000
0000
0301
0000
,
1000
0100
1000
0000
0001
0100
0001
0000
,
1000
0100
0001
0100
1000
0100
1001
0000
,
0210
0000
1300
0000
1000
0100
0100
0010
,
0001
0000
1000
0000
1000
0100
1000
0001
,
0100
0000
1001
0000
1000
0100
1000
0001
,
0100
0000
0000
0000
1000
0000
0001
1000
0000
1000
0000
0100
0000
0001
0000
0100
,
0000
0000
1001
0000
1000
0001
1000
0100
,
1000
0000
1001
0000
0001
0100
1000
0100
,
1000
0000
0000
0000
1001
0000
0000
0000
1000
0000
0001
0100
0000
0001
0000
0100
,
0000
0010
0000
1000
0000
0100
0000
0001
0000
0010
0000
0100
0000
1000
0000
2001
,
0000
0000
0000
0000
3010
0000
0000
0000
1000
0000
0001
0100
0000
0100
1000
0000
,
0001
0000
1000
0000
0001
0000
0000
0000
0001
0000
1000
0100
0000
0100
0001
0000
,
0100
0000
0000
0000
0010
0000
0000
0000
1000
0000
0000
0000
0100
0000
0000
0000
0001
0000
0000
0000
0000
1000
0000
0000
,
0100
0000
0000
0000
0001
0000
0000
0000
1000
0000
0000
0000
0001
0000
0000
0000
0100
0000
0000
0000
0000
1000
0000
0000
,
0001
0100
0001
0100
0001
0100
0001
0000
,
0001
0100
1000
0100
1000
0100
1000
0000
,
0001
0000
1000
0000
0100
0000
0010
0000
1000
0100
1000
0000
0100
0000
0001
0000
,
0200
0001
0010
0001
,
0010
0001
0310
2000
,
0200
3000
0010
0000
0010
0000
0010
0000
,
0310
0000
0100
0000
1000
0000
0001
1000
0000
0000
1000
0000
0100
0000
0010
0000
,
0002
0100
1000
0100
,
1000
0100
1003
2000
,
0020
3000
0100
0000
0100
0000
0100
0000
,
0130
0000
0001
0000
1000
0000
0100
0001
0000
0000
1000
0000
0010
1000
0020
0000
,
0200
0000
0000
0000
,
0000
0000
0000
0000
,
0330
0000
0000
0000
;

//--------------- dance-single - ----------------
#NOTES:
     dance-single:
     :
     Challenge:
     12:
     0.452,0.409,0.065,0.122,0.557:
0000
0000
0000
0000
,
0000
0000
0000
0000
,
1000
0100
1000
0100
0010
0001
0010
0000
,
0001
0100
0001
0100
0010
1000
0010
0000
,
1000
0001
1000
0001
1000
0000
0000
0100
0000
1000
0010
1000
0010
0000
0000
0000
,
0001
1000
0001
1000
0001
0000
0000
0010
0000
0100
0000
0020
0000
0000
1030
0000
,
1000
0001
1000
0001
1000
0000
0000
0001
0000
1000
0010
1000
0010
0100
0000
2000
,
0000
0000
3100
0000
0001
0000
1000
0020
0000
0000
0130
0000
1000
0001
0000
0010
,
0100
0010
0100
0010
0100
0000
0000
1000
0000
0001
0100
0001
0100
0000
0000
0000
,
1000
0000
0001
0000
1000
0100
0000
0001
0000
0001
0100
0000
1001
0000
0000
0000
,
1000
0001
1000
0001
1000
0000
0000
0001
0000
1000
0100
0000
0100
0001
0000
1000
,
0000
0001
0000
1000
0000
0000
0010
1000
0000
1000
0000
0002
0000
0000
1003
0000
,
1000
0001
1000
0001
1000
0000
0100
0002
0000
1003
0100
0000
0100
0000
0001
0200
,
0000
0000
0301
0000
0100
0000
0001
0200
0000
0000
0301
0000
0010
1000
0000
0000
,
0010
0100
0010
0100
0010
0000
1000
0001
0000
0001
0100
0001
0100
0000
0000
0000
,
1000
0001
0000
1000
0000
0001
0000
1000
0100
0000
0010
0000
0100
0000
0000
0010
,
1000
0000
0100
0000
0001
0000
0100
0010
0001
0000
0010
0000
0100
0000
0000
0000
,
0001
0100
0001
0000
1000
0001
0000
0100
0001
0000
0100
0000
0010
0000
0000
0000
,
1000
0000
0100
0000
1000
0100
1000
0000
0010
0000
0010
0001
0010
0000
0100
0000
,
1000
0000
0100
0001
0100
0000
1000
0010
0000
0101
0000
1100
0000
0101
0000
1001
,
0000
0000
0001
0000
1000
0000
0000
1000
0001
0000
0100
0001
0000
0010
0100
0000
,
0100
0000
0001
0000
1000
0100
0000
0001
0100
0000
1000
0100
0000
0001
0100
0000
,
1000
0000
0001
0000
1000
0010
0000
0010
0001
0000
1000
0100
0000
0001
0000
0100
,
0000
0000
1000
0000
0001
0000
1000
0100
0000
0010
0000
0100
0000
2000
0000
0002
,
0000
3003
0000
0000
1001
0000
0100
0010
0000
0010
0100
0001
1000
0000
0010
0000
,
1000
0000
0010
0000
1000
0000
0000
0001
0000
1000
0000
0100
0000
1000
0000
0020
,
0000
0000
0130
0000
0100
0000
1000
0100
1000
0000
0100
0001
0000
0001
0000
1000
,
0000
0001
0000
1000
0000
0100
0000
0010
0000
0100
0000
0010
0000
0100
0000
0011
,
0000
0000
0000
0000
1001
0000
1000
0000
0001
0100
0000
0100
1000
0000
0100
0000
,
1000
0000
0100
0000
1000
0000
0000
0001
0000
1000
0000
0001
1000
0000
1000
0100
,
1000
0000
0000
0000
0100
0000
0000
0000
1000
0000
0000
0000
0010
0000
0000
0000
0100
0000
0000
0000
0000
0001
0000
0000
,
0100
0000
0000
0000
0000
0000
0000
0000
0100
0000
0000
0000
0000
0000
0000
0000
0010
0000
0000
0000
0000
0000
0000
0000
1000
0000
0000
0000
0000
0000
0000
0000
0100
0000
0000
0000
0001
0000
0000
0100
0000
0000
1000
0000
0000
0000
0000
0000
,
0001
1000
0001
1000
0001
1000
0001
1000
,
0010
0100
0010
0100
0010
0100
0010
0100
,
0010
0000
1000
0000
0001
0000
1000
0100
1000
0100
1000
0100
1000
0100
1000
0100
,
2000
0000
3001
0010
0100
1000
0100
0001
,
1000
0000
0100
0000
1000
0000
0100
0001
0010
0100
0010
0000
2000
0000
0000
0000
,
3100
0010
0100
1000
0010
1000
0010
0100
,
0010
1000
0010
0000
1000
0000
0001
1000
0000
1000
0001
1000
0001
0000
1000
0100
,
2000
0000
3001
1000
0001
1000
0100
0010
,
0100
0000
0001
0000
0010
0000
1000
0100
1000
0100
1000
0000
0002
0000
0000
0000
,
1003
0100
1000
0100
0001
0010
0100
0010
,
0100
0001
0100
0000
1000
0000
1000
0100
0000
1000
0100
1000
0100
0000
0010
0100
,
0020
0000
0000
0000
,
0000
0000
0000
0000
,
0030
0000
0000
0000
;
