#TITLE:Too Much;
#SUBTITLE:;
#ARTIST:Spice Girls;
#TITLETRANSLIT:;
#SUBTITLETRANSLIT:;
#ARTISTTRANSLIT:;
#GENRE:;
#CREDIT:;
#MUSIC:Too Much.ogg;
#BANNER:bn.png;
#BACKGROUND:bg.png;
#CDTITLE:;
#SAMPLESTART:62.030;
#SAMPLELENGTH:18.000;
#SELECTABLE:YES;
#OFFSET:0.880;
#BPMS:0.000=80.011
,20.000=80.042
,84.000=80.048
,111.000=83.782
,112.000=80.041
;
#STOPS:;
#BGCHANGES:20.000=heart2.avi=0.900=1=0=1===CrossFade==,
28.000=dance11.avi=1.000=0=0=1,
36.000=heart1.avi=1.000=0=0=1,
44.000=lady2.avi=1.000=0=0=1,
52.000=unicorn1.avi=1.000=0=0=1,
60.000=text8.avi=1.000=0=0=1,
68.000=rain2.avi=1.000=0=0=1,
76.000=ribbon2.avi=0.800=0=0=1,
84.000=ring12.avi=0.800=0=0=1,
92.000=snow2.avi=0.800=0=0=1,
100.000=heart1.avi=1.000=0=0=1,
108.000=snow3.avi=1.000=0=0=1,
116.000=light2.avi=1.000=0=0=1,
124.000=letters1.avi=0.700=0=0=1,
132.000=heart2.avi=0.900=0=0=1,
140.000=dance11.avi=1.000=0=0=1,
148.000=heart1.avi=1.000=0=0=1,
156.000=Too Much-jacket.png=0.700=1=0=1===CrossFade==,
99999.000=-nosongbg-=1.000=0=0=0=StretchNoLoop====
;
#FGCHANGES:;

//--------------- dance-single - ----------------
#NOTES:
     dance-single:
     :
     Beginner:
     1:
     0.057,0.08,0.033,0,0:
0000
0000
0000
0000
,
0000
0000
0000
0000
,
0000
0000
0000
0000
,
0000
0000
0000
0000
,
0000
0000
0000
0000
,
1000
0000
0000
0000
,
0001
0000
0000
0000
,
0100
0000
0000
0000
,
0001
0000
0000
0000
,
1001
0000
0000
0000
,
1000
0000
0001
0000
,
1000
0000
0000
0000
,
0001
0000
1000
0000
,
0001
0000
0000
0000
,
0100
0000
0010
0000
,
0100
0000
0000
0000
,
0001
0000
1000
0000
,
0001
0000
0000
0000
,
1000
0000
0001
0000
,
1000
0000
0000
0000
,
0001
0000
0001
0000
,
1001
0000
0000
0000
,
0100
0000
0100
0000
,
0100
0000
0000
0000
,
0001
0000
0001
0000
,
1001
0000
0000
0000
,
1000
0000
0001
0000
,
1000
0000
0000
0000
,
0010
0000
0010
0000
,
0110
0000
0000
0000
,
1000
0000
0000
0000
,
0001
0000
0000
0000
,
0100
0000
0000
0000
,
0001
0000
0000
0000
,
1000
0000
0000
0000
,
0001
0000
0000
0000
,
0100
0000
0000
0000
,
0001
0000
0000
0000
,
1000
0000
0000
0000
,
0001
0000
0000
0000
;

//--------------- dance-single - ----------------
#NOTES:
     dance-single:
     :
     Easy:
     3:
     0.117,0.145,0.065,0.155,0:
0000
0000
0000
0000
,
0000
0000
0000
0000
,
0000
0000
0000
0000
,
0000
0000
0000
0000
,
0000
0000
0000
0000
,
1000
0000
0001
0000
,
1000
0000
0100
0000
,
1000
0000
0001
0000
,
1000
0000
0001
0000
,
1001
0000
0000
0000
,
0001
0000
0100
0000
,
0001
0000
0000
0000
,
1000
0000
0001
0000
,
1000
0000
0000
0000
,
0100
0000
0001
0000
,
0100
0000
0000
0000
,
0001
0001
1000
1000
,
1001
0000
1000
0000
,
0001
0100
0100
0000
,
0001
1000
1000
0000
,
0001
1000
1000
0001
,
2002
0000
0000
3003
,
0001
0000
0100
0000
,
2002
0000
0000
3003
,
1000
1000
0001
0001
,
2002
0000
0000
3003
,
1000
0000
0010
0000
,
2002
0000
0000
3003
,
0001
0001
1000
1000
,
0200
0000
0310
0000
,
0020
0000
0130
0000
,
2000
0000
3001
0000
,
0002
0000
1003
0000
,
0200
0000
0310
0000
,
0002
0000
1003
0000
,
2000
0000
3001
0000
,
0001
1000
0001
1000
,
1002
0000
1003
0000
,
0200
0000
0310
0000
,
2002
0000
3003
0000
;

//--------------- dance-single - ----------------
#NOTES:
     dance-single:
     :
     Medium:
     5:
     0.173,0.213,0.049,0.303,0:
0000
0000
0000
0000
,
0000
0000
0000
0000
,
0000
0000
0000
0000
,
0000
0000
0000
0000
,
0000
0000
0000
0000
,
1000
0001
1000
0001
,
0200
0000
0301
0000
,
0001
1000
0001
1000
,
0200
0000
2000
3300
,
2002
3003
1000
0010
,
2000
0000
3001
0001
,
2000
0000
3001
0100
,
0001
0001
1000
1000
,
2002
3003
1000
0001
,
2000
0000
3001
0100
,
0002
0000
1003
0010
,
1000
1000
0001
0001
,
1001
0000
0001
1000
,
0002
1003
2000
3001
,
1000
1000
0001
0001
,
2000
3002
0203
0301
,
2002
0000
0000
3003
,
2000
3001
0002
1003
,
0001
0001
1000
1000
,
2000
3010
0002
0103
,
2002
0000
0000
3003
,
2000
3100
0002
1003
,
1000
1000
0001
0001
,
2000
3002
0203
0302
,
1003
1000
0001
0001
,
0200
0000
0000
0300
,
0001
0001
1000
1000
,
0002
0000
0000
0003
,
1000
1000
0010
0010
,
2000
0000
0000
3000
,
0001
0001
1000
1000
,
0200
0000
0000
0300
,
0010
0010
1000
1000
,
0002
0000
0000
0003
,
2002
0000
0000
0000
,
3003
0000
0000
0000
;

//--------------- dance-single - ----------------
#NOTES:
     dance-single:
     :
     Hard:
     8:
     0.257,0.278,0.065,0.196,0.233:
0000
0000
0000
0000
,
0000
0000
0000
0000
,
0000
0000
0000
0000
,
0000
0000
0000
0000
,
0000
0000
0000
0000
,
1000
0000
0000
0001
0000
0000
1000
0000
0000
0001
0000
1000
,
0001
0000
0000
1000
0000
0000
0010
0000
0000
1000
0000
0001
,
1000
0000
0000
0100
0000
0000
1000
0000
0000
0001
0000
1000
,
0001
0000
0000
1000
0000
0000
0001
0000
0000
1000
0001
1000
,
0002
1000
0100
1003
,
1000
0000
0010
1000
0000
1000
0002
0000
0000
1003
0000
1000
,
0002
1000
0100
1003
,
0001
0000
0000
1000
0000
0000
0100
0000
0000
1000
0000
1000
,
0002
0000
0000
1000
0000
0000
0100
0000
0000
1003
0000
1000
,
0020
0000
0000
1000
0000
0000
1000
0000
0000
1030
0000
0001
,
2000
0001
0100
3001
,
1000
0000
0010
1000
0000
1000
0001
0000
0000
1000
0000
0000
,
1001
0000
0000
0001
0000
0000
1000
0000
0000
0001
0000
0100
,
0002
1003
2000
3010
,
1000
0000
0001
1000
0000
1000
0010
0000
0010
1000
0000
0000
,
1001
0000
0000
0110
0000
0000
1001
0000
0000
0001
0000
1000
,
0002
0000
1000
0003
0000
0000
2000
0000
0001
3000
0000
0100
,
0002
0000
0000
1000
0000
1000
0003
0000
0000
1000
0000
1000
,
0001
0000
1000
0100
0000
1000
0001
0000
1000
0100
0000
1000
,
0020
0000
0000
2030
0000
0000
3002
0000
0000
0103
0000
0001
,
2000
0000
0001
3000
0000
0001
2000
0000
0001
3000
0000
1000
,
0020
0000
0000
1000
0000
1000
0030
0000
0000
0001
0000
0000
,
1000
0000
1000
0100
0000
1000
0001
0000
1000
0010
0000
0000
,
1001
0000
0000
0110
0000
0000
1100
0000
0000
0001
0000
1000
,
0001
0000
1000
0001
0000
0001
0100
0000
0001
1000
0000
1000
,
0020
1000
1000
0130
,
1000
0000
0001
1000
0000
1000
0100
0000
0100
1000
0000
1000
,
0002
1000
1000
0103
,
1000
0000
0001
1000
0000
1000
0010
0000
0010
1000
0000
1000
,
0002
0100
0100
0013
,
1000
0000
0001
0100
0000
0100
0001
0000
1000
0001
0000
0001
,
2000
0010
0010
3001
,
1000
0000
0001
1000
0000
1000
0100
0000
1000
0010
0000
0010
,
2000
0001
0100
3001
,
2002
0000
0000
0000
,
3003
0000
0000
0000
;

//--------------- dance-single - ----------------
#NOTES:
     dance-single:
     :
     Challenge:
     11:
     0.354,0.392,0.016,0.245,0.576:
0000
0000
0000
0000
,
0000
0000
0000
0000
,
0000
0000
0000
0000
,
0000
0000
0000
0000
,
0000
0000
0000
0000
,
1000
0000
0000
0001
0000
1000
0100
0000
0000
0001
0000
1000
,
0020
0000
0000
1030
0000
0001
1000
0000
0000
0001
0000
0100
,
0002
0000
0000
1003
0000
1000
0010
0000
0000
1000
0000
0001
,
1000
0001
1000
0001
0100
0001
0100
0001
1000
0001
1000
0001
,
2000
0000
0000
3100
0000
1000
0001
0000
0000
1000
0000
0010
,
2000
0000
0000
3001
0000
1000
0100
0000
0000
1000
0000
0001
,
2000
0000
0000
3100
0000
1000
0001
0000
0000
1000
0000
0001
,
0100
0001
0100
0001
1000
0001
1000
0010
1000
0001
1000
0001
,
2000
0000
0000
3001
0000
0100
0001
0000
0000
0001
0000
0100
,
0002
0000
0000
1003
0000
0001
1000
0000
0000
0001
0000
0001
,
0200
0000
0000
0301
0000
0010
1000
0000
0000
0001
0000
0100
,
0001
0000
0100
0001
0000
0001
1000
0000
0001
0000
1000
0001
,
1001
0000
0000
1000
0000
1000
0010
0000
0010
1000
0010
1000
,
0002
0000
0000
1003
0000
1000
0200
0000
0000
1300
0000
1000
,
0001
1000
0001
1000
0100
1000
0100
1000
0010
1000
0001
1000
,
0002
0000
0000
2003
0000
0001
3002
0000
0000
2003
0000
0001
,
3002
0000
1000
0003
0000
1000
0200
0000
1000
0300
0000
0001
,
1000
0000
0001
0100
0000
0100
0000
0000
0000
1001
0000
1000
,
0001
0000
0001
0100
0000
0100
0001
0000
1000
0001
0000
1000
,
0010
1000
0010
1000
0001
1000
0100
1000
0100
1000
0001
1000
,
0002
0000
1000
0003
0000
1000
0002
0000
0100
0003
0000
1000
,
0001
0000
1000
0001
0000
0100
0000
0000
0000
0010
0000
1000
,
0001
0000
0001
0100
0000
0100
0001
0000
0001
1000
0000
1000
,
0001
1000
0001
1000
0010
1000
0001
1000
0001
0100
0000
0100
,
0001
0001
0001
1000
1000
1000
0010
0010
0010
1000
1000
1000
,
0002
0000
0000
1003
0000
1000
0020
0000
0000
1030
0000
0000
,
0001
0001
0001
0100
0100
0100
0001
0001
0001
1000
1000
1000
,
0002
0000
0000
1003
0000
1000
0200
0000
0000
1300
0000
0010
,
1000
1000
1000
0010
0010
0010
0100
0100
0100
0001
0001
0001
,
2000
0000
0000
3001
0000
0100
0002
0000
0000
1003
0000
1000
,
0010
0010
0010
1000
1000
1000
0001
0001
0001
0100
0100
0100
,
0002
0000
0000
1003
0000
1000
0020
0000
0000
1030
0000
0001
,
1000
1000
1000
0100
0100
0100
1000
1000
1000
0001
0001
0001
,
2000
0000
0000
3010
0000
0001
2000
0000
0000
3001
0000
2000
,
0002
0000
0000
0000
,
3003
0000
0000
0000
;
