#TITLE:Together Again;
#SUBTITLE:;
#ARTIST:Janet Jackson;
#TITLETRANSLIT:;
#SUBTITLETRANSLIT:;
#ARTISTTRANSLIT:;
#GENRE:;
#CREDIT:;
#MUSIC:Together Again.ogg;
#BANNER:bn.png;
#BACKGROUND:bg.png;
#CDTITLE:;
#SAMPLESTART:62.683;
#SAMPLELENGTH:15.800;
#SELECTABLE:YES;
#OFFSET:-0.370;
#BPMS:0.000=123.061
,40.000=123.113
;
#STOPS:;
#BGCHANGES:8.250=bracelet1.avi=1.400=1=0=1===CrossFade==,
24.000=fireworks1.avi=1.000=0=0=1,
40.000=light2.avi=1.000=0=0=1,
56.000=heart2.avi=1.200=0=0=1,
72.000=butterfly1.avi=1.200=0=0=1,
88.000=heart2.avi=1.200=0=0=1,
104.000=piston1.avi=1.200=0=0=1,
120.000=heart2.avi=1.200=0=0=1,
128.000=room1.avi=1.000=0=0=1,
136.000=blinds1.avi=1.000=0=0=1,
144.000=butterfly1.avi=1.200=0=0=1,
152.000=bricks1.avi=1.000=0=0=1,
160.000=tunnel5.avi=1.000=0=0=1,
168.000=wave2.avi=1.000=0=0=1,
172.000=wave2r.avi=1.000=0=0=1,
176.000=fireworks1.avi=1.000=0=0=1,
184.000=heart2.avi=1.200=0=0=1,
192.000=blinds1.avi=1.000=0=0=1,
200.000=bricks1.avi=1.200=0=0=1,
208.000=Together Again-jacket.png=1.000=1=0=1===CrossFade==,
99999.000=-nosongbg-=1.000=0=0=0=StretchNoLoop====
;
#FGCHANGES:;

//--------------- dance-single - ----------------
#NOTES:
     dance-single:
     :
     Beginner:
     2:
     0.113,0.148,0.057,0,0:
0000
0000
0000
0000
,
0000
0000
0000
0000
,
1000
0000
0000
0000
,
1000
0000
0000
0000
,
0100
0000
0000
0000
,
0100
0000
0000
0000
,
1000
0000
0000
0000
,
0001
0000
0000
0000
,
1000
0000
0000
0000
,
0100
0000
0100
0000
,
0110
0000
0000
0000
,
0001
0000
1000
0000
,
0001
0000
0000
0000
,
1000
0000
0001
0000
,
1000
0000
0000
0000
,
0010
0000
0010
0000
,
0010
0000
0000
0000
,
1000
0000
0001
0000
,
1001
0000
0000
0000
,
0001
0000
0001
0000
,
0001
0000
0000
0000
,
1000
0000
1000
0000
,
1001
0000
0000
0000
,
1000
0000
1000
0000
,
1000
0000
0000
0000
,
0001
0000
1000
0000
,
1001
0000
0000
0000
,
0100
0000
0100
0000
,
0100
0000
0000
0000
,
0010
0000
0010
0000
,
0010
0000
0000
0000
,
1000
0000
0001
0001
,
0001
0000
1000
0000
,
0001
0000
0000
0000
,
1000
0000
0100
0000
,
1000
0000
0000
0000
,
1001
0000
0001
0000
,
0001
0000
0000
0000
,
1000
0000
1000
0000
,
1000
0000
0001
0001
,
0001
0000
0000
0000
,
1000
0000
0000
0000
,
0001
0000
0001
0000
,
0100
0000
0001
0000
,
1001
0000
0000
0000
,
0001
0000
0001
0000
,
1000
0000
0000
0000
,
0100
0000
0100
0000
,
0100
0000
0000
0000
,
0001
0000
0001
0000
,
1000
0000
0000
0000
,
0001
0000
1000
1000
,
1000
0000
0000
0000
;

//--------------- dance-single - ----------------
#NOTES:
     dance-single:
     :
     Easy:
     5:
     0.217,0.227,0.067,0.219,0:
0000
0000
0000
0000
,
0000
0000
0000
0000
,
1000
1000
1000
0000
,
0001
0001
0001
0000
,
0100
0100
0100
0000
,
0001
0001
0001
0001
,
2000
0000
3000
0000
,
0002
0000
0003
0000
,
0200
0000
0300
0000
,
2000
0000
3001
0000
,
1001
0000
0001
0000
,
1000
0001
0100
0001
,
0100
0000
0010
0000
,
1000
0001
1000
0100
,
2000
0000
3001
0000
,
0002
0000
1003
0000
,
2000
0000
3100
0000
,
0002
0000
0103
0000
,
1001
0000
1000
0000
,
0001
1000
0001
0100
,
0100
0000
0010
0000
,
1000
1000
0001
0001
,
2000
0000
3001
0000
,
0002
0000
1003
0000
,
2000
0000
3100
0000
,
0002
0000
0103
0000
,
1001
0000
1000
0000
,
0001
0001
0001
0100
,
0001
0000
0100
0000
,
1000
1000
1000
0100
,
1000
0000
0010
0000
,
1000
0001
1000
0001
,
1001
0000
0001
1000
,
0001
0000
1000
0001
,
1000
0000
0001
1000
,
0001
0000
1000
0001
,
1001
0000
1000
1000
,
1000
0000
0001
0001
,
0001
0000
1000
1000
,
1000
0000
0100
0100
,
0200
0000
0310
0000
,
0002
0000
1003
0000
,
1000
0001
1000
0000
,
0001
0100
0001
0100
,
0002
0000
1003
0000
,
2000
0000
3001
0000
,
0200
0000
0301
0000
,
2000
0000
3010
0000
,
1002
0000
0103
0000
,
2000
0000
3100
0000
,
0002
0000
0103
0000
,
1000
0001
1000
0001
,
2002
0000
0000
0000
,
3003
0000
0000
0000
;

//--------------- dance-single - ----------------
#NOTES:
     dance-single:
     :
     Medium:
     9:
     0.359,0.378,0.228,0.219,0.038:
0000
0000
0000
0000
,
0000
0000
0000
0000
,
0001
0000
0001
0000
0001
0000
0001
1000
,
0100
0000
0100
0000
0100
0000
0100
1000
,
0010
0000
0010
0000
0010
0000
0010
1000
,
0001
0000
0001
0000
0001
0000
0001
1000
,
2000
0010
0000
3010
,
0002
1000
0000
1003
,
0002
0100
0000
0103
,
0200
0010
0000
0310
,
0110
1000
0001
0001
,
1000
0000
0100
0000
1000
0001
1000
0001
,
1000
0100
2000
3010
,
0001
1000
0101
0101
,
1002
0100
1000
0103
,
2000
0100
0001
3100
,
0002
0010
1000
0103
,
2000
0001
0100
3001
,
1001
0001
1000
0100
,
1000
0000
0001
0000
1000
0001
1000
0001
,
1000
0100
0100
1000
,
0001
1000
1010
1010
,
2001
0100
0001
3100
,
0002
0010
1000
0103
,
2000
0010
0100
3001
,
0002
1000
0010
0103
,
1001
0000
0001
1000
0001
0000
1000
0100
,
0000
0100
0000
1000
0000
0001
0000
1000
,
0001
0000
1000
0001
1000
0000
0100
1000
,
0000
1000
0000
0010
0000
1000
0000
0001
,
1000
0000
0001
1000
0001
0000
1000
0000
,
1001
1001
0110
0110
,
1001
0000
0000
0000
0001
0000
0000
0000
1000
0000
0000
0001
0000
0000
1000
0000
,
0000
0000
0000
0000
0100
0000
0000
0000
1000
0000
0000
0010
0000
0000
0010
0000
,
0000
0000
0000
0000
1001
0000
0000
0000
0001
0000
0000
0001
0000
0000
0001
0000
,
0000
0000
0000
0000
1000
0000
0000
0000
0100
0000
0000
0001
0000
0000
0100
0000
,
0000
0000
0000
0000
0001
0000
0000
0000
1000
0000
0000
0001
0000
0000
0100
0000
,
0000
0000
0000
0000
0001
0000
0000
0000
1000
0000
0000
1000
0000
0000
0010
0000
,
0000
0000
0000
0000
0001
0000
0000
0000
1000
0000
0000
0100
0000
0000
1000
0000
,
0000
0000
0000
0000
0110
0000
0000
0000
0001
0000
0000
0001
0000
0000
0001
0000
,
1000
0001
1000
0001
,
1000
1100
0001
0101
,
1000
0001
1000
0000
0001
0000
0001
0000
,
1000
0000
0010
0000
1000
0001
1000
0001
,
2000
3100
0002
0103
,
2000
3010
0002
0013
,
1000
0001
1000
0000
0001
0000
0100
0000
,
0001
1000
0001
0000
1000
0000
0001
0000
,
1002
0103
2000
3100
,
0002
0013
2000
3010
,
0001
1000
0001
0000
1000
0000
0010
0000
,
1010
1010
1001
1100
,
2002
0000
0000
0000
,
3003
0000
0000
0000
;

//--------------- dance-single - ----------------
#NOTES:
     dance-single:
     :
     Hard:
     11:
     0.428,0.428,0.209,0.257,0.114:
0000
0000
0000
0000
,
0000
0000
0000
0000
,
1000
0000
0000
0000
0010
0000
0000
0000
1000
0000
0000
0001
0000
0000
0100
0000
,
0001
0000
0000
0000
0001
0000
0000
0000
0001
0000
0000
1000
0000
0000
0100
0000
,
1000
0000
0000
0000
1000
0000
0000
0000
1000
0000
0000
0001
0000
0000
1000
0000
,
0001
0000
0100
0000
0001
1000
0001
1000
,
0002
1000
0100
1003
,
2000
0001
0100
3001
,
0020
1000
0100
1030
,
0200
0001
0010
0301
,
1001
0000
0001
1000
0001
0000
1000
0000
,
1000
0010
0000
0010
0000
1000
0010
1000
,
0001
0000
1000
0001
1000
0000
0001
0100
,
0002
0000
2003
0000
3020
0000
1030
0001
,
0000
0001
0100
0000
0001
1000
0000
1000
,
0001
0000
1000
0000
0010
1000
0010
1000
,
0000
0001
1000
0000
1000
0001
0000
0001
,
0100
0000
0100
0000
0001
1000
0001
1000
,
0001
0000
1000
0001
1000
0000
0001
0000
,
1000
0000
0000
0001
0000
0000
0100
0000
0000
0000
0001
0000
1000
0000
0001
0000
,
1000
0000
0010
1000
0010
0000
1000
0001
,
2000
0000
3002
0000
0203
0000
0301
0001
,
0000
1000
1000
0000
0001
0001
0000
0100
,
0100
0000
0001
0000
1000
0010
1000
0010
,
0000
1000
0001
0000
0001
0100
0000
0100
,
0001
0000
1000
0000
0001
0000
1000
0001
,
1001
0000
1000
0001
0100
0001
1000
0002
,
0000
1003
0100
2000
0000
0001
0000
0001
,
3001
0000
1000
0001
1000
0100
1000
0002
,
0000
1000
0000
1000
0000
1000
0000
1003
,
1001
0000
0001
1000
0001
0000
0001
0100
,
0101
0101
1001
0101
,
1001
0000
0000
0000
1000
0000
0001
0000
0100
0000
0000
0001
0000
0000
1000
0000
,
0001
0000
0000
0000
1000
0000
0010
0000
1000
0000
0000
0001
0000
0000
0100
0000
,
0001
0000
0000
0000
0001
0000
0010
0000
0100
0000
0000
0100
0000
0000
0100
0000
,
1000
0000
0000
0000
1000
0000
0001
0000
1000
0000
0000
0010
0000
0000
1000
0000
,
1001
0000
0000
0000
0001
0000
1000
0000
0100
0000
0000
0100
0000
0000
0010
0000
,
1000
0000
0000
0000
0001
0000
1000
0000
0001
0000
0000
0100
0000
0000
0001
0000
,
1000
0000
0000
0000
0001
0000
1000
0000
0100
0000
0000
0100
0000
0000
1000
0000
,
1010
0000
0000
0000
0001
0000
1000
0000
0001
0000
0000
0100
0000
0000
0001
0000
,
1001
0000
0000
0000
1001
0000
0000
0000
1100
0000
0000
0001
0000
0000
1000
0000
,
1001
0000
0000
0000
1001
0000
0000
0000
1001
0000
0000
1000
0000
0000
0100
0000
,
2000
0000
0001
0000
3001
0000
0000
0000
0001
0000
0000
1000
0000
0000
1000
0000
,
0001
0000
0000
0000
0100
0000
0000
0001
1000
0000
0001
0000
0100
0000
0001
0000
,
2000
0000
0000
0000
3020
0000
0000
0000
1000
0000
0000
1030
0000
0000
0000
0000
,
2000
0000
0000
0000
3200
0000
0000
0000
1000
0000
0000
1300
0000
0000
0001
0000
,
1002
0000
0000
0000
0203
0000
0000
0000
0010
0000
0000
0310
0000
0000
0000
0000
,
0002
0000
0000
0000
2003
0000
0000
0000
0001
0000
0000
3001
0000
0000
1000
0000
,
1002
0000
0000
0000
0100
0000
0000
0000
1000
0000
0000
0010
0003
0000
0000
0000
,
2001
0000
0000
0000
0100
0000
0000
0000
0001
0000
0000
0010
3000
0000
0001
0000
,
1002
0000
0000
0000
0100
0000
0000
0000
1000
0000
0000
0010
0003
0000
0000
0000
,
1001
0000
0000
0000
1000
0000
0001
0000
0100
0000
0000
0001
0000
0000
1000
0000
,
2002
0000
0000
0000
,
3003
0000
0000
0000
;

//--------------- dance-single - ----------------
#NOTES:
     dance-single:
     :
     Challenge:
     13:
     0.545,0.529,0.551,0.181,0.219:
0000
0000
0000
0000
,
0000
0000
0000
0000
,
1001
0000
0000
0000
1001
0000
0000
0000
1001
0000
0000
1000
0000
0000
0100
0000
,
1010
0000
0000
0000
1100
0000
0000
0000
1001
0000
0000
0001
0000
0000
0100
0000
,
0101
0000
0000
0000
0101
0000
0000
0000
1001
0000
0000
1000
0000
0000
0010
0000
,
1010
0000
0000
0000
1001
0000
0000
1000
0001
0000
0100
0000
0001
0000
1000
0000
,
0002
0000
0000
0000
1000
0000
0000
1000
0000
0000
1000
0000
0003
0000
1000
0000
,
0200
0000
0000
0000
1000
0000
0000
1000
0300
0000
0010
0100
0000
1000
0001
0000
,
2001
0000
0000
0000
0001
0000
0000
0001
0000
0000
0001
0000
3000
0000
0001
0000
,
1000
0000
0000
0000
1001
0000
0000
0000
0101
0000
0000
1000
0001
1000
0001
0000
,
1001
0000
1000
0010
1000
0000
0001
0100
,
0002
1000
0000
1003
0000
0001
0100
0001
,
1001
0000
1000
0001
1000
0000
0001
0100
,
0002
0000
2003
0000
3200
0000
1300
1000
,
1001
1000
0200
0000
1000
1000
0300
1000
,
0001
1000
0001
0000
0001
0100
0001
0100
,
0000
0001
2000
0000
0010
3010
0000
0001
,
1001
0000
0000
0000
0011
0000
0000
0000
0101
0000
0000
1000
0001
1000
0001
0000
,
1001
0000
1000
0001
0100
0000
0001
1000
,
0020
0000
0000
1000
0000
0000
1030
0000
0000
0000
0001
0000
1000
0000
0001
0000
,
1001
0000
0001
1000
0100
0000
1000
0001
,
2000
0000
3020
0000
2030
0000
3001
0001
,
0000
1000
0200
0000
1000
1300
0000
0010
,
1000
0000
0001
0100
0001
1000
0001
2000
,
0000
0001
0001
0000
0100
0100
3000
1000
,
0001
0000
0000
0000
1001
0000
0000
0000
1000
0000
0001
1000
0100
0000
0001
0000
,
1001
0000
1000
0001
0100
0001
1000
0002
,
0000
1000
1000
1003
1000
0001
0100
0001
,
1001
0000
0001
1000
0100
1000
0001
2000
,
0000
0010
0010
3010
0001
1000
0100
1000
,
1001
0000
0001
1000
0100
1000
0001
1000
,
1001
0010
1010
0000
1100
0100
1001
0000
,
1001
0000
0000
0000
0001
0000
1000
0000
0001
0000
1000
0001
0000
0001
1000
0000
,
1001
0000
0000
0000
1000
0000
0010
0000
1000
0000
0001
1000
0000
1000
0001
0000
,
1001
0000
0000
0000
0001
0000
0010
0000
0001
0000
1000
0100
0000
0100
1000
0000
,
1001
0000
0000
0000
1000
0000
0001
0000
1000
0000
0010
1000
0000
1000
0010
0000
,
1001
0000
0000
0000
1000
0000
0100
0000
1000
0000
0001
0100
0000
0100
0001
0000
,
1001
0000
0000
0000
0001
0000
0010
0000
1000
0000
0001
0100
0000
0100
0010
0000
,
1001
0000
0000
0000
0001
0000
1000
0000
0100
0000
1000
0010
0000
0010
1000
0000
,
1001
0000
0000
0000
0001
0000
1000
0000
0100
0000
1000
0001
0000
0001
1000
0000
,
1001
0000
0000
0000
1001
0000
0000
0000
1100
0000
0000
0010
0000
0000
0001
0000
,
1001
0000
0000
0000
1001
0000
0000
0010
0001
0000
1000
0000
0001
0000
0100
0000
,
1000
0010
1000
0000
0001
0000
1000
0001
1000
0000
0000
1000
0000
0000
0100
0000
,
0101
0000
0000
0000
0101
0000
0000
0001
1000
0000
0001
1000
0010
0000
0010
0000
,
1001
0000
0000
0000
1000
0000
0001
0000
0100
0000
0000
0100
0000
0000
0100
0000
,
1001
0000
0000
0000
0010
0000
1000
0000
0001
0000
0000
1000
0000
0000
0100
0000
,
1001
0000
0000
0000
0001
0000
1000
0000
0010
0000
0000
0010
0000
0000
1000
0000
,
1001
0000
0000
0000
0001
0000
1000
0000
0100
0000
0000
1000
0000
0000
0001
0000
,
1001
0000
0000
0000
0001
0000
0010
0000
0010
0000
0000
0100
0000
0000
1000
0000
,
1001
0000
0000
0000
1000
0000
0001
0000
0100
0000
0000
0100
0000
0000
0001
0000
,
1001
0000
0000
0000
1000
0000
0010
0000
1000
0000
0000
0001
0000
0000
0100
0000
,
1001
0000
0000
0000
1001
0000
0010
0000
1100
0000
0000
0101
0000
0000
1100
0000
,
2002
0000
0000
0000
,
3003
0000
0000
0000
;
