#TITLE:This Is How We Party;
#SUBTITLE:;
#ARTIST:S.O.A.P;
#TITLETRANSLIT:;
#SUBTITLETRANSLIT:;
#ARTISTTRANSLIT:;
#GENRE:;
#CREDIT:;
#MUSIC:This Is How We Party.ogg;
#BANNER:bn.png;
#BACKGROUND:bg.png;
#CDTITLE:;
#SAMPLESTART:52.515;
#SAMPLELENGTH:17.600;
#SELECTABLE:YES;
#OFFSET:-0.201;
#BPMS:0.000=110.100
,16.000=110.043
;
#STOPS:;
#BGCHANGES:16.000=emi5.avi=0.800=1=0=1===CrossFade==,
23.500=dance10.avi=1.200=0=0=1,
31.500=spiral2.avi=1.000=0=0=1,
40.000=dance7a.avi=0.900=0=0=1,
48.000=spiral2.avi=1.000=0=0=1,
56.000=wheel1.avi=1.200=0=0=1,
64.000=cards4.avi=1.000=0=0=1,
72.000=emi4.avi=0.800=0=0=0=StretchNoLoop====,
80.000=cards4.avi=1.000=0=0=1,
88.000=emi4.avi=0.800=0=0=0=StretchNoLoop====,
92.000=countdown1r.avi=0.700=0=0=0=StretchNoLoop====,
96.000=emi5.avi=1.000=0=0=1,
104.000=dance10.avi=1.000=0=0=1,
112.000=wheel1.avi=1.200=0=0=1,
120.000=star2.avi=1.000=0=0=1,
128.000=spiral2.avi=1.000=0=0=1,
144.000=emi5.avi=1.200=0=0=0=StretchNoLoop====,
148.000=emi6.avi=1.200=0=0=1,
152.000=emi5.avi=1.000=0=0=0=StretchNoLoop====,
156.000=countdown1r.avi=0.600=0=0=0=StretchNoLoop====,
160.000=This Is How We Party-jacket.png=1.000=1=0=1===CrossFade==,
99999.000=-nosongbg-=1.000=0=0=0=StretchNoLoop====
;
#FGCHANGES:;

//--------------- dance-single - ----------------
#NOTES:
     dance-single:
     :
     Beginner:
     1:
     0.116,0.151,0.087,0,0:
0000
0000
0000
0000
,
0000
0000
0000
0000
,
0000
0000
0000
0000
,
1000
0000
1000
0000
,
1001
0000
0000
0000
,
0001
0000
0000
0000
,
0001
0000
0000
0000
,
0001
0001
0001
0000
,
1001
0000
1000
0000
,
1000
0000
0001
0000
,
1000
0000
1000
0000
,
0001
0000
0001
0000
,
1001
0000
0000
0000
,
0001
0000
0001
0000
,
0001
0000
0000
0000
,
1000
0000
1000
0000
,
1000
0000
0000
0000
,
1000
0000
1000
0000
,
1000
0000
0000
0000
,
0100
0000
0100
0000
,
0100
0000
0000
0000
,
0001
0000
0001
0000
,
0001
0000
0000
0000
,
0010
0010
0010
0000
,
1001
0000
0000
0000
,
0001
0000
1000
0000
,
0001
0000
0000
0000
,
0100
0100
0100
0000
,
1001
0000
0000
0000
,
1000
0000
0001
0000
,
1000
0000
0000
0000
,
0100
0100
0100
0000
,
1001
0000
0000
0000
,
1000
1000
1000
0000
,
1001
0000
0000
0000
,
0001
0001
0001
0000
,
0100
0000
0100
0000
,
1000
0000
1000
0000
,
0100
0000
0100
0000
,
1000
1000
1000
0000
,
1001
0000
0000
0000
;

//--------------- dance-single - ----------------
#NOTES:
     dance-single:
     :
     Easy:
     4:
     0.185,0.2,0.065,0.022,0:
0000
0000
0000
0000
,
0000
0000
0000
0000
,
0000
0000
0000
0000
,
1000
1000
0001
0001
,
1001
0000
1000
1000
,
0001
0000
0001
0001
,
0100
0000
0100
0100
,
0010
0010
0100
0100
,
1001
0000
1000
0001
,
0001
0000
0001
0001
,
1000
0000
1000
1000
,
0100
1000
0010
1000
,
0001
0000
1000
1000
,
1000
0000
0001
1000
,
0001
0000
0001
1000
,
0001
0000
1000
0001
,
1000
0000
1000
0000
,
0001
0000
0001
0000
,
1000
0001
1000
0000
,
1000
0100
1000
0000
,
1000
0000
1000
0000
,
0001
0000
0001
0000
,
1000
0001
1000
0000
,
0100
0100
0100
0100
,
0110
0000
1000
1000
,
0001
0000
0001
0001
,
1000
0000
1000
0000
,
1000
0001
1000
0001
,
0100
0000
0010
0000
,
1000
0010
1000
0010
,
1000
0000
1000
0000
,
1000
0001
0001
1000
,
1001
0000
1000
1000
,
1000
0000
0100
0100
,
0100
0000
1000
1000
,
1000
0001
1000
0001
,
1001
0000
1000
0000
,
0001
0001
0001
0000
,
1000
0000
1000
0000
,
0001
1000
0001
0100
,
0220
0000
0000
0000
,
0330
0000
0000
0000
;

//--------------- dance-single - ----------------
#NOTES:
     dance-single:
     :
     Medium:
     5:
     0.323,0.333,0.076,0.303,0:
0000
0000
0000
0000
,
0000
0000
0000
0000
,
0000
0000
0000
0000
,
1000
0000
1000
0000
1000
0001
1000
0000
,
1001
0000
1000
0000
1000
0001
1000
0000
,
0100
0000
0100
0000
0100
0010
0100
0000
,
0001
0000
0001
0000
1000
0001
1000
0000
,
1010
1100
1100
1010
,
1001
0000
0001
1000
0001
0000
1000
0000
,
1000
0000
1000
0100
1000
0000
0001
0000
,
0001
0000
1000
0001
1000
0000
1000
0000
,
1000
0100
1000
0100
1000
0000
0001
0000
,
1001
0000
0000
1000
1000
0000
0001
0000
,
0001
0000
0000
0001
0001
0000
0100
0000
,
1000
0000
0010
0000
1000
1000
0100
0000
,
0001
0000
1000
0000
0010
0010
0100
0000
,
1000
1000
1000
1000
,
0001
0001
0001
0001
,
1000
0100
0100
0000
1000
1000
0001
0000
,
2000
3200
2300
3020
,
1030
0000
0001
0000
1000
0100
0100
0000
,
1000
0000
0001
0000
1000
0001
0001
0000
,
1000
0000
0100
0000
1000
0010
1000
0000
,
2000
3200
2300
3020
,
1030
0010
1000
0000
0100
0000
0100
0000
,
1000
0010
1000
0000
0001
0000
0001
0000
,
0001
1000
0001
0000
0100
0000
0100
0000
,
0020
0230
0320
0230
,
0310
1000
0001
0000
0100
0000
0100
0000
,
1000
0010
1000
0000
0100
0000
0100
0000
,
1000
0001
1000
0000
0100
0000
0100
0000
,
0020
2030
3200
2300
,
3001
0001
1000
1000
,
2000
3200
2300
3002
,
1003
1000
0001
0001
,
0020
0230
0302
1003
,
1000
0001
1000
0000
0100
0000
0100
0000
,
1000
0001
1000
0000
0010
0000
0010
0000
,
1000
0001
1000
0000
0100
0000
0100
0000
,
2000
3200
0320
0032
,
2000
0000
0000
0000
,
3003
0000
0000
0000
;

//--------------- dance-single - ----------------
#NOTES:
     dance-single:
     :
     Hard:
     9:
     0.402,0.399,0.141,0.292,0.076:
0000
0000
0000
0000
,
0000
0000
0000
0000
,
0000
0000
0000
0000
,
1001
0000
0000
0000
0000
0000
0000
0000
0000
0000
0000
0000
0000
0000
0000
0000
0000
0000
0000
0000
0000
0000
0000
0000
0000
0000
0000
0000
0000
0000
0000
0000
0000
0000
0000
0000
0000
0000
0000
0000
0000
0000
0000
0000
0000
0000
0000
0000
1001
0000
0000
0000
0000
0000
0000
0000
0000
0000
0000
0000
0000
0000
0000
0000
0000
0000
0000
0000
0000
0000
0000
0000
0000
0000
0000
0000
0000
0000
0000
0000
0000
0000
0000
0000
0000
0000
0000
0000
0000
0000
0000
0000
0000
0000
0000
0000
1000
0000
0000
0000
0000
0000
0000
0000
0000
0000
0000
0000
0000
0000
0000
0000
0000
0000
0000
0000
0000
0000
0000
0000
0001
0000
0000
0000
0000
0000
0000
0000
0000
0000
0000
0000
0000
0000
0000
0000
0000
0000
0000
0000
0000
0000
0000
0000
1000
0000
0000
0000
0000
0000
0000
0000
0000
0000
0000
0000
0000
0000
0000
0000
0000
0000
0000
0100
0000
0000
0000
0000
0000
0000
0000
0000
0000
0000
0000
0000
0000
0000
0000
0000
0000
1000
0000
0000
0000
0000
0000
0000
0000
0000
0000
0000
,
0010
1000
0001
0000
0100
0001
0100
0000
,
0001
1000
0001
0000
0010
0100
0010
0000
,
0001
0100
1000
0000
0010
1000
0010
0000
,
2000
0000
3002
0000
1003
1000
0001
0001
,
1001
0000
1000
0000
1000
0100
1000
0000
,
1000
0001
1000
0000
1000
0010
1000
0000
,
0100
0000
0100
0000
0010
0100
0010
0000
,
1000
1000
0001
0001
1000
0100
1000
0001
,
1001
0000
1000
0100
0100
0000
0001
0000
,
0001
0001
0001
0100
0010
0010
0010
1000
,
0001
0000
1000
0100
2000
0000
3010
0000
,
1000
0001
1000
0001
0100
0100
0010
0010
,
1000
0100
1000
0000
1000
0001
1000
0000
,
0001
1000
0001
0000
1000
0001
1000
0000
,
1000
0001
1000
0100
1000
0001
1000
0001
,
2000
3200
2300
3020
,
0130
0010
0100
0000
0001
0010
0001
0000
,
1000
1000
0001
0001
1000
0001
0100
0000
,
1000
0000
0100
0000
1000
0100
0010
0000
,
2000
0000
3002
0000
1003
1000
0001
0000
,
1001
0000
1000
0000
0100
0000
0010
0000
2000
0000
0000
0001
3000
0000
0000
0000
,
1000
0000
0100
0000
1000
0000
0010
0000
2000
0000
0000
0100
3000
0000
0000
0000
,
1000
0000
0001
0000
1000
0000
0100
0000
0020
0000
0000
0100
0030
0000
0000
0000
,
1010
0000
1100
0000
2010
0010
3010
0000
,
1001
0000
0001
0000
1000
0000
0100
0000
2000
0000
0000
0001
3000
0000
0000
0000
,
0001
0000
1000
0000
0001
0000
0100
0000
0020
0000
0000
0100
0030
0000
0000
0000
,
1000
0000
0100
0000
1000
0000
0010
0000
0200
0000
0000
0010
0300
0000
0000
0000
,
2000
0000
3200
0000
2300
0001
3001
1000
,
1001
0000
0000
0000
0001
0000
1000
0000
0200
0000
0000
0010
0000
0000
0310
0000
,
0000
0000
1000
0000
0001
0000
0001
0000
1000
0000
0000
0100
0000
0000
1000
0000
,
1000
0000
0000
0000
1000
0000
0010
0000
1000
0000
0000
1000
0000
0000
1000
0000
,
0011
0000
0101
0000
0010
0010
0100
0000
,
1000
0000
1000
0000
0001
0000
0000
0000
1000
0000
0000
0001
0000
0000
2000
0000
,
0000
0000
3100
0000
0100
0000
0000
0000
1000
0000
0000
1000
0000
0000
0020
0000
,
0000
0000
0130
0000
0100
0000
0000
0000
1000
0000
0000
0001
0000
0000
1000
0000
,
2000
0000
3200
0000
2300
0001
3001
0000
,
2002
0000
0000
0000
,
3003
0000
0000
0000
;

//--------------- dance-single - ----------------
#NOTES:
     dance-single:
     :
     Challenge:
     11:
     0.499,0.554,0.368,0.238,0.216:
0000
0000
0000
0000
,
0000
0000
0000
0000
,
0000
0000
0000
0000
,
1010
0000
0000
0000
0000
0000
0000
0000
0000
0000
0000
0000
0000
0000
0000
0000
0000
0000
0000
0000
0000
0000
0000
0000
0000
0000
0000
0000
0000
0000
0000
0000
0000
0000
0000
0000
0000
0000
0000
0000
0000
0000
0000
0000
0000
0000
0000
0000
1010
0000
0000
0000
0000
0000
0000
0000
0000
0000
0000
0000
0000
0000
0000
0000
0000
0000
0000
0000
0000
0000
0000
0000
0000
0000
0000
0000
0000
0000
0000
0000
0000
0000
0000
0000
1000
0000
0000
0000
0000
0000
0000
0000
0000
0000
0000
0000
0001
0000
0000
0000
0000
0000
0000
0000
0000
0000
0000
0000
0000
0000
0000
0000
0000
0000
0000
0000
0000
0000
0000
0000
0001
0000
0000
0000
0000
0000
0000
0000
0000
0000
0000
0000
0000
0000
0000
0000
0000
0000
0000
0000
0000
0000
0000
0000
1000
0000
0000
0000
0000
0000
0000
0000
0000
0000
0000
0000
0000
0000
0000
0000
0000
0000
0000
0100
0000
0000
0000
0000
0000
0000
0000
0000
0000
0000
0000
0000
0000
0000
0000
0000
0000
1000
0000
0000
0000
0000
0000
0000
0000
0000
0000
0000
,
1001
0000
0001
0000
1000
0000
0100
0000
2000
0000
0000
0001
0000
0000
3001
0000
,
1000
0000
0100
0000
1000
0000
0100
0000
2000
0000
0000
0001
0000
0000
3001
0000
,
0010
0000
0100
0000
0010
0000
0100
0000
0020
0000
0000
0100
0000
0000
0130
0000
,
0110
0000
0000
0000
1010
0000
0000
1000
0001
0000
0001
0000
1000
0000
1000
0000
,
1001
0000
0000
1000
0000
0000
0001
0000
1000
0000
0000
0100
0000
0000
1000
0000
,
0001
0000
0000
0001
0000
0000
1000
0000
0100
0000
0000
1000
0000
0000
0001
0000
,
1000
0000
0001
0000
1000
0000
0001
0000
1000
0000
1000
0100
0000
0000
1000
0000
,
0010
1000
0010
0000
1000
0010
1000
0000
1010
0000
1010
0000
1100
0000
1100
0000
,
1001
0000
0000
0000
0001
0000
1000
0000
1000
0000
1000
0100
0000
1000
0000
0000
,
0010
0000
1000
0000
0100
0000
0000
1000
0010
0000
1000
0000
1010
0000
0000
0000
,
1000
0000
0001
0000
1000
0000
0100
0000
1000
0010
1000
0000
0100
0000
0000
0000
,
1000
0000
0000
0001
0000
0000
1000
0000
0000
0100
0000
0000
1000
0000
0001
0000
1000
0000
0200
0000
0000
0000
0000
0000
,
1300
0001
1000
0001
1000
0100
1000
0000
,
1000
0010
1000
0010
1000
0001
1000
0000
,
1000
0001
1000
0100
1000
0010
1000
0001
,
2200
3300
2020
3030
0220
0330
2002
3000
,
1003
0001
1000
0001
1000
0100
1000
0010
,
1010
1000
1010
0010
1000
0001
1000
0100
,
1000
0000
0001
0000
1000
0000
0000
0000
1000
0000
0001
0000
1000
0000
0000
1000
,
0002
0000
1003
0000
1100
1100
0011
0011
,
1001
0000
1000
0000
0001
0000
0100
0000
0002
0000
0000
0100
0000
0000
0103
0000
,
0100
0000
0001
0000
0010
0000
0100
0000
2000
0000
0000
0001
0000
0000
3001
0000
,
0001
0000
1000
0000
0100
0000
1000
0000
0020
0000
0000
0100
0000
0000
0130
0000
,
1001
0000
0000
0000
0101
0000
0000
1000
0010
0000
0010
0000
0100
0000
0100
0000
,
1010
0000
1000
0000
0001
0000
1000
0000
0200
0000
0000
1000
0000
0000
1300
0000
,
1000
0000
0010
0000
1000
0000
0001
0000
0200
0000
0000
0001
0000
0000
0301
0000
,
0010
0000
0100
0000
0010
0000
1000
0000
0002
0000
0000
1000
0000
0000
1003
0000
,
1001
0000
0000
0000
1001
0000
0000
1000
0100
0000
0100
0000
0010
0000
0010
0000
,
1000
0000
0001
0000
1000
0000
0001
0000
0100
0000
0000
0001
0000
0000
2000
0000
,
0000
0000
0001
0000
3001
0000
0000
0000
1010
0000
0000
1010
0000
0000
1000
0000
,
0001
0000
1000
0000
0001
0000
0100
0000
0002
0000
0000
0010
0000
0000
0013
0000
,
0110
0000
0000
0000
0110
0000
0000
0010
0100
0000
0100
0000
0010
0000
0100
0000
,
0001
0000
0010
0000
0010
0000
0001
0000
1000
0100
0000
0100
0000
0000
1000
0000
,
0001
0000
1000
0000
0100
0000
1000
0000
1000
0010
0000
0010
0000
0000
1000
0000
,
0001
0000
1000
0000
0100
0000
1000
0000
0001
1000
0000
1000
0000
0000
0010
0000
,
1010
0000
0000
0000
1010
0000
0000
1000
0001
0000
1000
0000
0100
0000
1000
0000
,
0020
0100
0000
0100
,
0030
0000
0000
0000
;
