#TITLE:The Tide Is High;
#SUBTITLE:;
#ARTIST:Angelina;
#TITLETRANSLIT:;
#SUBTITLETRANSLIT:;
#ARTISTTRANSLIT:;
#CREDIT:;
#BANNER:The Tide Is High.png;
#BACKGROUND:The Tide Is High-bg.png;
#LYRICSPATH:;
#CDTITLE:;
#MUSIC:The Tide Is High.ogg;
#OFFSET:-0.084;
#SAMPLESTART:70.432;
#SAMPLELENGTH:15.000;
#SELECTABLE:YES;
#BPMS:0.000=95.000;
#STOPS:;
#BGCHANGES:16.000=fish1.avi=1.000=1=0=1,
24.000=fish2.avi=0.800=0=0=1,
32.000=water3.avi=1.000=0=0=1,
40.000=tropical2.avi=1.000=0=0=1,
44.000=tropical1.avi=1.000=0=0=1,
48.000=fish1.avi=1.000=0=0=1,
56.000=fish2.avi=0.800=0=0=1,
64.000=room1.avi=1.000=0=0=1,
80.000=sea1.avi=1.000=0=0=1,
96.000=water3.avi=1.000=0=0=1,
104.000=tropical2.avi=1.000=0=0=1,
108.000=tropical1.avi=1.000=0=0=1,
112.000=fish1.avi=1.000=0=0=1,
120.000=fish2.avi=0.800=0=0=1,
128.000=room1.avi=1.000=0=0=1,
144.000=car5.avi=1.000=0=0=1,
152.000=hawaii1.avi=1.200=0=0=1,
160.000=car5.avi=1.000=0=0=1,
168.000=The Tide Is High-bg.png=1.000=1=0=1,
99999=-nosongbg-=1.000=0=0=0 // don't automatically add -songbackground-
;

//---------------dance-single - ----------------
#NOTES:
     dance-single:
     :
     Beginner:
     1:
     0.101,0.124,0.084,0.000,0.000:
0000
0000
0000
0000
,
0000
0000
0000
0000
,
0000
0000
0000
0000
,
0000
0000
0000
0000
,
1000
0000
0100
0000
,
0010
0000
0001
0000
,
0100
0000
0001
0000
,
1000
0000
0010
0000
,
1001
0000
0000
0000
,
0001
0000
1000
0000
,
0100
0000
0100
0000
,
0010
0000
0010
0000
,
0001
0000
1000
0000
,
0100
0000
0010
0000
,
0001
0000
0010
0000
,
1000
0000
1000
0000
,
1001
0000
0000
0000
,
0110
0000
0000
0000
,
0110
0000
0000
0000
,
1001
0000
0000
0000
,
0001
0001
0001
0000
,
1000
0000
0100
0000
,
0001
1000
0001
0000
,
0100
0000
0010
0000
,
1001
0000
1000
1000
,
0000
0100
0000
0010
,
1000
0000
1000
0000
,
0100
0000
0100
0000
,
0001
0000
0100
0000
,
1000
0000
1000
0000
,
1000
0000
0001
0000
,
0100
0000
0001
0000
,
1001
0000
0000
0000
,
0110
0000
0000
0000
,
0110
0000
0000
0000
,
1001
0000
0000
1000
,
1000
0000
0100
0000
,
0010
0000
0001
0000
,
1000
1000
0001
0000
,
0100
0000
0010
0000
,
0001
0001
0001
0000
,
1000
0000
0100
0000
,
1000
0000
0000
0000
;

//---------------dance-single - ----------------
#NOTES:
     dance-single:
     :
     Easy:
     5:
     0.139,0.159,0.076,0.151,0.000:
0000
0000
0000
0000
,
0000
0000
0000
0000
,
0000
0000
0000
0000
,
0000
0000
0000
0000
,
1000
0010
1000
0000
,
0200
0300
0010
0000
,
0001
0100
0001
0000
,
0002
0003
1000
0000
,
0002
0000
1003
0000
,
2000
0000
3010
0000
,
1001
0000
0110
0000
,
1001
0000
0110
0000
,
0001
0010
0001
0000
,
0200
0300
0100
0000
,
1000
0010
0010
0000
,
2000
3000
0100
0000
,
0002
0000
0003
0100
,
0200
0000
0300
0000
,
2000
0000
3000
0100
,
0200
0000
0300
0000
,
0001
1000
0001
0000
,
0110
0000
1001
0000
,
1000
0100
0001
0000
,
1001
0000
0011
0000
,
1000
0010
1000
0000
,
0001
0100
1000
1000
,
0002
0000
0003
0000
,
2000
0000
3001
0000
,
0001
1000
0010
0000
,
2000
3000
0010
0000
,
0001
1000
0010
0000
,
0200
0300
0001
0000
,
2000
0000
3000
0001
,
0002
0000
0003
0000
,
0020
0000
0030
0100
,
0200
0000
0300
0000
,
1000
0001
1000
0000
,
0010
1000
0001
0000
,
0001
0100
1000
0000
,
0010
0001
1000
0000
,
1000
0100
1000
0000
,
0001
1000
0001
0000
,
1001
0000
0000
0000
;

//---------------dance-single - ----------------
#NOTES:
     dance-single:
     :
     Medium:
     7:
     0.267,0.289,0.269,0.252,0.017: // measure 1
0000
0000
0000
0000
,  // measure 2
0000
0000
0000
0000
,  // measure 3
0000
0000
0000
0000
,  // measure 4
0000
0000
0000
0000
,  // measure 5
1010
0000
1100
0000
1001
0000
0001
0010
,  // measure 6
0200
0000
0300
1000
0020
0000
1030
0000
,  // measure 7
1001
0011
0101
1001
,  // measure 8
0020
0000
0030
1000
0002
0000
1003
0000
,  // measure 9
1001
0000
0000
0001
0000
0000
1000
0010
1000
0000
0000
0000
,  // measure 10
0001
0000
1000
0010
1000
0000
1000
0100
,  // measure 11
2000
0000
0001
0000
0000
0000
3001
1000
,  // measure 12
0020
1030
2002
3003
,  // measure 13
1001
0000
0011
0000
0101
0000
1000
0010
,  // measure 14
0002
0000
0003
0100
2000
0000
3001
0000
,  // measure 15
1001
1010
1100
1001
,  // measure 16
0002
0000
0003
1000
0020
0000
1030
0000
,  // measure 17
0002
1000
0000
1003
,  // measure 18
0020
1000
0000
1030
,  // measure 19
0200
0001
0000
0301
,  // measure 20
2000
0010
0000
3010
,  // measure 21
1000
0001
1000
0000
0110
0000
1000
0001
,  // measure 22
0002
1000
0013
0000
,  // measure 23
1000
0001
1000
0000
0011
0000
1000
0010
,  // measure 24
2000
0001
3100
0000
,  // measure 25
0001
0000
0000
0000
0000
0000
1000
0000
0000
0000
0000
0000
1000
0000
0010
0000
1000
0000
0000
0000
0000
0001
0000
0000
,  // measure 26
0100
0000
0001
1000
0010
0000
1000
0010
,  // measure 27
2000
0001
0000
3001
,  // measure 28
0020
1000
0000
1030
,  // measure 29
1001
0000
1010
0000
1100
0000
0001
1000
,  // measure 30
0020
0000
0030
1000
0200
0000
1300
0000
,  // measure 31
1001
0011
0101
0110
,  // measure 32
2000
0000
3000
0001
0020
0000
0130
0000
,  // measure 33
2000
0001
0000
3001
,  // measure 34
0020
0100
0000
0130
,  // measure 35
2000
0010
0000
3010
,  // measure 36
0002
1000
0000
1003
,  // measure 37
1001
0000
0010
0000
1000
0010
1000
0000
,  // measure 38
0001
0100
0001
0000
1000
0000
1100
0000
,  // measure 39
1001
0000
0010
0000
0001
0010
0001
0000
,  // measure 40
1000
0010
0001
0000
1000
0000
0101
0000
,  // measure 41
1001
0000
0010
0000
1000
0010
1000
0000
,  // measure 42
0001
0010
1000
0000
0001
0000
1100
0000
,  // measure 43
2002
0000
0000
0000
,  // measure 44
3003
0000
0000
0000
;

//---------------dance-single - ----------------
#NOTES:
     dance-single:
     :
     Hard:
     10:
     0.374,0.362,0.227,0.219,0.202: // measure 1
0000
0000
0000
0000
,  // measure 2
0000
0000
0000
0000
,  // measure 3
0000
0000
0000
0000
,  // measure 4
0000
0000
0000
0000
,  // measure 5
1000
0010
1000
0010
2000
0000
3001
1000
,  // measure 6
0020
0000
0000
0000
1030
0000
0001
0000
1000
0000
0000
0100
1000
0000
0000
0000
,  // measure 7
0001
0010
0001
0010
0002
0000
1003
0001
,  // measure 8
2000
0000
0000
0000
3010
0000
1000
0000
0001
0000
0000
0010
1000
0000
0000
0000
,  // measure 9
1001
0000
0000
0000
0000
0000
1000
0000
0001
0000
1000
0000
0100
0000
0010
0000
1000
0000
0000
0000
0000
0010
0000
0000
,  // measure 10
2000
0000
0000
0001
0000
0000
3001
0000
2000
0000
0000
0010
0000
0000
3010
0000
,  // measure 11
0002
0000
0000
1000
0000
0000
1003
0000
0000
0000
1000
0000
0010
0000
1000
0000
,  // measure 12
0002
0000
0100
0000
0003
0000
1000
0010
1000
0000
0000
0000
1001
0000
0000
0000
,  // measure 13
1000
0001
1000
0001
2000
0000
3001
0010
,  // measure 14
2000
0000
0000
0000
3010
0000
1000
0000
0001
0000
0000
0100
0010
0000
0000
0000
,  // measure 15
0100
0010
0100
0010
0200
0000
0301
1000
,  // measure 16
0020
0000
0000
0000
1030
0000
0001
0000
1000
0001
1000
0100
0010
0000
0001
0000
,  // measure 17
1000
0001
1000
0011
0000
0001
1000
0101
,  // measure 18
0000
0100
0010
1100
0000
0110
0000
1001
,  // measure 19
0010
1000
0010
1001
0000
1000
0010
1000
,  // measure 20
0001
0000
0000
0000
0001
0000
0000
0000
0010
0001
0010
0000
1000
0010
1000
0000
,  // measure 21
1001
0000
0000
1000
0000
0001
0000
2000
0000
0000
3010
0000
0001
0000
0001
0000
,  // measure 22
0200
0000
0000
0000
0301
0000
1000
0000
0010
0000
0000
0001
1000
0000
0000
0000
,  // measure 23
1001
0000
0000
1000
0000
0001
0000
0020
0000
0000
1030
0000
0001
0000
1000
0000
,  // measure 24
0200
0000
0000
0000
1300
0000
0001
0000
0010
0000
0000
0100
0010
0000
0000
0000
,  // measure 25
1001
0000
0000
0000
0000
0000
1000
0000
0001
0000
1000
0000
0100
0000
0001
0000
0001
0000
0000
0000
0000
1000
0000
0000
,  // measure 26
0020
0000
0000
1000
0000
0000
1030
0000
0002
0000
0000
0100
0000
0000
0103
0000
,  // measure 27
2000
0000
0000
0002
0000
0000
0000
0000
3003
0000
0000
0000
0000
0000
0001
0000
,  // measure 28
1000
0000
0010
0000
0000
0000
1000
0100
1000
0000
1000
0010
1000
0000
0001
0000
,  // measure 29
1000
0010
1000
0010
2000
0000
3001
0010
,  // measure 30
0002
0000
0000
0000
1003
0000
0100
0000
0001
0000
0000
0001
1000
0000
0000
0000
,  // measure 31
0100
0010
0100
0010
0200
0000
0301
1000
,  // measure 32
0020
0000
0000
0000
1030
0000
0001
0000
0100
0000
0000
0001
1000
0000
0000
0000
,  // measure 33
1000
0001
1000
1001
0000
1000
0010
1010
,  // measure 34
0000
1000
0001
1001
0000
0110
0000
1001
,  // measure 35
0100
0001
0100
1001
0000
1000
0010
1000
,  // measure 36
0001
0000
0000
0000
1000
0000
0000
0000
1000
0010
1000
0000
0001
1000
0001
0000
,  // measure 37
1001
0000
0000
0100
0000
0000
1000
0000
0001
0000
1000
0010
1000
0000
0000
0000
,  // measure 38
0001
0000
0000
1000
0100
0000
1001
0000
1001
0000
0000
0001
0100
0000
0001
0000
,  // measure 39
1001
0000
0000
0100
0000
0000
0001
0000
1000
0000
0010
1000
0010
0000
0000
0000
,  // measure 40
0001
0000
0000
0100
1000
0000
0110
0000
0110
0000
0000
0100
0001
0000
0000
0000
,  // measure 41
1001
0000
0000
0010
0000
0000
1000
0000
0001
0000
1000
0100
1000
0000
0000
0000
,  // measure 42
0010
0000
0000
1000
0010
0000
1001
0000
0110
0000
0000
1000
0001
0000
0100
0000
,  // measure 43
2002
0000
0000
0000
,  // measure 44
3003
0000
0000
0000
;

//---------------dance-single - ----------------
#NOTES:
     dance-single:
     :
     Challenge:
     13:
     0.436,0.452,0.193,0.067,0.328: // measure 1
0000
0000
0000
0000
,  // measure 2
0000
0000
0000
0000
,  // measure 3
0000
0000
0000
0000
,  // measure 4
0000
0000
0000
0000
,  // measure 5
1000
0010
1000
0010
1000
0010
1000
0010
,  // measure 6
0100
0000
0001
0000
0100
0000
0001
0000
1000
0000
0100
0001
1000
0000
0000
0000
,  // measure 7
0010
0001
0010
0001
0010
0001
0010
0001
,  // measure 8
0100
0000
1000
0000
0100
0000
1000
0000
0001
0000
1000
0100
0001
0000
0000
0000
,  // measure 9
1002
0000
0000
0000
0000
0000
1003
0000
1000
0000
1000
0000
0001
0000
0100
0000
1000
0000
0000
0000
0000
0010
0000
0000
,  // measure 10
0001
1000
0000
1000
0000
0001
1000
0000
0001
0100
0000
0010
0000
1000
0001
0000
,  // measure 11
1002
0000
0000
1000
0000
0000
1000
0000
0000
0000
0103
0000
0000
0000
0010
0000
,  // measure 12
1000
0000
0001
0000
0010
0000
0001
1000
0010
0000
0000
0000
0110
0000
0000
0000
,  // measure 13
0001
0010
0001
0010
0001
0010
0001
0010
,  // measure 14
1000
0000
0010
0000
1000
0000
0010
0000
1000
0000
0001
1000
0100
0000
0000
0000
,  // measure 15
1000
0100
1000
0100
1000
0100
1000
0100
,  // measure 16
0001
0000
0000
0000
0000
0000
0100
0000
0000
0000
0000
0000
0001
0000
0000
0000
0000
0000
0100
0000
0000
0000
0000
0000
0001
0000
1000
0000
0010
0000
1000
0000
0100
0000
1000
0000
0010
0000
0000
1000
0000
0000
0100
0000
0000
0000
0000
0000
,  // measure 17
0010
0001
0010
0001
0010
0001
0010
0001
,  // measure 18
0010
1000
0010
1000
0010
1000
0010
0000
,  // measure 19
1000
0100
1000
0100
1000
0100
1000
0100
,  // measure 20
0001
0000
0000
0000
0000
0000
0100
0000
0000
0000
0000
0000
0001
0000
0000
0000
0000
0000
0100
0000
0000
0000
0000
0000
0001
0000
1000
0000
0010
0000
1000
0000
0001
0000
0100
0000
0001
0000
0000
1000
0000
0000
0001
0000
0000
1000
0000
0000
,  // measure 21
0001
0010
0000
0010
0000
0010
0000
0210
0000
0000
0001
0000
0001
0000
0301
0000
,  // measure 22
1000
0000
0000
0100
0001
0000
0110
0000
0110
0000
0001
1000
0001
0000
0000
0000
,  // measure 23
1000
0010
0000
0010
0000
0010
0000
0120
0000
0000
1000
0000
1000
0000
1030
0000
,  // measure 24
0001
0000
0000
1000
0100
0000
0110
0000
0110
0000
0100
0001
0100
0000
0000
0000
,  // measure 25
1001
0000
0000
0000
0000
0000
0001
0000
0001
0000
0001
0000
1000
0000
0100
0000
0001
0000
0000
0000
0000
1000
0000
0000
,  // measure 26
0010
1000
0000
0001
0000
0100
0001
0000
1000
0010
0000
1000
0000
0001
0100
0000
,  // measure 27
1002
0000
0000
2000
0000
0000
0000
0000
3003
0000
0000
0000
1000
0000
0001
0000
,  // measure 28
1000
0000
0000
0000
0000
0000
0100
0000
0000
0000
0000
0000
0010
0000
0000
0000
0000
0000
1000
0000
0000
0010
0000
0000
0100
0000
0010
0000
1000
0000
0001
0000
1000
0000
0001
0000
0100
0000
0000
0001
0000
0000
1000
0000
0000
0000
0000
0000
,  // measure 29
0001
0100
0001
0100
0001
0100
0001
0100
,  // measure 30
0010
0000
0100
0000
0010
0000
0100
0000
0010
0000
1000
0001
1000
0000
0000
0000
,  // measure 31
1000
0010
1000
0010
1000
0010
1000
0010
,  // measure 32
1000
0000
0100
0000
1000
0000
0100
0000
1000
0000
0100
1000
0001
0000
0000
0000
,  // measure 33
0010
1000
0010
1000
0010
1000
0010
1000
,  // measure 34
0001
0100
0001
0100
0001
0100
0001
0000
,  // measure 35
1000
0001
1000
0001
1000
0001
1000
0001
,  // measure 36
0010
0000
0000
0000
0000
0000
0100
0000
0000
0000
0000
0000
0010
0000
0000
0000
0000
0000
0100
0000
0000
0000
0000
0000
0010
0000
1000
0000
0001
0000
0100
0000
0001
0000
1000
0000
0001
0000
0000
0100
0000
0000
0001
0000
0000
0100
0000
0000
,  // measure 37
1001
0000
1000
0010
0000
1000
0010
0000
0110
0000
0001
1000
0100
0000
0000
0000
,  // measure 38
0001
0000
1000
0001
0100
0000
1001
0000
1001
0000
1000
0001
0100
0000
0010
0000
,  // measure 39
1001
0000
1000
0010
0000
0010
1000
0000
1001
0000
0001
1000
0010
0000
0000
0000
,  // measure 40
1000
0000
0001
0100
0001
0000
0110
0000
0110
0000
1000
0010
1000
0000
0010
0000
,  // measure 41
1001
0000
0010
1000
0000
1000
0100
0000
0100
0000
0001
1000
0001
0000
0110
0000
,  // measure 42
1001
0000
1000
0010
1000
0000
0001
0000
0010
0000
1000
0010
0001
0000
1000
0000
,  // measure 43
2002
0000
0000
0000
,  // measure 44
3003
0000
0000
0000
;
