#TITLE:The One I Gave My Heart To;
#SUBTITLE:(Soul Solution Edit);
#ARTIST:Aaliyah;
#TITLETRANSLIT:;
#SUBTITLETRANSLIT:;
#ARTISTTRANSLIT:;
#GENRE:;
#CREDIT:;
#MUSIC:The One I Gave My Heart To (Soul Solution Edit).ogg;
#BANNER:The One I Gave My Heart To (Soul Solution Edit).png;
#BACKGROUND:The One I Gave My Heart To (Soul Solution Edit)-bg.png;
#CDTITLE:;
#SAMPLESTART:81.002;
#SAMPLELENGTH:15.000;
#SELECTABLE:YES;
#OFFSET:-0.181;
#BPMS:0.000=128.185
,32.000=64.092
,64.000=128.185
,140.000=132.597
,144.000=128.185
;
#STOPS:;
#DISPLAYBPM:64.000:128.000;
#BGCHANGES:8.000=fire1.avi=1.200=1=0=1===CrossFade==,
24.000=ring12.avi=1.200=0=0=1,
32.000=snow4.avi=0.900=0=0=1,
48.000=light3.avi=1.000=0=0=1,
56.000=wind1.avi=1.000=0=0=1,
62.000=lady13.avi=0.900=0=0=1,
64.000=circle9.avi=1.000=0=0=1,
80.000=heart11a.avi=1.000=0=0=1,
96.000=text8.avi=1.000=0=0=1,
112.000=heat1.avi=1.000=0=0=1,
128.000=fire1.avi=1.200=0=0=1,
132.000=blackhole1.avi=1.400=0=0=1,
136.000=ring12.avi=1.400=0=0=1,
138.000=blackhole1.avi=1.400=0=0=1,
140.000=lady13.avi=0.900=0=0=1,
144.000=snow4.avi=1.000=0=0=1,
160.000=heat1.avi=1.000=0=0=1,
176.000=light3.avi=1.000=0=0=1,
192.000=heart11a.avi=1.000=0=0=1,
208.000=text8.avi=1.000=0=0=1,
224.000=The One I Gave My Heart To (Soul Solution Edit)-bg.png=1.000=1=0=1===CrossFade==,
99999.000=-nosongbg-=1.000=0=0=0=StretchNoLoop====
;
#FGCHANGES:;

//--------------- dance-single - ----------------
#NOTES:
     dance-single:
     :
     Beginner:
     3:
     0.152,0.201,0.032,0,0:
0000
0000
0000
0000
,
0000
0000
0000
0000
,
1000
0000
0000
0000
,
1000
0000
1000
1000
,
1000
0000
0000
0000
,
0001
0000
0001
0001
,
0001
0000
0001
0000
,
1000
0000
0001
0001
,
0001
1000
1000
0000
,
0001
0001
0001
0000
,
1000
1000
1000
0000
,
1000
0001
1000
0000
,
1000
1000
1000
1000
,
0001
0001
0001
0001
,
1000
1000
0001
0001
,
1000
0001
1001
0000
,
1000
0000
1000
0000
,
0001
0000
0001
0000
,
0100
0000
0100
0000
,
0100
0000
0000
0000
,
0010
0000
0010
0000
,
0010
0000
0000
0000
,
0100
0000
0100
0000
,
0100
0000
0000
0000
,
1000
0000
1000
0000
,
0001
0000
0001
0000
,
1000
0000
1000
0000
,
0001
0000
0001
0000
,
1000
0000
1000
0000
,
0001
0000
0001
0000
,
0100
0000
0001
0000
,
0100
0000
0001
0000
,
0001
0001
0001
0000
,
1000
1000
1000
0000
,
0001
0001
0001
0000
,
1001
0000
0000
0000
,
1000
1000
1000
0000
,
0001
0001
0001
0000
,
1000
0000
1000
0000
,
0001
0000
0001
0001
,
0001
0000
0100
0000
,
0001
0000
0100
0000
,
0010
0010
0010
0000
,
0100
0100
0100
0000
,
0110
0000
0000
0000
,
0001
0000
1000
0000
,
0100
0100
0100
0000
,
0010
0010
0010
0000
,
0001
0000
0001
0000
,
1000
0000
1000
0000
,
0001
0001
0001
0000
,
1000
1000
1000
0000
,
1000
0000
1000
0000
,
0001
0000
0001
0000
,
1000
0000
1000
0000
,
0001
0001
0001
0000
,
1001
0000
0000
0000
;

//--------------- dance-single - ----------------
#NOTES:
     dance-single:
     :
     Easy:
     7:
     0.204,0.296,0.04,0.064,0:
0000
0000
0000
0000
,
0000
0000
0000
0000
,
1000
1000
0001
0001
,
0200
0000
0000
0300
,
0001
0001
1000
1000
,
0200
0000
0000
0300
,
1000
0000
0001
0000
,
1000
1000
1000
0100
,
1001
1000
1000
0000
,
1000
0001
0100
0000
,
1000
0001
0100
0000
,
0001
1000
0001
0000
,
1000
1000
1000
0000
0001
0001
0001
0000
,
1000
1000
1000
0000
0001
0001
0001
0000
,
1000
1000
0001
0001
,
1000
0001
1000
0000
2002
0000
3003
0000
,
1001
0000
1000
0000
,
0001
0001
0001
0000
,
0001
0000
0001
0000
,
1000
1000
1000
0000
,
1000
0000
0001
0000
,
1000
0001
1000
0000
,
0100
0000
0100
0000
,
1000
1000
0001
1000
,
0001
0000
1000
0000
,
0001
0001
1000
0100
,
1000
0000
1000
0000
,
0010
1000
0010
1000
,
0001
0000
1000
0000
,
0001
1000
0100
1000
,
0001
0000
1000
0000
,
1000
0100
1000
0001
,
1000
1000
1000
0001
,
0100
0100
0100
0001
,
1000
1000
0001
0001
,
2002
0000
0000
3003
,
1000
0000
1000
0000
,
0001
0001
0100
0000
,
1000
0000
0001
0000
,
1000
0100
1000
0001
,
1000
0000
0001
0000
,
1000
0010
1000
1000
,
0001
0000
0100
0000
,
0001
0001
1000
1000
,
0100
0000
1000
0000
,
0010
0010
1000
0001
,
0100
0000
0001
0000
,
0001
0001
1000
0001
,
0100
0000
0010
0000
,
1000
1000
0100
1000
,
0001
0000
0100
0000
,
0001
0001
1000
1000
,
0100
0000
1000
0000
,
0001
0001
1000
0100
,
1000
0000
0010
0000
,
1000
1000
0100
1000
,
2002
0000
0000
0000
,
3003
0000
0000
0000
;

//--------------- dance-single - ----------------
#NOTES:
     dance-single:
     :
     Medium:
     10:
     0.33,0.364,0.072,0.096,0:
0000
0000
0000
0000
,
0000
0000
0000
0000
,
1000
1000
0001
0001
,
1000
0100
1000
0000
1000
0001
1000
0000
,
0001
0001
1000
1000
,
0001
1000
0001
0000
1000
0100
1000
0000
,
0001
1000
0100
1000
,
0001
1000
0001
1000
0001
1000
0001
1000
,
0001
1000
0000
1000
0000
0100
0000
1000
,
0000
0001
0000
0001
0000
0100
0000
0001
,
0000
1000
0000
1000
0000
0100
0000
1000
,
0000
0001
0000
0001
0000
0100
0000
0001
,
1000
0001
1000
0000
0001
1000
0001
0000
,
1000
0100
1000
0001
1000
0000
1000
0000
,
1000
0001
1000
0000
1000
0100
1000
0000
,
1000
1000
0001
0001
2002
0000
0000
3003
,
1001
1000
0001
0001
,
1000
0100
1000
0000
1000
0001
1000
0000
,
0001
0000
1000
0000
1000
0100
1000
0000
,
1000
0001
1000
0000
0010
0000
0010
0000
,
1001
0000
1000
0000
1000
0100
1000
0000
,
1000
0001
1000
0000
0001
0000
0100
0000
,
1001
0000
0001
0000
1000
0100
1000
0000
,
1000
0001
1000
0000
1000
0010
1000
0000
,
2000
3002
2003
3200
,
2300
3002
1000
1003
,
1000
0001
1000
0000
1000
0010
1000
0000
,
1000
0001
0100
0001
,
1001
1000
0010
1000
,
0001
1000
0001
0000
0100
0000
0100
0000
,
0001
0000
1000
0100
0000
0100
1000
0000
,
1000
0001
1000
0001
,
1000
0001
0000
0001
0000
0001
0000
0001
,
1000
1000
0000
1000
0000
1000
0000
1000
,
0001
1000
0000
0001
1000
0001
0000
1000
,
2002
0000
0000
3003
,
1001
1000
0001
0001
,
1000
0001
1000
0000
1000
0100
1000
0000
,
1000
0010
1000
0010
,
1000
0001
1000
0000
1000
0100
1000
0000
,
0001
0001
0100
0100
,
0001
0100
0001
0000
0001
1000
0001
0000
,
0100
0100
0010
0010
,
1000
0010
1000
0000
1000
0100
1000
0000
,
1001
1000
0100
1000
,
1000
0001
0100
0000
0100
0001
1000
0000
,
1000
1000
0001
0001
,
1000
0100
0001
0000
1000
0010
0100
0000
,
1000
0001
0100
0001
,
1000
0010
1000
0000
0001
1000
0100
0000
,
1000
1000
0100
1000
,
1000
0010
1000
0000
1000
0001
0100
0001
,
1000
0001
1000
0100
,
1000
0010
1000
0000
0001
0100
0001
0000
,
1000
0001
0100
0001
,
1000
0001
1000
0100
1000
0000
0010
0000
,
2002
0000
0000
0000
,
3003
0000
0000
0000
;

//--------------- dance-single - ----------------
#NOTES:
     dance-single:
     :
     Hard:
     12:
     0.493,0.592,0.319,0.056,0.319:
0000
0000
0000
0000
,
0000
0000
0000
0000
,
1000
0000
0000
0001
0100
0000
0000
0000
1000
0000
0000
1000
0100
0000
1000
0000
,
1000
0000
0000
1000
0100
0000
0000
0000
0100
0000
0000
0100
0010
0000
0000
0000
,
1010
0000
0000
1000
0010
0000
0000
0000
1000
0000
0000
0001
1000
0000
1000
0000
,
0001
0000
0000
0001
0100
0000
0000
0000
0100
0000
0000
0100
0001
0000
0000
0000
,
0001
0000
0000
1000
0001
0000
1000
0000
0100
0000
0000
1000
0010
0000
1000
0000
,
1010
1010
1100
1100
1010
1010
1100
1100
,
1001
0001
0000
1000
0100
0002
0000
1003
,
0010
0000
1000
0000
0010
0000
1000
0000
0001
0000
0000
0000
0001
0000
1000
0100
,
0100
1000
0001
1000
0000
1000
0010
1000
,
0000
1000
0001
1000
0000
1000
1000
0001
,
1000
0100
1000
0001
1000
1000
0001
0001
,
1000
0010
1000
0010
1000
0001
1000
0001
,
1001
1000
0100
1000
1010
1000
0100
1000
,
1001
0001
1100
1000
2002
0000
0000
3003
,
1001
0000
0000
0001
1000
0000
0100
0000
1000
0000
0000
0001
1000
0000
1000
0000
,
0100
0000
0000
1000
0010
0000
1000
0000
0100
0000
0000
1000
0001
0000
0000
0000
,
1001
0000
0000
1000
0100
0000
1000
0000
0001
0000
0000
0001
0100
0000
0100
0000
,
0001
0000
0000
0001
1000
0000
1000
0000
0100
0000
0000
0001
1000
0000
0000
0000
,
1001
0000
0000
1000
0010
0000
1000
0000
0100
0000
0000
1000
0001
0000
0100
0000
,
0001
0000
0000
1000
0100
0000
1000
0000
0010
0000
0000
1000
0001
0000
0000
0000
,
1001
0000
0000
0001
1000
0000
0100
0000
1000
0000
0000
1000
0001
0000
0100
0000
,
0001
0000
0000
0001
1000
0000
0010
0000
1000
0000
0000
1000
0001
0000
0000
0000
,
1001
0000
0000
1000
0010
0000
1000
0000
0100
0000
0000
0001
1000
0000
0100
0000
,
1000
0000
0000
1000
0001
0000
1000
0000
0100
0000
0000
0001
1000
0000
0000
0000
,
1001
0000
0000
1000
0010
0000
1000
0000
0100
0000
0000
1000
0100
0000
0100
0000
,
1000
0000
0000
1000
0001
0000
0100
0000
0001
0000
0000
1000
0100
0000
0000
0000
,
1001
0000
0000
1000
0100
0000
1000
0000
0001
0000
0000
1000
0100
0000
0000
0000
,
1001
0000
0000
0001
0100
0000
0100
0000
0001
0000
0000
1000
0001
0000
0000
0000
,
1001
0000
0000
1000
0010
0000
0010
0000
0000
0000
1000
0000
0001
0000
0000
0000
,
1001
0000
1000
0001
0000
0001
1000
0000
,
1001
1000
0100
1000
0100
1000
0010
0000
,
1001
1000
0100
1000
0001
0100
0001
0000
,
1001
1000
0000
1000
1000
0001
0000
0001
,
2002
0000
0000
3003
,
1001
0000
0000
0100
1000
0000
0100
0000
0010
0000
0000
0010
0100
0000
0100
0000
,
0010
0000
0000
0010
1000
0000
1000
0000
0001
0000
0000
1000
0100
0000
0000
0000
,
1001
0000
0000
1000
0010
0000
1000
0000
0001
0000
0000
0001
0100
0000
0100
0000
,
0010
0000
0000
0010
1000
0000
1000
0000
0001
0000
0000
1000
0100
0000
0000
0000
,
1001
0000
0000
1000
0010
0000
1000
0000
0001
0000
0000
1000
0100
0000
1000
0000
,
0001
0000
0000
1000
0010
0000
1000
0000
0001
0000
0000
1000
0100
0000
0000
0000
,
1001
0000
0000
0001
0100
0000
0010
0000
0100
0000
0000
0010
1000
0000
1000
0000
,
0001
0000
0000
1000
0100
0000
1000
0000
0001
0000
0000
1000
0100
0000
0000
0000
,
1001
0000
0000
1000
0001
0000
1000
0000
0100
0000
0000
1000
0010
0000
1000
0000
,
0010
0000
0000
1000
0100
0000
1000
0000
0001
0000
0000
0001
0100
0000
0000
0000
,
1001
0000
0000
1000
0010
0000
1000
0000
0010
0000
0000
1000
0100
0000
1000
0000
,
0100
0000
0000
1000
0001
0000
1000
0000
0001
0000
0000
1000
0100
0000
0000
0000
,
1001
0000
0000
1000
0010
0000
1000
0000
0010
0000
0000
1000
0001
0000
1000
0000
,
0100
0000
0000
1000
0001
0000
0010
0000
0100
0000
0000
1000
0100
0000
0000
0000
,
1001
0000
0000
1000
0001
0000
0001
0000
0100
0000
0000
1000
0010
0000
1000
0000
,
0010
0000
0000
1000
0100
0000
1000
0000
0100
0000
0000
1000
0001
0000
0000
0000
,
1001
0000
0000
1000
0010
0000
1000
0000
0100
0000
0000
1000
0001
0000
1000
0000
,
0100
0000
0000
1000
0010
0000
1000
0000
0100
0000
0000
1000
0001
0000
0000
0000
,
1001
0000
0000
0001
0100
0000
0010
0000
0100
0000
0000
1000
0010
0000
1000
0000
,
0100
0000
0000
1000
0001
0000
1000
0000
0100
0000
0000
1000
0001
0000
0000
0000
,
2002
0000
0000
0000
,
3003
0000
0000
0000
;

//--------------- dance-single - ----------------
#NOTES:
     dance-single:
     :
     Challenge:
     14:
     0.563,0.66,0.128,0.12,0.3:
0000
0000
0000
0000
,
0000
0000
0000
0000
,
1000
0000
1000
0001
1000
0000
0001
0000
0010
0000
1000
0000
0001
0000
1000
0000
,
0100
0000
1000
0010
1000
0000
0010
0000
1000
0000
1000
0100
1000
0000
0000
0000
,
0001
0000
1000
0100
1000
0000
0100
0000
0001
0000
0010
0000
1000
0000
0100
0000
,
1000
0000
1000
0010
1000
0000
0010
0000
0100
0000
1000
0001
1000
0000
0000
0000
,
1000
0000
1000
0100
1000
0000
0010
0000
1000
0000
1000
0001
1000
0000
0100
0000
,
1000
0010
1000
0000
1000
0100
1000
0000
1000
0010
1000
0010
1000
0010
1000
0010
,
2000
0001
0000
3001
0002
1000
0000
1003
,
2000
0000
0001
0000
0000
0000
3001
0000
0002
0000
1000
0000
0000
0000
1003
1010
,
2001
0001
0000
3001
0002
1000
0000
1003
,
2000
0100
0000
3100
2000
0001
0000
3001
,
1000
0010
1000
0010
1000
0010
1000
0000
1000
0001
1000
0001
1000
0001
0100
0000
,
0100
0001
0100
0001
0100
0001
0100
0000
0100
0010
0100
0010
0100
0010
0100
0000
,
0010
1000
0010
0000
1000
0010
1000
0000
1000
0001
1000
0000
0001
1000
0001
0000
,
1100
0010
1100
0010
2002
0000
0000
3003
,
1001
0000
1000
0001
1000
0000
1000
0000
0010
0000
1000
0000
0001
0000
0100
0000
,
0001
0000
1000
0000
0001
0000
1000
0000
0010
0000
1000
0001
1000
0000
0000
0000
,
1000
0000
0001
1000
0001
0000
1000
0000
0100
0000
1000
0000
0010
0000
1000
0000
,
0001
0000
0100
0000
0001
0000
1000
0000
0100
0000
1000
0001
1000
0000
0000
0000
,
0001
0000
1000
0100
1000
0000
1000
0000
0010
0000
1000
0000
0001
0000
1000
0000
,
0100
0000
1000
0000
0001
0000
0010
0000
1000
0000
0100
1000
0100
0000
0000
0000
,
1000
0000
0001
0100
0001
0000
1000
0000
0100
0000
1000
0000
0010
0000
1000
0000
,
0001
0000
0100
0000
0001
0000
1000
0000
0001
0000
1000
0100
1000
0000
0000
0000
,
0001
0000
1000
0010
1000
0000
1000
0000
0100
0000
1000
0000
0001
0000
1000
0000
,
0010
0000
1000
0000
0001
0000
1000
0000
0100
0000
1000
0100
1000
0000
0000
0000
,
0001
0000
1000
0100
1000
0000
1000
0000
0010
0000
1000
0000
0100
0000
1000
0000
,
0001
0000
0100
0000
0001
0000
1000
0000
0001
0000
1000
0100
1000
0000
0000
0000
,
0001
0000
1000
0010
1000
0000
1000
0000
0001
0000
0100
0000
0001
0000
1000
0000
,
0010
0000
1000
0000
0010
0000
1000
0000
0100
0000
1000
0010
1000
0000
0000
0000
,
1000
0001
1000
0200
0000
0010
0310
0000
,
1000
0001
1000
0100
1000
0010
1000
0000
,
1001
1001
1000
0100
0000
0100
0000
0100
,
1010
1010
1000
0010
0000
1000
0000
1000
,
1001
0001
0000
0001
1001
1000
0000
1001
,
2002
0000
0000
3003
,
1001
0000
1000
0010
1000
0000
1000
0000
0001
0000
0100
0000
0001
0000
1000
0000
,
0010
0000
1000
0010
1000
0000
0100
0000
0001
0000
1000
0010
1000
0000
0000
0000
,
1000
0000
0001
1000
0001
0000
1000
0000
0100
0000
1000
0000
0010
0000
1000
0000
,
0001
0000
1000
0100
1000
0000
1000
0000
0001
0000
1000
0100
1000
0000
0000
0000
,
1000
0000
0001
0100
0001
0000
1000
0000
0010
0000
1000
0000
0001
0000
1000
0000
,
0001
0000
1000
0010
1000
0000
1000
0000
0001
0000
1000
0010
0100
0000
0000
0000
,
0001
0000
1000
0001
1000
0000
0001
0000
0100
0000
1000
0000
0010
0000
1000
0000
,
0010
0000
1000
0010
1000
0000
1000
0000
0100
0000
1000
0010
1000
0000
0000
0000
,
0001
0000
1000
0100
1000
0000
0100
0000
0001
0000
0100
0000
0001
0000
1000
0000
,
0100
0000
1000
0100
1000
0000
0010
0000
0010
0000
1000
0001
1000
0000
0000
0000
,
0001
0000
1000
0100
1000
0000
1000
0000
0001
0000
1000
0000
0100
0000
1000
0000
,
0010
0000
1000
0010
1000
0000
0001
0000
0100
0000
0100
0001
0100
0000
0000
0000
,
1000
0000
0001
1000
0001
0000
1000
0000
0100
0000
1000
0000
0010
0000
1000
0000
,
0001
0000
1000
0100
1000
0000
0001
0000
1000
0000
1000
0010
1000
0000
0000
0000
,
1000
0000
1000
0001
1000
0000
1000
0000
0010
0000
1000
0000
0100
0000
0001
0000
,
1000
0000
1000
0010
1000
0000
1000
0000
0100
0000
1000
0001
1000
0000
0000
0000
,
0001
0000
1000
0100
1000
0000
1000
0000
0010
0000
1000
0000
0001
0000
1000
0000
,
0100
0000
1000
0010
1000
0000
1000
0000
0001
0000
0100
0001
0100
0000
0000
0000
,
1000
0000
0010
1000
0010
0000
1000
0000
0001
0000
0100
0000
0001
0000
0010
0000
,
0100
0000
1000
0100
1000
0000
1000
0000
0010
0000
1000
0100
1000
0000
0000
0000
,
2002
0000
0000
0000
,
3003
0000
0000
0000
;
