#TITLE:The Future;
#SUBTITLE:;
#ARTIST:Remix Station;
#TITLETRANSLIT:;
#SUBTITLETRANSLIT:;
#ARTISTTRANSLIT:;
#GENRE:DJ TECHNO;
#CREDIT:usaminseijin;
#BANNER:The Future.png;
#BACKGROUND:The Future-bg.png;
#LYRICSPATH:;
#CDTITLE:cdtitle.png;
#MUSIC:The Future.mp3;
#OFFSET:-0.453000;
#SAMPLESTART:46.331001;
#SAMPLELENGTH:26.285000;
#SELECTABLE:YES;
#BPMS:0.000000=146.091995
;
#STOPS:
;
#BGCHANGES:;
#KEYSOUNDS:;
#ATTACKS:;

//---------------dance-single - ----------------
#NOTES:
     dance-single:
     :
     Hard:
     12:
     0.555209,0.618662,0.838479,0.158631,0.016996,343.000000,269.000000,74.000000,14.000000,0.000000,0.000000,0.555209,0.618662,0.838479,0.158631,0.016996,343.000000,269.000000,74.000000,14.000000,0.000000,0.000000:
0000
0000
0000
0000
,
0000
0000
0000
0000
,
1000
0000
0000
0002
0000
0000
0003
0000
,
1002
1000
1000
1003
,
0001
0001
0001
0001
,
0100
0100
0100
0100
,
1001
0000
1000
0001
1000
0001
1000
0000
,
2001
0001
0001
3001
,
1000
1000
1000
1000
,
0010
0010
0010
0010
,
0100
0000
0010
0000
1000
0001
1000
0001
0000
0000
0100
0010
0100
0000
0000
0000
,
1001
1000
0101
0100
,
0110
0010
0101
0100
,
1001
1000
1010
0010
,
0110
0100
0101
0001
,
1000
0010
0100
0010
1000
0010
0100
0010
,
1000
0001
0100
0001
1000
0001
0100
0001
,
0100
0010
1000
0010
0100
0010
1000
0010
,
0100
0001
0010
0001
0100
0001
0010
0001
,
1001
1000
2001
3001
,
0110
0100
0210
0310
,
1010
0010
0102
0103
,
1000
0001
1000
0001
2000
0000
3010
0000
,
0110
1002
0013
0210
,
1300
2100
3001
1002
,
1003
0100
1001
0010
0110
1000
0110
0001
,
1000
0001
1000
0001
1000
0001
1000
0001
,
2002
0000
0000
3003
,
0100
0010
1000
0100
0010
0001
0100
0010
,
1000
0100
0010
0001
0100
0010
1000
0100
,
0010
0100
1000
0010
0100
0001
0010
0100
,
1000
0010
0100
0001
0010
0100
1000
0010
,
1000
0001
0010
1000
0001
0100
1000
0001
,
0010
1000
0001
0100
1000
0001
0010
1000
,
0001
0100
1000
0001
0010
1000
0001
0100
,
1000
0001
0010
1000
0001
0100
1000
0010
,
1000
0100
1001
0000
1000
0110
0000
0000
,
0001
0100
1001
0000
1000
0110
0000
0000
,
1000
0100
0011
0000
1000
0101
0000
0000
,
0001
0010
1100
0000
0001
1010
0000
0000
,
1000
0010
1100
0000
0010
0101
0000
0000
,
0001
0100
1010
0000
0100
0011
0000
0000
,
1000
0001
0110
0000
0100
1001
0000
0000
,
0100
0010
1001
0000
0001
0110
0000
0000
,
1001
1001
1010
1010
,
0110
0110
0101
0101
,
1001
1001
0110
0110
,
1001
0000
0110
0110
0000
1001
1001
0000
,
1010
1010
0101
0101
,
0110
0110
0000
1001
1001
0000
0110
0000
,
1100
1100
0011
0011
,
2001
0000
0000
3001
,
0110
0000
0000
0000
;

//---------------dance-single - ----------------
#NOTES:
     dance-single:
     :
     Medium:
     10:
     0.503411,0.530282,0.509886,0.079316,0.000000,311.000000,266.000000,45.000000,7.000000,0.000000,0.000000,0.503411,0.530282,0.509886,0.079316,0.000000,311.000000,266.000000,45.000000,7.000000,0.000000,0.000000:
0000
0000
0000
0000
,
0000
0000
0000
0000
,
1000
0000
0000
0002
0000
0000
0003
0000
,
1001
1000
1000
1000
,
0001
0001
0001
0001
,
0100
0100
0100
0100
,
1001
0000
1000
0001
1000
0001
1000
0000
,
1001
0001
0001
0001
,
1000
1000
1000
1000
,
0010
0010
0010
0010
,
0100
0010
2000
0002
3003
0200
0310
0000
,
1001
1000
0110
0100
,
1001
0001
0110
0010
,
1001
1000
1010
0010
,
0110
0100
0101
0001
,
1000
0010
1000
0010
0100
0001
0100
0001
,
1000
0001
1000
0001
0100
0010
0100
0010
,
1000
0100
1000
0100
0010
0001
0010
0001
,
0100
0001
0100
0001
1000
0010
1000
0010
,
1000
1000
1001
0001
,
0110
0100
0110
0010
,
1010
0010
0101
0100
,
1000
0001
1000
0001
1000
0000
0010
0000
,
0100
1001
0010
0110
,
1000
1100
0001
1001
,
1000
0100
1000
0100
0010
0001
0010
0001
,
1000
0001
1000
0001
1000
0001
1000
0001
,
2002
0000
0000
3003
,
1000
0100
1000
0100
0010
0001
0010
0001
,
0100
0001
0100
0001
0100
0010
0100
0010
,
1000
0010
1000
0010
0100
0001
0100
0001
,
1000
0001
1000
0001
0100
0001
0100
0001
,
1000
0010
1000
0010
0100
0010
0100
0010
,
1000
0001
1000
0001
0100
0001
0100
0001
,
1000
0100
1000
0100
0010
0001
0010
0001
,
1000
0010
1000
0010
0100
0001
0100
0001
,
1000
0100
0001
0000
1000
0001
0000
0000
,
0001
0100
1000
0000
0001
1000
0000
0000
,
1000
0100
0010
0000
1000
0010
0000
0000
,
0100
0010
0001
0000
0100
0001
0000
0000
,
1000
0010
0001
0000
1000
0001
0000
0000
,
0001
0010
1000
0000
0001
1000
0000
0000
,
0001
0100
0010
0000
0001
0100
0000
0000
,
1000
0010
0100
0000
1000
0010
0000
0000
,
1001
1001
1010
1010
,
0110
0110
0101
0101
,
1001
1001
0110
0110
,
1001
0000
0100
0010
0000
1000
0001
0000
,
1010
1010
0101
0101
,
0010
0100
0000
0001
1000
0000
0110
0000
,
1100
1100
0011
0011
,
2001
0000
0000
3001
,
0110
0000
0000
0000
;

//---------------dance-single - ----------------
#NOTES:
     dance-single:
     :
     Easy:
     5:
     0.349636,0.412441,0.169962,0.045323,0.000000,216.000000,201.000000,15.000000,4.000000,0.000000,0.000000,0.349636,0.412441,0.169962,0.045323,0.000000,216.000000,201.000000,15.000000,4.000000,0.000000,0.000000:
0000
0000
0000
0000
,
0000
0000
0000
0000
,
2000
0000
0000
3001
0000
0000
0000
0000
,
1000
1000
0001
0001
,
0100
0100
0010
0010
,
1000
1000
0001
0001
,
1001
0000
0000
0100
0000
1001
0000
0000
,
0100
0100
0010
0010
,
1000
1000
0001
0001
,
0100
0100
0010
0010
,
1000
0001
1000
0000
0010
0100
0000
0000
,
1001
0100
0010
0100
,
0110
1000
0001
1000
,
1001
0010
0100
0010
,
0110
0001
1000
0001
,
1000
0100
1000
0000
0001
0010
0001
0000
,
1000
0010
1000
0000
0001
0100
0001
0000
,
1000
0100
0010
0000
0100
0010
0001
0000
,
1000
0010
0100
0000
0010
0100
0001
0000
,
1001
1000
0010
1000
,
0100
0010
0100
0010
,
1000
0001
1000
0001
,
0100
0010
0100
0010
,
1000
1001
0000
1001
,
0000
0110
0000
0110
,
1000
0001
1000
0001
,
0110
0100
0110
0010
,
2002
0000
0000
3003
,
1000
0001
1000
0001
,
1000
0001
1000
0001
,
1000
0001
1000
0001
,
1000
0001
1000
0001
,
0100
0010
0100
0010
,
0100
0010
0100
0010
,
0100
0010
0100
0010
,
0100
0010
0100
0010
,
1000
0001
1000
0001
,
1000
0001
1000
0001
,
1000
0001
1000
0001
,
1000
0001
1000
0001
,
0100
0010
0100
0010
,
0100
0010
0100
0010
,
0100
0010
0100
0010
,
0100
0010
0100
0010
,
1000
1000
1000
1000
,
0001
0001
0001
0001
,
0100
0100
0100
0100
,
0010
0000
0100
0010
0000
0100
0010
0000
,
1000
1000
0001
0001
,
1000
0001
0000
1000
0001
0000
1000
0000
,
0010
0010
0100
0100
,
0020
0000
0000
0130
,
1001
0000
0000
0000
;

//---------------dance-single - ----------------
#NOTES:
     dance-single:
     :
     Beginner:
     3:
     0.200717,0.294601,0.022662,0.000000,0.000000,124.000000,122.000000,2.000000,0.000000,0.000000,0.000000,0.200717,0.294601,0.022662,0.000000,0.000000,124.000000,122.000000,2.000000,0.000000,0.000000,0.000000:
// measure 0
0000
0000
0000
0000
,  // measure 1
0000
0000
0000
0000
,  // measure 2
0000
0000
0000
0000
,  // measure 3
1000
0000
1000
0000
,  // measure 4
0100
0000
0100
0000
,  // measure 5
0010
0000
0010
0000
,  // measure 6
0001
0000
0001
0000
,  // measure 7
1000
0000
1000
0000
,  // measure 8
0010
0000
0010
0000
,  // measure 9
0100
0000
0100
0000
,  // measure 10
0001
0000
0001
0000
,  // measure 11
1000
0000
1000
0000
,  // measure 12
0010
0000
0010
0000
,  // measure 13
0100
0000
0100
0000
,  // measure 14
0001
0000
0001
0000
,  // measure 15
1000
1000
1000
0000
,  // measure 16
0001
0001
0001
0000
,  // measure 17
0100
0100
0100
0000
,  // measure 18
0010
0010
0010
0000
,  // measure 19
0000
1000
0000
1000
,  // measure 20
0000
0001
0000
0001
,  // measure 21
0000
0100
0000
0100
,  // measure 22
0000
0010
0000
0010
,  // measure 23
0000
0100
0000
0010
,  // measure 24
0000
1000
0000
0001
,  // measure 25
1000
1000
1000
1000
,  // measure 26
0001
0001
0001
0001
,  // measure 27
1001
0000
0000
0000
,  // measure 28
1000
1000
0001
0000
,  // measure 29
0100
0100
0010
0000
,  // measure 30
1000
1000
0100
0000
,  // measure 31
0010
0010
0001
0000
,  // measure 32
1000
0010
0010
0000
,  // measure 33
0100
0001
0001
0000
,  // measure 34
1000
0100
0100
0000
,  // measure 35
0010
0001
0001
0000
,  // measure 36
1000
1000
0001
0000
,  // measure 37
0001
0001
1000
0000
,  // measure 38
0010
0010
0100
0000
,  // measure 39
0100
0100
0010
0000
,  // measure 40
1000
0001
1000
0000
,  // measure 41
0001
1000
0001
0000
,  // measure 42
0100
0010
0100
0000
,  // measure 43
0010
0100
0010
0000
,  // measure 44
1000
0000
1000
0000
,  // measure 45
0001
0000
0001
0000
,  // measure 46
0100
0000
0100
0000
,  // measure 47
0010
0000
0010
0000
,  // measure 48
1000
0000
1000
0000
,  // measure 49
0001
0000
0001
0000
,  // measure 50
0100
0000
0100
0000
,  // measure 51
0010
0000
0000
0100
,  // measure 52
1001
0000
0000
0000
;
