#TITLE:Tell Me;
#SUBTITLE:;
#ARTIST:Groove Theory;
#TITLETRANSLIT:Tell Me;
#SUBTITLETRANSLIT:;
#ARTISTTRANSLIT:;
#GENRE:;
#CREDIT:;
#MUSIC:Tell Me.ogg;
#BANNER:bn.png;
#BACKGROUND:bg.png;
#CDTITLE:;
#SAMPLESTART:41.412;
#SAMPLELENGTH:18.380;
#SELECTABLE:YES;
#OFFSET:-0.225;
#BPMS:0.000=93.023;
#STOPS:;
#BGCHANGES:16.000=snow3.avi=1.000=1=0=1===CrossFade==,
24.000=snow3r.avi=1.000=0=0=1,
32.000=snow4.avi=1.000=0=0=1,
48.000=text8.avi=1.000=0=0=1,
64.000=cube2.avi=1.400=0=0=1,
72.000=cube4.avi=1.000=0=0=1,
80.000=spiral2.avi=1.000=0=0=1,
88.000=text5.avi=1.000=0=0=1,
96.000=cube2.avi=1.000=0=0=1,
104.000=cube4.avi=1.000=0=0=1,
112.000=spiral2.avi=1.000=0=0=1,
120.000=text5.avi=1.000=0=0=1,
128.000=snow4.avi=1.000=0=0=1,
144.000=spiral2.avi=1.000=0=0=1,
152.000=Tell Me-jacket.png=1.000=1=0=1===CrossFade==,
99999.000=-nosongbg-=1.000=0=0=0=StretchNoLoop====
;
#FGCHANGES:;

//--------------- dance-single - ----------------
#NOTES:
     dance-single:
     :
     Beginner:
     1:
     0.076,0.111,0.01,0,0:
0000
0000
0000
0000
,
0000
0000
0000
0000
,
0000
0000
0000
0000
,
0000
0000
0000
0000
,
1000
0000
0000
0000
,
1000
0000
0000
0000
,
0001
0000
0000
0000
,
0001
0000
0000
0000
,
1001
0000
0000
0000
,
1000
0000
0001
0000
,
1000
0000
0000
0000
,
0001
0000
1000
0000
,
0001
0000
0000
0000
,
0100
0000
0000
0000
,
0100
0000
0100
0000
,
0100
0000
0000
0000
,
0010
0000
0010
0000
,
1000
0000
0000
0000
,
0001
0000
0001
0000
,
1000
0000
0000
0000
,
0100
0000
0100
0000
,
1000
0000
0000
0000
,
0010
0000
0010
0000
,
1000
0000
0000
0000
,
0001
0000
0001
0000
,
0001
0000
0000
0000
,
0100
0000
0100
0000
,
0100
0000
0000
0000
,
0010
0000
0010
0000
,
0010
0000
0000
0000
,
1000
0000
1000
0000
,
1000
0000
0000
0000
,
0001
0000
0001
0000
,
1000
1000
1000
0000
,
0001
0000
0001
0000
,
1000
1000
1000
0000
,
0100
0000
0100
0000
,
0100
0000
0000
0000
,
0010
0000
0010
0000
,
0010
0000
0000
0000
;

//--------------- dance-single - ----------------
#NOTES:
     dance-single:
     :
     Easy:
     4:
     0.148,0.204,0,0.038,0:
0000
0000
0000
0000
,
0000
0000
0000
0000
,
0000
0000
0000
0000
,
0000
0000
0000
0000
,
1000
0000
1000
0000
,
0001
0000
0001
0000
,
0100
0000
0100
0000
,
0010
0000
0010
0000
,
1000
0001
1000
0000
,
0001
0100
0001
0000
,
0001
0010
0001
0000
,
1000
0001
1000
0000
,
0001
0001
0100
0000
,
1000
1000
0100
0000
,
1000
0000
0001
0000
,
0100
0000
0001
0000
,
1000
0001
1000
0001
,
0100
0000
0100
0000
,
0001
1000
0001
1000
,
0100
0000
0100
0000
,
1000
0010
1000
0010
,
0100
0000
0100
0000
,
0001
0001
1000
1000
,
0100
0000
0100
0000
,
1000
0001
1000
0001
,
0010
0000
0010
0000
,
0001
1000
0001
1000
,
0100
0000
0100
0000
,
1000
0010
1000
0010
,
0100
0000
0100
0000
,
0001
1000
0001
1000
,
0010
0000
0010
0000
,
0001
0001
1000
1000
,
0020
1030
0200
1300
,
0001
0001
1000
1000
,
2000
3010
2000
3010
,
1000
1000
0001
0001
,
0100
0000
0100
0000
,
0001
0001
1000
1000
,
0100
0000
0000
0000
;

//--------------- dance-single - ----------------
#NOTES:
     dance-single:
     :
     Medium:
     5:
     0.269,0.302,0.181,0.124,0:
0000
0000
0000
0000
,
0000
0000
0000
0000
,
0000
0000
0000
0000
,
0000
0000
0000
0000
,
2000
0000
3010
0000
2000
0000
3001
0100
,
0002
2003
3200
2300
,
3020
0000
2030
0000
3001
0000
1000
0001
,
1000
0000
0001
0100
0001
0000
1001
0000
,
1000
0000
0001
0000
0100
0000
0001
0100
,
0000
0000
0001
0000
1000
0001
1000
0000
,
1000
0000
0010
0000
1000
0000
0001
1000
,
0000
1001
0001
1000
,
0001
1000
0002
0000
1000
0000
0103
0000
,
1000
0001
2000
0000
0001
0000
3100
0000
,
0001
0001
1000
1000
,
0100
1100
0100
0101
,
1001
0000
1000
0000
0001
0000
1000
0001
,
0000
0000
0110
0000
0001
1000
0001
0000
,
1000
0000
0010
0000
1000
0000
0001
1000
,
0000
0000
1001
0000
0001
1000
0001
0000
,
1000
0000
0010
0000
1000
0000
0001
0100
,
0000
0000
1001
0000
0001
0100
0001
0000
,
1000
0000
0001
0000
0100
0000
0001
0100
,
0000
0000
1001
0000
1000
0001
1000
0000
,
1000
0000
0001
0000
1000
0000
0100
1000
,
0000
0000
1001
0000
0001
1000
0001
0000
,
1000
0000
0010
0000
1000
0000
0001
0100
,
0000
0000
1001
0000
0001
1000
0001
0000
,
1000
0000
1000
0000
0001
0000
0001
0100
,
0000
0000
1001
0000
1000
0001
1000
0000
,
0010
0000
0010
0000
1000
0000
1000
0001
,
0000
0000
1001
0000
0001
1000
0001
0000
,
1000
0010
1000
0010
2000
0000
3001
0000
,
0001
0100
0001
0000
1010
0000
1100
0000
,
1001
0000
0001
1000
0002
0000
1003
0000
,
1000
0010
1000
0010
2000
0000
3001
0000
,
1001
0000
0001
0000
1000
0000
1000
0100
,
0000
0000
1001
0000
0001
1000
0001
0000
,
1000
0000
1000
0000
0010
0000
1000
0010
,
0000
0000
1001
0000
1000
0001
1000
0000
;

//--------------- dance-single - ----------------
#NOTES:
     dance-single:
     :
     Hard:
     8:
     0.307,0.321,0.181,0.152,0.095:
0000
0000
0000
0000
,
0000
0000
0000
0000
,
0000
0000
0000
0000
,
0000
0000
0000
0000
,
0001
0000
0000
0000
1000
0000
0000
0010
0000
0000
0000
0000
1000
0000
0001
0000
,
2000
0000
3002
0000
0203
0000
0301
1000
,
0002
0000
1003
2000
0000
3000
0001
0001
,
0100
0000
0000
0000
0001
0000
0000
1000
0000
0000
0000
0000
1001
0000
0000
0000
,
0001
0000
1000
0000
0001
0000
0100
0000
0001
0000
0000
1000
0000
0000
0002
0000
,
0000
0000
0003
0000
1001
0000
0000
0001
1000
0000
0000
0000
1000
0000
0000
0000
,
1000
0000
0010
0000
1000
0000
0010
0000
1000
0000
0000
0001
0000
0000
0200
0000
,
0000
0000
0300
0000
1001
0000
0000
0001
1000
0000
0000
0000
0001
0000
0000
0000
,
0100
0001
0100
0001
2000
0000
3010
0000
,
0001
1000
0001
1000
0002
0000
0103
0000
,
1000
0001
1000
0000
0001
1000
0001
0000
,
2010
0000
0001
0000
0100
0100
3100
0000
,
0001
0000
1000
0000
0001
0000
0000
0000
0100
0000
0000
0100
0000
0000
0100
0000
,
0000
0000
1001
0000
1000
0001
1000
0000
,
0001
0000
1000
0000
0001
0000
0000
0000
0010
0000
0000
0010
0000
0000
0010
0000
,
0000
0000
1001
0000
0001
1000
1000
0000
,
0001
0000
1000
0000
0001
0000
0000
0000
1000
0000
0000
1000
0000
0000
1000
0000
,
0000
0000
1001
0000
0001
1000
0100
0000
,
0001
0000
1000
0000
0001
0000
0000
0000
0010
0000
0000
0010
0000
0000
0010
0000
,
0000
0000
1001
0000
1000
0100
1000
0000
,
0010
0000
1000
0000
0010
0000
0000
0000
2000
0000
0000
0001
0000
0000
3001
0000
,
0000
0000
0000
0000
1001
0000
0000
0001
1000
0000
0000
0000
0100
0000
0000
0000
,
1000
0000
0010
0000
1000
0000
0000
0000
0002
0000
0000
0100
0000
0000
0103
0000
,
0000
0000
0000
0000
1001
0000
0000
1000
0020
0000
0000
0000
2030
0000
0000
0000
,
3001
0000
1000
0000
0001
0000
0000
0000
0002
0000
0000
0010
0000
0000
0103
0000
,
0000
0000
0000
0000
1001
0000
0000
1000
0010
0000
0000
0000
0100
0000
0000
0000
,
0001
0000
1000
0000
0001
0000
0000
0000
2000
0000
0000
0100
0000
0000
3010
0000
,
0000
0000
0000
0000
1001
0000
0000
0001
1000
0000
0000
0000
0001
0000
0000
0000
,
1000
0001
1000
0001
0100
0001
0100
0000
,
1000
0001
1000
0010
1001
0000
1100
0000
,
0001
1000
0001
0100
0001
1000
0001
0000
,
1000
0010
1000
0001
1100
0000
1010
0000
,
1001
0000
0000
0000
0001
0000
1000
0000
0001
0000
0000
1000
0000
0000
0100
0000
,
0000
0000
1001
0000
0001
1000
0001
0000
,
1000
0000
0010
0000
1000
0000
0001
0000
1000
0000
0000
0001
0000
0000
0100
0000
,
0000
0000
1001
0000
0001
1000
0001
0000
;

//--------------- dance-single - ----------------
#NOTES:
     dance-single:
     :
     Challenge:
     11:
     0.405,0.359,0.266,0.209,0.238:
0000
0000
0000
0000
,
0000
0000
0000
0000
,
0000
0000
0000
0000
,
0000
0000
0000
0000
,
1000
0000
0000
0001
0100
0000
0001
0100
0000
0000
0000
0001
1000
0000
1000
0000
,
0002
0000
0000
0000
1003
0000
0100
0000
1000
0000
0000
0100
0010
0100
0010
0000
,
1000
0000
0001
0000
1000
0000
0100
0000
1000
0000
0000
1000
0001
0000
1000
0000
,
0001
0000
0000
1000
0100
1000
0100
1000
0000
0000
0001
0000
1001
0000
0000
0000
,
0001
0000
1000
0000
0100
0000
1000
0000
2000
0000
0000
0010
0000
0000
3100
0000
,
0000
0000
0001
0000
0001
0000
0000
1000
0100
0000
1000
0000
0001
0000
0100
0000
,
1001
0000
1000
0000
0010
0000
1000
0000
0002
0000
0000
0010
0000
0000
0103
0000
,
0000
0000
1000
0000
1000
0000
0000
0001
1000
0001
0000
1000
0001
1000
0000
0001
,
0000
1000
0000
0200
0000
0000
0000
0000
1300
0000
0000
0000
0001
1000
0000
0001
,
0000
1000
0000
0100
0000
2000
0000
0000
0000
0000
3001
0000
0001
0000
0000
1000
,
0002
0000
2003
0000
3001
0100
0002
0000
,
2003
0000
0000
0000
3200
0000
0000
0000
1300
0100
1000
0000
1001
0000
0000
0000
,
1001
0000
0001
0000
0100
0000
0001
0000
2010
0000
0000
0010
0000
0000
3100
0000
,
0000
0000
0001
0000
1000
0000
0000
0001
0100
0000
0001
0000
1000
0000
0001
0000
,
1000
0000
0001
0000
0100
0000
0001
0000
2001
0000
0000
0010
0000
0000
3001
0000
,
0000
0000
0001
0000
1001
0000
0000
0001
1000
0000
0001
0000
0100
0000
0001
0000
,
1000
0000
0100
0000
1000
0000
0001
0000
2100
0000
0000
0001
0000
0000
3100
0000
,
0000
0000
0001
0000
1001
0000
0000
1000
0001
0000
0100
0000
0001
0000
1000
0000
,
0010
0000
1000
0000
0001
0000
0100
0000
0012
0000
0000
0100
0000
0000
0013
0000
,
0000
0000
0001
0000
1001
0000
0000
1000
0001
0000
1000
0100
0000
0100
1000
0000
,
0001
0000
1000
0000
0001
0000
0100
0000
0002
0000
0000
1000
0000
0000
0103
0000
,
0000
0000
1000
0000
1001
0000
0000
0001
2000
0000
0000
0001
0000
0000
3001
0000
,
1000
0000
0001
0000
0100
0000
0001
0000
2001
0000
0000
0001
0000
0000
3100
0000
,
0000
0000
0001
0000
1001
0000
0000
0010
1000
0000
0000
0000
1001
0000
0000
0000
,
0001
0000
0100
0000
0001
0000
1000
0000
0012
0000
0000
0010
0000
0000
0103
0000
,
0000
0000
0001
0000
1001
0000
0000
0001
0100
0000
0000
0001
0000
0000
1000
0000
,
0001
0000
1000
0000
0100
0000
1000
0000
0102
0000
0000
1000
0000
0000
0103
0000
,
0000
0000
0001
0000
1001
0000
0000
1000
0001
0000
0100
0000
0001
0000
0000
0000
,
1000
1000
0001
0001
0100
0100
0001
0001
,
1000
1000
0010
0010
1010
1000
1100
0000
,
1001
0001
0100
0100
0001
0001
1000
1000
,
0010
0010
1000
1000
1100
1000
1001
0000
,
0100
0000
0001
0000
0100
0000
0001
0000
2001
0000
0000
0001
0000
0000
3100
0000
,
0000
0000
0001
0000
1001
0000
0000
1000
0002
0000
0000
0000
1003
0000
0000
0000
,
1000
0000
0001
0000
0100
0000
0001
0000
2010
0000
0000
0010
0000
0000
3100
0000
,
0000
0000
0001
0000
1001
0000
0000
1000
0001
0000
0100
0000
0001
0000
0000
0000
;
