#TITLE:Sweetest Day of May;
#SUBTITLE:;
#ARTIST:Joe. T Vanelli Project;
#TITLETRANSLIT:;
#SUBTITLETRANSLIT:;
#ARTISTTRANSLIT:;
#CREDIT:;
#BANNER:;
#BACKGROUND:;
#LYRICSPATH:;
#CDTITLE:;
#MUSIC:Sweetest Day of May.ogg;
#OFFSET:-0.080;
#SAMPLESTART:29.540;
#SAMPLELENGTH:12.000;
#SELECTABLE:YES;
#BPMS:0.000=127.000,48.000=128.000,64.000=127.240;
#STOPS:;
#BGCHANGES:;

//---------------dance-double - ----------------
#NOTES:
     dance-double:
     :
     Hard:
     12:
     0.571,0.632,0.236,0.029,0.439:
00000000
00000000
00000000
00000000
,
00000000
00000000
00000000
00000000
,
00000000
00000000
00000000
00000000
,
00000000
00000000
00000000
00000000
,
00010000
00000000
00000000
00000000
00010000
00000000
00000000
00010000
00000000
00000000
00010000
00000000
00000000
00010000
00000000
00000000
,
01000000
00000000
00000000
00000000
01000000
00000000
00000000
01000000
00000000
00000000
01000000
00000000
00000000
01000000
00000000
00000000
,
00001000
00000000
00000000
00000000
00001000
00000000
00000000
00001000
00000000
00000000
00001000
00000000
00000000
00001000
00000000
00000000
,
00000100
00000000
00000000
00000000
00000100
00000000
00000000
00000100
00000000
00000000
00000100
00000000
00000000
00000100
00000000
00000000
,
00000100
00000000
00000200
00000000
00000001
00000000
00000000
00000310
00000000
00000000
00010000
00000000
00000000
00001000
00000000
00000000
,
01000000
00000000
02000000
00000000
10000000
00000000
00000000
03100000
00000000
00000000
00001000
00000000
00000000
00010000
00000000
00000000
,
00000020
00000000
00000000
00000000
00000001
00000000
00000000
00000100
00000000
00000000
00001030
00000000
00000000
00010000
00000000
00000000
,
00200000
00000000
00000000
00000000
10000000
00000000
00000000
01000000
00000000
00000000
00310000
00000000
00000000
00001000
00000000
00000000
,
00000010
00000010
00000000
00000000
00000000
00000000
00000000
00000000
,
01000000
01000000
00000000
00000000
00000000
00000000
00000000
00000000
,
00100000
00100000
00000000
00000000
00000100
00000100
00000000
00000000
,
00011000
00100000
00011000
00000100
00011000
00011000
00011000
00001000
,
01000000
00000000
00100000
00000000
10000000
00000000
01000000
00100000
00000000
00010000
00100000
00000000
01000000
00000000
10000000
00000000
,
00100000
00000000
00010000
00000000
00001000
00000000
00010000
00001000
00000000
00001000
00010000
00000000
00000100
00000000
00000010
00000000
,
00000001
00000000
00000100
00000000
00000010
00000000
00000100
00000010
00000000
00001000
00000010
00000000
00000100
00000000
00000001
00000000
,
00000010
00000000
00001000
00000000
00010000
00000000
00001000
00010000
00000000
00010000
00001000
00000000
00011000
00000000
00000000
00000000
,
00001000
00010000
01000000
00000000
00010000
00001000
00000100
00000000
,
00001000
00000000
00010000
00001000
00000000
00000000
00000000
00000000
00010000
00000000
00001000
00000000
00000000
00000010
00000000
00000000
,
00000001
00000000
00000100
00000000
00000010
00000000
00001000
00000100
00000000
00010000
00001000
00000000
00100000
00000000
00010000
00000000
,
10000000
00000000
00000000
00000000
00000000
00000000
00100000
00000000
00000000
00000000
00000000
00000000
01000000
00000000
00000000
00000000
00000000
00000000
00010000
00000000
00000000
01000000
00000000
00000000
00000000
00000000
00000000
00001000
00000000
00000000
00010000
00000000
00000000
00000000
00000000
00000000
00001000
00000000
00010000
00000000
00001000
00000000
00010000
00000000
00001000
00000000
00010000
00000000
,
00001000
00001000
00000000
00010000
01000000
10000000
01000000
00010000
,
00001000
00001000
00000000
00001000
00000100
00000001
00000100
00001000
,
00010000
00010000
00001000
00010000
00100000
00010000
00001000
00000010
,
00001000
00001000
00010000
00000100
00000010
00000001
00000100
00001000
,
00011000
00000000
00000000
00110000
00100000
01000000
00000000
10100000
,
00100000
01000000
00000000
01010000
00001000
00010000
00000000
00001100
,
00010000
00001000
00000000
00010010
00000010
00000100
00000000
00000101
,
00000001
00000010
00000000
00000011
00000010
00000100
00001000
00010000
,
01000000
01000000
00000000
01000000
00100000
10000000
01000000
00000000
,
00010000
00000000
00001000
00010000
00001000
00000000
00000000
00000100
00000000
00000000
00000001
00000000
00000000
00000010
00000000
00000000
,
00000110
00000000
00000000
00000000
00000100
00000000
00000000
00001000
00000000
00000000
00010000
00000000
00000000
00100000
00000000
00000000
,
10010000
00000000
00000000
00000000
10000000
00000000
00000000
10000000
00000000
00000000
01000000
00000000
00100000
00000000
00000000
00000000
,
00001000
00010000
00000000
00010000
00000100
00000010
00000001
00000100
,
00001000
00010000
00000000
00001000
01000000
00100000
10000000
00010000
,
00100000
00001000
00000000
00010000
00000100
00000010
00000001
00000100
,
00000010
00000000
00001000
00000000
00000100
00000000
00000000
00000100
00000000
00000000
00010000
00000000
00000000
00100000
00000000
00000000
,
10000000
01000000
00100000
01000000
10000000
01000000
00100000
01000000
,
10000000
01000000
00100000
00001000
00010000
00000100
00000010
00000001
,
00000100
00000010
00000100
00000001
00000100
00000010
00000100
00000001
,
00000100
00000001
00000010
00001000
00010000
01000000
10000000
00010000
,
10000000
00000000
10000000
00100000
01000000
00001000
00011000
00000000
,
00010000
00000100
00000010
00000001
00001001
00000000
00000001
00000100
,
00001000
00010000
00011000
00000000
00010000
01000000
10000000
00100000
,
10100000
00000000
00000000
00000000
00000000
00000000
00000000
00000000
00000000
00110000
00000000
00000000
00000000
00000000
00000000
00000000
00000000
00000000
00011000
00000000
00000000
00000000
00000000
00000000
00000000
00000000
00000000
00001010
00000000
00000000
00000000
00000000
00000000
00000000
00000000
00000000
00001000
00000000
00000001
00000000
00001000
00000000
00000001
00000000
00001000
00000000
00000001
00000000
,
00001000
00000001
00000100
00001000
00000100
00000001
00000100
00001000
,
00010000
00000000
00000000
01000000
00000000
00000000
10000000
00000000
00000000
01000000
00000000
00000000
00010000
00000000
00000000
01000000
00000000
00000000
10000000
00010000
10000000
00010000
10000000
00010000
,
10000000
00000000
10000000
00100000
01000000
00001000
00011000
00000000
,
00010000
00000100
00000010
00000100
00011000
00000000
00001000
00100000
,
00010000
01000000
01100000
00000000
00100000
10000000
01000000
00100000
,
01100000
00000000
00000000
00011000
00000000
00000000
00000110
00000000
00000000
00011000
00000000
00000000
00000000
00010000
00000000
00000000
,
00011000
00000100
00000000
00000000
00000001
00000100
00000000
00000100
,
00001000
00000100
00000001
00000100
00001000
00000100
00000001
00000100
,
00001000
00000010
00000001
00000010
00001000
00000010
00000001
00000010
,
00010000
01000000
10000000
01000000
00010000
01000000
10000000
00100000
,
10100000
00000000
10000000
00100000
00000000
10000000
00100000
00000000
10000000
00100000
00000000
10000000
00100000
00000000
00000000
00000000
,
01000000
00000000
00010000
01000000
00000000
00010000
01000000
00000000
00010000
01000000
00000000
00010000
01000000
00000000
00000000
00000000
,
01000000
00000000
00001000
00010000
00000000
00001000
00010000
00000000
00001000
00010000
00000000
00001000
00010000
00000000
00000000
00000000
,
00010000
00000000
00000010
00001000
00000000
00000010
00001000
00000000
00000010
00001000
00000000
00000010
00001000
00000000
00000000
00000000
,
00001001
00000000
00001000
00000001
00000000
00001000
00000001
00000000
00001000
00000001
00000000
00001000
00000001
00000000
00000000
00000000
,
00000100
00000000
00000010
00000100
00000000
00000010
00000100
00000000
00000010
00000100
00000000
00000010
00000100
00000000
00000000
00000000
,
00000010
00000000
00010000
00001000
00000000
00010000
00001000
00000000
00010000
00001000
00000000
00010000
00001000
00000000
00000000
00000000
,
00100000
00000000
00000000
00000000
00000000
00000000
00010000
00000000
00000000
10000000
00000000
00000000
00000000
00000000
00000000
00010000
00000000
00000000
10000000
00000000
00000000
00000000
00000000
00000000
00010000
00000000
00000000
10000000
00000000
00000000
00000000
00000000
00000000
00010000
00000000
00000000
10000000
00000000
00010000
00000000
10000000
00000000
00010000
00000000
10000000
00000000
00010000
00000000
,
10000000
00000000
01000000
00100000
00000000
00001000
00010000
00000000
00000100
00000010
00000000
00000001
00000100
00000000
00000010
00000000
,
00010000
00000000
00001000
00100000
00000000
00010000
01000000
00000000
00100000
10000000
00000000
01000000
00010000
00000000
00001000
00000000
,
00010000
00000000
00000100
00000010
00000000
00000001
00000100
00000000
00001000
00010000
00000000
00100000
10000000
00000000
01000000
00000000
,
00100000
00000000
01000000
00100000
00000000
10000000
00010000
00000000
00001000
00000100
00000000
00000100
00000001
00000000
00000010
00000000
,
00000001
00000000
00000100
00000010
00000000
00001000
00000100
00000000
00010000
00001000
00000000
00100000
00010000
00000000
01000000
00000000
,
00100000
00000000
10000000
00100000
00000000
01000000
00010000
00000000
00100000
00001000
00000000
00010000
00000100
00000000
00000010
00000000
,
00000001
00000000
00000100
00000010
00000000
00001000
00000100
00000000
00010000
00001000
00000000
00100000
00010000
00000000
01000000
00000000
,
00100000
00000000
10000000
01000000
00000000
01000000
00100000
00000000
00100000
00001000
00000000
00001000
00010000
00000000
00000000
00000000
;

//---------------dance-single - ----------------
#NOTES:
     dance-single:
     :
     Hard:
     12:
     0.537,0.606,0.429,0.064,0.446:
0000
0000
0000
0000
,
0000
0000
0000
0000
,
0000
0000
0000
0000
,
0000
0000
0000
0000
,
1000
0000
0000
0000
1000
0000
0000
1000
0000
0000
1000
0000
0000
1000
0000
0000
,
0100
0000
0000
0000
0100
0000
0000
0100
0000
0000
0100
0000
0000
0100
0000
0000
,
0010
0000
0000
0000
0010
0000
0000
0010
0000
0000
0010
0000
0000
0010
0000
0000
,
0001
0000
0000
0000
0001
0000
0000
0001
0000
0000
0001
0000
0000
0001
0000
0000
,
1001
0000
0000
1001
0000
0000
0000
0000
0000
0000
1000
0000
0000
0100
0000
0000
,
0110
0000
0000
0110
0000
0000
0000
0000
0000
0000
0001
0000
0000
0100
0000
0000
,
0020
0000
0000
0000
1000
0000
0000
1030
0000
0000
1000
0000
0000
0100
0000
0000
,
0020
0000
0000
0000
0001
0000
0000
0031
0000
0000
0001
0000
0000
0100
0000
0000
,
0110
0000
0001
1000
0000
0000
0000
0000
0000
0000
0001
0000
0000
0010
0000
0000
,
0110
0000
1000
0001
0000
0000
0000
0000
0000
0000
1000
0000
0000
0001
0000
0000
,
1001
0100
0000
0000
1001
0010
0000
0000
,
1001
0100
1001
0010
1001
1001
1001
0000
,
1100
0000
0000
0000
1001
0000
1000
0100
0000
0100
0010
0000
0001
0000
0100
0000
,
0110
0000
0000
0000
1010
0000
1000
0010
0000
0010
0100
0000
0001
0000
0010
0000
,
0200
0000
0000
0000
1000
0000
0000
1000
0300
0000
1000
0100
0000
1000
0100
0000
,
0020
0000
0000
0000
0001
0000
0000
0031
0000
0000
0001
0100
0000
0001
0100
0000
,
0010
0010
1000
0000
1000
0100
1000
0000
,
1000
0000
0001
1000
0000
0000
0000
0000
1001
0000
1000
0000
0000
0000
0100
0000
,
0010
0000
0000
0000
0001
0000
0100
0010
0000
0100
0010
0000
1000
0100
0000
1000
,
0100
0000
0000
0000
0000
0000
0000
0000
0000
0000
0000
0000
0100
0000
0000
0000
0000
0000
0010
0000
0000
0100
0000
0000
0000
0000
0000
0010
0000
0000
0100
0000
0000
0000
0000
0000
1000
0000
0001
0000
1000
0000
0001
0000
1000
0000
0001
0000
,
1000
0001
0000
1000
0100
0010
0001
1000
,
0001
0000
0010
0100
0000
0000
1000
0000
0010
0000
0100
0000
0001
0000
1000
0000
,
0010
0000
0010
0100
0001
1000
0100
0010
,
0001
0001
0010
0100
1100
0000
0101
0000
,
1001
0000
0000
1100
1000
0100
0000
0101
,
0001
0100
0000
1010
1000
0010
0000
0011
,
0001
0010
0000
1100
1000
0001
0000
0011
,
0001
1000
0000
1010
1000
0010
0100
0001
,
0010
0010
0000
0000
0010
0010
0010
0000
,
0100
0000
1000
0100
0000
0100
0000
0000
0000
0000
0010
0000
0000
0001
0000
0000
,
1000
0000
0000
0000
2010
0000
0000
3100
0000
0000
1000
0000
0001
0000
0010
0000
,
0100
0000
0100
0000
1000
0000
0000
1000
0000
0000
0010
0000
0000
0001
0000
0000
,
0011
0001
0000
0001
0010
1000
0100
0000
,
1100
1000
0000
1000
0010
0100
0001
0000
,
0101
0001
0000
0001
0010
0100
1000
0010
,
0101
0000
0000
0000
0001
0000
0000
0001
0000
0000
0100
0000
0000
0010
0000
0000
,
1100
0000
1000
0000
0000
0000
1000
0000
0010
0000
0010
1000
0000
1000
0010
0000
,
1010
0000
1000
0000
0000
0000
1000
0000
0001
0000
0100
0001
0000
0001
0100
0000
,
0101
0000
0001
0000
0000
0000
0001
0000
0010
0000
0001
0010
0000
0010
0001
0000
,
0011
0000
0001
0000
0100
0000
0000
0100
0000
0000
0001
0000
0000
1000
0000
0000
,
1010
0000
1000
0001
0100
0010
0110
0000
,
0100
0001
0010
0100
0110
0000
0100
1000
,
0010
0100
0110
0000
0100
0001
0010
0100
,
1100
0000
0000
0000
0000
0000
0000
0000
0000
0101
0000
0000
0000
0000
0000
0000
0000
0000
1100
0000
0000
0000
0000
0000
0000
0000
0000
0101
0000
0000
0000
0000
0000
0000
0000
0000
1000
0000
0100
0000
1000
0000
0100
0000
1000
0000
0100
0000
,
1000
0000
0001
0000
0000
0000
0000
0100
0000
0000
0000
0100
0000
0000
0100
0000
,
0001
0000
0000
0000
0000
0000
0000
0001
0000
0000
0000
0001
0000
0000
0001
0000
,
0010
0000
0000
0000
0010
0000
0100
0000
0000
0100
0000
0000
1000
0000
0000
0000
,
1000
0010
0000
0010
0100
0000
0100
0001
,
0000
0001
1000
0000
1000
0010
0000
0010
,
1010
0000
0000
0011
0000
0000
1010
0000
0000
0011
0000
0000
0000
1001
0000
0000
,
1001
0000
0100
0000
0100
0000
0000
0100
0000
0000
0100
0000
0000
0000
0100
0000
,
0001
0100
1000
0100
0001
0100
1000
0010
,
0001
0010
1000
0010
0001
0010
1000
0100
,
0001
0000
0000
0100
0000
0000
1000
0000
0000
0100
0000
0000
0001
0000
0000
0100
0000
0000
1000
0001
1000
0001
1000
0001
,
2000
0000
0000
0100
0000
0000
3002
0000
0000
0100
0000
0000
1003
0000
0000
0000
,
1000
0000
0000
1000
0000
0000
0001
0000
0000
0001
0000
0000
0001
0000
0000
0000
,
1000
0000
0000
0001
0000
0000
0010
0000
0000
0001
0000
0000
1000
0000
0000
0000
,
0001
0000
0000
1000
0000
0000
0010
0000
0000
1000
0000
0000
0100
0000
0000
0000
,
2000
0000
0000
0010
0000
0000
3002
0000
0000
0010
0000
0000
1003
0000
0000
0000
,
0001
0000
0000
0001
0000
0000
1000
0000
0000
1000
0000
0000
1000
0000
0000
0000
,
1000
0000
0000
1000
0000
0000
0010
0000
0000
1000
0000
0000
0100
0000
0000
0000
,
1000
0000
0000
1000
0000
0000
0010
0000
0000
1000
0000
0000
0110
0000
0000
0000
,
1001
0000
1000
0100
0000
0010
0001
0000
0100
0010
0000
1000
0001
0000
0000
0000
,
1001
0000
0001
0100
0000
0010
1000
0000
0100
0010
0000
0001
1000
0000
0000
0000
,
1001
0000
1000
0100
0000
0100
0010
0000
0010
0001
0000
0001
1000
0000
0000
0000
,
1001
0000
0001
0100
0000
0100
0010
0000
0010
1000
0000
1000
0001
0000
0000
0000
,
1001
0000
1000
0010
0000
0100
0001
0000
0001
0010
0000
0100
1000
0000
0000
0000
,
1001
0000
0001
0010
0000
0100
1000
0000
1000
0010
0000
0100
0001
0000
0000
0000
,
1001
0000
0001
0010
0000
0010
0100
0000
0100
1000
0000
1000
0001
0000
0000
0000
,
1001
0000
1000
0010
0000
0010
0100
0000
0100
0001
0000
0001
1000
0000
0000
0000
;

//---------------dance-double - ----------------
#NOTES:
     dance-double:
     :
     Medium:
     8:
     0.359,0.421,0.129,0.086,0.136:
00000000
00000000
00000000
00000000
,
00000000
00000000
00000000
00000000
,
00000000
00000000
00000000
00000000
,
00000000
00000000
00000000
00000000
,
00010000
00001000
00010000
00001000
,
00010000
01000000
10000000
01000000
,
00010000
00001000
00010000
00001000
,
00000100
00000001
00000100
00001000
,
00010000
00001000
00000000
00000000
00000000
00000000
00000000
00000000
,
00001000
00010000
00000000
00000000
00000000
00000000
00000000
00000000
,
01000000
00100000
01000000
00000000
,
00000100
00000010
00000100
00000000
,
00000001
00000001
00000000
00000000
00000000
00000000
00000000
00000000
,
00001000
00001000
00000000
00000000
00000000
00000000
00000000
00000000
,
00010000
00010000
00000000
00000000
10000000
10000000
00000000
00000000
,
00010000
00001000
00010000
00001000
00010000
00001000
00010000
00001000
,
00010000
00000000
00001000
00000000
00010000
00000000
00000100
00000010
,
00000001
00000000
00000100
00000000
00000001
00000000
00000010
00000100
,
00001000
00000000
00000100
00000000
00001000
00000000
00000100
00010000
,
00001000
00000000
00010000
00000000
00001000
00000000
00100000
00010000
,
01000000
10000000
01000000
00000000
01000000
00010000
10000000
00000000
,
10000000
01000000
00100000
00000000
00100000
00000000
00001000
00010000
,
00001000
00000000
00010000
00000000
00001000
00000000
00010000
00001000
,
00010000
00000100
00000010
00000001
,
00000100
00001000
00000000
00000000
00001000
00010000
00001000
00000000
,
00010000
01000000
00000000
00000000
01000000
10000000
01000000
00000000
,
00100000
00000000
00000000
00000000
00100000
00010000
00100000
00000000
,
00001000
00010000
00011000
00010100
,
00001100
00000000
00000000
00001100
00000000
00001100
00000000
00000101
,
00000000
00000101
00000000
00000011
00000000
00000011
00000000
00001010
,
00000000
00001010
00000000
00011000
00000000
00011000
00000000
00110000
,
00000000
00110000
00000000
10100000
00000000
10100000
00000000
00000000
,
10000000
00010000
10000000
00000000
10000000
01000000
00010000
00000000
,
00010000
00001000
00010000
00000000
00010000
00000000
00000100
00000010
,
00000001
00000000
00000100
00000000
00000010
00000000
00000100
00000010
,
00001000
00000100
00010000
00001000
,
00120000
00000000
10000000
01000000
,
00230000
00000000
00010000
00001000
,
00300200
00000000
00000001
00000010
,
00002300
00000000
00000010
00000001
,
00003100
00000000
00001000
00000000
00000100
00001000
00000100
00000000
,
00001000
00000000
00000010
00000000
00001000
00000010
00001000
00000000
,
00000010
00000000
00000001
00000000
00000010
00000001
00000010
00000000
,
00000001
00000000
00000100
00000000
00000001
00000100
00000001
00000000
,
00000100
00000000
00010000
00001000
00000000
00100000
00010000
00000000
,
10000000
00100000
00000000
10000000
00010000
00000000
00100000
00010000
,
00000000
00001000
00010000
00000000
00010000
00000100
00000000
00010000
,
00001000
00000000
00000000
00000100
00000000
00000000
00001000
00000000
00000000
00010000
00000000
00000000
00100000
00000000
00000000
00000000
,
00010000
00000000
00000000
00000000
00000000
00000000
00000000
00000000
00010000
00000000
00000000
00010000
00000000
00000000
00010000
00000000
,
00001000
00000000
00000000
00000000
00000000
00000000
00000000
00000000
00001000
00000000
00000000
00001000
00000000
00000000
00001000
00000000
,
00000100
00000000
00000001
00000010
00000000
00000100
00000010
00000000
,
00000001
00000100
00000000
00001000
00000100
00000000
00000001
00000010
,
00000000
00000010
00000001
00000000
00000100
00001000
00000000
00001000
,
00010000
00000000
00000000
00100000
00000000
00000000
00010000
00000000
00000000
00001000
00000000
00000000
00000000
00000000
00000100
00000000
,
00000001
00000010
00000000
00000000
00000100
00000010
00000000
00000100
,
00001000
00000000
00001000
00000100
00000001
00000000
00000001
00000100
,
00001000
00000000
00001000
00000010
00000001
00000000
00000001
00000010
,
00010000
00000000
00010000
01000000
10000000
00000000
10000000
01000000
,
00020000
00000000
00000000
00001000
00000000
00000000
00000100
00000000
00000000
00000010
00000000
00000000
00000100
00000000
00000000
00000000
,
00032000
00000000
00000000
00010000
00000000
00000000
01000000
00000000
00000000
00100000
00000000
00000000
01000000
00000000
00000000
00000000
,
00203000
00000000
00000000
00010000
00000000
00000000
01000000
00000000
00000000
10000000
00000000
00000000
01300000
00000000
00000000
00000000
,
02000000
00000000
00000000
10000000
00000000
00000000
00100000
00000000
00000000
00010000
00000000
00000000
13000000
00000000
00000000
00000000
,
00200000
00000000
00000000
10000000
00000000
00000000
01000000
00000000
00000000
00010000
00000000
00000000
01000000
00000000
00000000
00000000
,
00320000
00000000
00000000
00001000
00000000
00000000
00000100
00000000
00000000
00000010
00000000
00000000
00000100
00000000
00000000
00000000
,
00032000
00000000
00000000
00010000
00000000
00000000
00000010
00000000
00000000
00010000
00000000
00000000
00000100
00000000
00000000
00000000
,
00023000
00000000
00000000
00000100
00000000
00000000
00000010
00000000
00000000
00001000
00000000
00000000
00000100
00000000
00000000
00000000
,
00031000
00000000
00000000
00000100
00000000
00000000
00000001
00000000
00000000
00000100
00000000
00000000
00001000
00000000
00000000
00000000
,
00010000
00000000
00000000
01000000
00000000
00000000
10000000
00000000
00000000
01000000
00000000
00000000
00010000
00000000
00000000
00000000
,
00001000
00000000
00000000
00000010
00000000
00000000
00000001
00000000
00000000
00000010
00000000
00000000
00001000
00000000
00000000
00000000
,
00010000
00000000
00000000
00100000
00000000
00000000
10000000
00000000
00000000
00100000
00000000
00000000
00010000
00000000
00000000
00000000
,
00001000
00000000
00000000
00000100
00000000
00000000
00000001
00000000
00000000
00000010
00000000
00000000
00001000
00000000
00000000
00000000
,
00010000
00000000
00000000
01000000
00000000
00000000
10000000
00000000
00000000
00100000
00000000
00000000
00010000
00000000
00000000
00000000
,
00010000
00000000
00000000
00100000
00000000
00000000
10000000
00000000
00000000
01000000
00000000
00000000
00010000
00000000
00000000
00000000
,
00001000
00000000
00000000
00000010
00000000
00000000
00000001
00000000
00000000
00000100
00000000
00000000
00001000
00000000
00000000
00000000
;

//---------------dance-single - ----------------
#NOTES:
     dance-single:
     :
     Medium:
     8:
     0.358,0.421,0.200,0.000,0.146:
0000
0000
0000
0000
,
0000
0000
0000
0000
,
0000
0000
0000
0000
,
0000
0000
0000
0000
,
1000
1000
1000
1000
,
0100
0100
0100
0100
,
0010
0010
0010
0010
,
0001
0001
0001
0001
,
1001
1000
0000
0000
,
1001
0000
0001
0000
0000
0000
1000
0010
,
0100
0000
0100
0000
0001
0000
0010
0100
,
1000
0000
0010
0000
1000
0000
0100
0010
,
0001
1000
0000
0000
0000
0000
0000
0000
,
1000
0001
0000
0000
0000
0000
0000
0000
,
0100
0010
0000
0000
1000
0001
0000
0000
,
1000
0001
1000
0001
1000
0001
1000
0001
,
1000
0000
1000
0000
1000
0000
0100
0010
,
0001
0000
0001
0000
0001
0000
0001
0100
,
0010
0000
0010
0000
0010
0000
0010
1000
,
0001
0001
0001
0100
,
1001
0100
1001
0010
,
0011
0100
1010
0100
,
1000
0010
0100
0000
0101
0000
0001
0000
,
0010
0100
1000
0000
0010
0000
1000
0001
,
1001
0000
0100
0000
0001
0010
0100
1000
,
0001
0000
1000
0000
0001
1000
0100
0010
,
0001
0000
0100
0000
0010
1000
0100
1000
,
0010
0100
0001
0010
,
0110
0000
0000
1100
0000
1100
0000
0101
,
0000
0101
0000
1001
0000
1001
0000
1010
,
0000
1010
0000
0011
0000
0011
0000
0110
,
0000
1001
0000
0110
0000
1001
0000
0000
,
1000
0001
0000
0000
0001
0100
0010
0000
,
1000
0100
0010
0001
,
1001
0000
1000
0001
,
0110
1000
0001
1000
,
0000
0100
0000
0000
0010
0000
0010
0000
,
0000
0001
0000
0000
1000
0000
1000
0000
,
0000
0010
0000
0000
0100
0000
0100
0000
,
0000
0001
0000
0000
0010
0000
0010
0000
,
0100
1000
0000
1000
0010
1000
0010
0000
,
0000
0100
0000
0001
0010
0001
0010
0000
,
0000
0100
0000
1000
0001
1000
0001
0000
,
0000
0100
0000
0000
0001
0000
1000
0000
,
1001
0000
1000
0100
0000
0010
0100
0000
,
1000
0100
0000
0010
0100
0000
1000
0010
,
0000
0100
0001
0000
0100
0010
0000
0100
,
0001
0000
0000
0001
0000
0000
1000
0000
0000
1000
0000
0000
0001
0000
0000
0000
,
1001
0000
1000
0000
0000
0000
0000
1000
0000
0000
0000
1000
0000
0000
1000
0000
,
1000
0000
0100
0000
0000
0000
0000
0100
0000
0000
0000
0100
0000
0000
0100
0000
,
0010
0000
0001
0100
0000
0010
1000
0000
,
0100
0010
0000
0001
1000
0000
0010
0100
,
0000
0001
0010
0000
0100
1000
0000
0001
,
1000
0000
0000
1000
0000
0000
0001
0000
0000
0001
0000
0000
0000
0100
0000
0000
,
0100
0010
0000
0000
0000
0110
0000
0000
,
0100
0010
1000
0000
1000
0010
0100
0000
,
0100
0001
0010
0000
0010
0001
0100
0000
,
0100
0010
1000
0000
1000
0010
0100
0000
,
0001
0000
0000
0001
0000
0000
0001
0000
0000
0001
0000
0000
0001
0000
0000
0000
,
1000
0000
0000
1000
0000
0000
1000
0000
0000
1000
0000
0000
1000
0000
0000
0000
,
0001
0000
0000
0001
0000
0000
0010
0000
0000
0001
0000
0000
0001
0000
0000
0000
,
1000
0000
0000
1000
0000
0000
0010
0000
0000
1000
0000
0000
1000
0000
0000
0000
,
1000
0000
0000
1000
0000
0000
1000
0000
0000
1000
0000
0000
1000
0000
0000
0000
,
0001
0000
0000
0001
0000
0000
0001
0000
0000
0001
0000
0000
0001
0000
0000
0000
,
0100
0000
0000
0100
0000
0000
0001
0000
0000
0100
0000
0000
0100
0000
0000
0000
,
0001
0000
0000
0001
0000
0000
0010
0000
0000
0001
0000
0000
0100
0000
0000
0000
,
0001
0000
0000
0100
0000
0000
1000
0000
0000
0100
0000
0000
0001
0000
0000
0000
,
0001
0000
0000
1000
0000
0000
0100
0000
0000
1000
0000
0000
0001
0000
0000
0000
,
1000
0000
0000
0010
0000
0000
0001
0000
0000
0010
0000
0000
1000
0000
0000
0000
,
1000
0000
0000
0001
0000
0000
1000
0000
0000
0010
0000
0000
1000
0000
0000
0000
,
0001
0000
0000
0100
0000
0000
0010
0000
0000
0100
0000
0000
0001
0000
0000
0000
,
0001
0000
0000
0100
0000
0000
1000
0000
0000
0100
0000
0000
0010
0000
0000
0000
,
1000
0000
0000
0100
0000
0000
0010
0000
0000
0100
0000
0000
1000
0000
0000
0000
,
1000
0000
0000
0001
0000
0000
0010
0000
0000
0001
0000
0000
0100
0000
0000
0000
;

//---------------dance-double - ----------------
#NOTES:
     dance-double:
     :
     Easy:
     6:
     0.239,0.342,0.093,0.100,0.000:
00000000
00000000
00000000
00000000
,
00000000
00000000
00000000
00000000
,
00000000
00000000
00000000
00000000
,
00000000
00000000
00000000
00000000
,
00010000
00010000
00010000
00010000
,
01000000
01000000
01000000
01000000
,
00010000
00010000
00010000
00010000
,
00000010
00000010
00000010
00000010
,
00001001
00000000
00000000
00000000
,
00011000
00000000
00000000
00000000
,
20000000
00000000
01000000
00000000
,
30002000
00000000
00013000
00000000
,
00011000
00000000
00000000
00000000
,
00100100
00000000
00000000
00000000
,
00011000
00000000
01000010
00000000
,
00011000
00011000
00011000
00011000
,
00010000
00001000
00010000
00000000
,
00001000
00010000
00001000
00000000
,
00100000
00010000
00100000
00000000
,
00010000
00100000
00010000
00000000
,
10000000
01000000
10000000
00000000
,
01000000
10000000
01000000
00000000
,
10000000
00010000
10000000
00000000
,
00010000
10000000
00010000
00000000
,
10000000
01000000
00010000
00000000
,
00001000
00000100
00000001
00000000
,
00000001
00000010
00001000
00000000
,
00010000
00100000
10000000
00100000
,
00010000
00000000
00000000
00000100
00000000
00000100
00000000
00001000
,
00000000
00001000
00000000
00000001
00000000
00000001
00000000
00000010
,
00000000
00000010
00000000
00001000
00000000
00001000
00000000
00010000
,
00000000
00010000
00000000
01000000
00000000
01000000
00000000
00000000
,
00100000
00001000
00000100
00001000
,
00010000
00001000
00000010
00001000
,
00010000
00010000
00010000
00000000
,
00001000
00001000
00001000
00000000
,
10000000
00010000
10000000
01000000
,
00010000
00001000
00010000
00000100
,
00000001
00001000
00000001
00000100
,
00001000
00010000
00001000
01000000
,
10000000
00010000
10000000
00100000
,
00001000
00010000
00001000
00000010
,
00000001
00001000
00000001
00000010
,
00001000
00010000
00001000
00100000
,
10000000
00000000
00000000
01000000
00000000
00000000
00010000
00000000
,
00000000
00001000
00000000
00000000
00000100
00000000
00000000
00000001
,
00000000
00000000
00000100
00000000
00000000
00001000
00000000
00000000
,
00020000
00000000
00000000
00002000
00000000
00000000
00000000
00000000
,
00033000
00000000
00010000
01000000
,
10000000
00000000
00001000
00000100
,
00000001
00000000
00000000
00000010
00000000
00000000
00001000
00000000
,
00000000
00010000
00000000
00000000
00100000
00000000
00000000
10000000
,
00000000
00000000
00100000
00000000
00000000
00010000
00000000
00000000
,
00002000
00000000
00000000
00020000
00000000
00000000
00000000
00000000
,
00033000
00010000
00000000
00000000
00000000
00010000
00000000
00000000
,
00010000
01000000
10000000
01000000
,
00001000
00000010
00000001
00000010
,
00010000
01000000
10000000
01000000
,
00020000
00000000
00000000
00000000
,
00032000
00000000
00000000
00000000
,
00003200
00000000
00000000
00000000
,
00000302
00000000
00000000
00000000
,
00000023
00000000
00000000
00000000
,
00002030
00000000
00000000
00000000
,
00023000
00000000
00000000
00000000
,
00230000
00000000
00000000
00000000
,
10300000
01000000
00100000
01000000
,
10000000
00100000
01000000
00100000
,
10000000
01000000
00010000
01000000
,
10000000
00100000
00010000
10010000
,
00001001
00000100
00000010
00000100
,
00001000
00000010
00000100
00000010
,
00001000
00000100
00000001
00000100
,
00001000
00000010
00000001
00001001
;

//---------------dance-single - ----------------
#NOTES:
     dance-single:
     :
     Easy:
     5:
     0.228,0.369,0.250,0.093,0.000: // measure 1
0000
0000
0000
0000
,  // measure 2
0000
0000
0000
0000
,  // measure 3
0000
0000
0000
0000
,  // measure 4
0000
0000
0000
0000
,  // measure 5
1000
0000
0000
1000
,  // measure 6
0100
0000
0000
0100
,  // measure 7
0010
0000
0000
0010
,  // measure 8
0001
0000
0000
0001
,  // measure 9
1001
0000
0000
0000
,  // measure 10
0110
0000
0000
0000
,  // measure 11
0001
0000
0100
0000
,  // measure 12
1000
0000
0100
0000
,  // measure 13
0101
0000
0000
0000
,  // measure 14
1100
0000
0000
0000
,  // measure 15
1001
0000
0110
0000
,  // measure 16
1001
1001
1001
1001
,  // measure 17
1001
1000
0100
0010
,  // measure 18
1001
0100
0010
1000
,  // measure 19
1001
1000
0010
0100
,  // measure 20
1001
0010
0100
1000
,  // measure 21
1001
0000
1000
0100
,  // measure 22
0110
0000
0000
0001
,  // measure 23
0101
0100
0010
1000
,  // measure 24
1100
1000
0010
0100
,  // measure 25
0001
0000
0010
0100
,  // measure 26
1001
0000
0100
0010
,  // measure 27
1001
0000
1000
0100
,  // measure 28
0011
0000
0001
0100
,  // measure 29
1010
0000
0000
0000
,  // measure 30
1000
0000
0100
0000
,  // measure 31
0010
0000
0001
0000
,  // measure 32
0100
0000
0010
0000
,  // measure 33
1000
0000
1000
1000
,  // measure 34
0001
0000
0001
0001
,  // measure 35
0010
0000
0010
0000
,  // measure 36
0001
0000
0001
0000
,  // measure 37
0011
0000
0000
0000
,  // measure 38
1010
0000
0000
1000
,  // measure 39
1100
0000
0000
0001
,  // measure 40
0101
0000
0000
0000
,  // measure 41
0001
0000
0100
0010
,  // measure 42
1010
0000
0100
0010
,  // measure 43
0011
0000
0001
0100
,  // measure 44
0101
0000
0100
0010
,  // measure 45
1000
0000
0000
0100
0000
0000
0010
0000
,  // measure 46
0000
0001
0000
0000
0100
0000
0000
0010
,  // measure 47
0000
0000
1000
0000
0000
0100
0000
0000
,  // measure 48
0020
0000
0000
0030
,  // measure 49
1001
0000
0001
0100
,  // measure 50
1000
0000
1000
0100
,  // measure 51
0001
0000
0000
0010
0000
0000
0100
0000
,  // measure 52
0000
1000
0000
0000
0010
0000
0000
0100
,  // measure 53
0000
0000
0001
0000
0000
1000
0000
0000
,  // measure 54
2002
0000
0000
3003
,  // measure 55
0110
0000
0000
0000
,  // measure 56
1000
0100
0010
0001
,  // measure 57
0001
0100
0010
1000
,  // measure 58
1000
0100
0010
0001
,  // measure 59
2002
0000
0000
0003
,  // measure 60
0200
0000
0000
0300
,  // measure 61
0002
0000
0000
3000
,  // measure 62
0020
0000
0000
0033
,  // measure 63
0220
0000
0000
0030
,  // measure 64
2000
0000
0000
0300
,  // measure 65
0020
0000
0000
0030
,  // measure 66
0002
0000
0000
3003
,  // measure 67
1000
0100
0001
0100
,  // measure 68
1000
0001
1000
0100
,  // measure 69
1000
0010
0001
0010
,  // measure 70
1000
0001
1000
0010
,  // measure 71
1000
0001
0100
1000
,  // measure 72
0100
0001
1000
0001
,  // measure 73
1000
0001
0010
1000
,  // measure 74
0010
0001
0100
0110
;

//---------------dance-single - ----------------
#NOTES:
     dance-single:
     :
     Beginner:
     3:
     0.095,0.211,0.057,0.000,0.000:
0000
0000
0000
0000
,
0000
0000
0000
0000
,
0000
0000
0000
0000
,
0000
0000
0000
0000
,
1000
0000
0000
0000
,
0100
0000
0000
0000
,
0001
0000
0000
0000
,
0100
0000
0000
0000
,
1000
0000
0000
0000
,
0001
0000
0000
0000
,
0010
0000
0000
0000
,
0010
0000
0000
0000
,
1000
0000
0000
0000
,
0001
0000
0000
0000
,
1000
0000
1000
0000
,
1000
1000
1000
1000
,
1000
0000
0000
0000
,
1000
0000
0000
0000
,
0001
0000
0000
0000
,
0001
0000
0000
0000
,
0100
0000
0100
0000
,
0100
0000
0000
0000
,
0010
0000
0000
0000
,
0010
0000
0000
0000
,
1000
0000
0000
0000
,
0100
0000
0000
0000
,
0010
0000
0000
0000
,
0001
0000
0000
0000
,
1001
0000
0000
0000
,
0000
0000
0000
0000
,
0000
0000
0000
0000
,
0000
0000
0000
0000
,
1000
0000
0000
0000
,
1000
0000
0000
0000
,
0001
0000
0000
0000
,
0001
0000
0000
0000
,
0100
0000
0000
0000
,
0100
0000
0000
0000
,
0100
0000
0000
0000
,
0100
0000
0000
0000
,
0010
0000
0000
0000
,
0010
0000
0000
0000
,
0010
0000
0000
0000
,
0010
0000
0000
0000
,
1000
0000
0000
0000
,
0000
0000
0000
0000
,
0000
0000
0000
0000
,
0001
0000
0000
0000
,
1001
0000
0000
0000
,
1001
0000
0000
0000
,
1001
0000
0000
0000
,
1000
0000
0000
0000
,
0001
0000
0000
0000
,
0100
0000
0000
0000
,
0110
0000
0000
0000
,
0100
0100
0100
0000
,
0010
0010
0010
0000
,
1000
1000
1000
0000
,
1001
0000
0000
0000
,
0100
0000
0000
0000
,
1000
0000
0000
0000
,
0010
0000
0000
0000
,
1001
0000
0000
0000
,
0100
0000
0000
0000
,
0001
0000
0000
0000
,
0010
0000
0000
0000
,
0001
0000
0001
0000
,
1000
0000
1000
0000
,
0100
0000
0100
0000
,
0010
0000
0010
0000
,
0001
0000
0001
0000
,
0100
0000
0100
0000
,
0010
0000
0010
0000
,
1000
0000
1000
1001
;
